<?xml version="1.0" standalone="no"?>
<!DOCTYPE svg PUBLIC "-//W3C//DTD SVG 1.1//EN" "http://www.w3.org/Graphics/SVG/1.1/DTD/svg11.dtd" >
<svg xmlns="http://www.w3.org/2000/svg" xmlns:xlink="http://www.w3.org/1999/xlink" version="1.1">
<metadata>
Created by FontForge 20201107 at Wed Apr 26 11:17:09 2023
 By 
Copyright 2019 The Darker Grotesque Project Authors (https://github.com/bettergui/DarkerGrotesque)
</metadata>
<defs>
<font id="DarkerGrotesque-SemiBold" horiz-adv-x="465" >
  <font-face 
    font-family="Darker Grotesque SemiBold"
    font-weight="600"
    font-stretch="normal"
    units-per-em="1000"
    panose-1="0 0 0 0 0 0 0 0 0 0"
    ascent="800"
    descent="-200"
    x-height="409"
    cap-height="563"
    bbox="-135 -239 1731 912"
    underline-thickness="50"
    underline-position="-125"
    unicode-range="U+000D-240D"
  />
<missing-glyph horiz-adv-x="563" 
d="M65 -125v738h433v-738h-433zM148 -53h267v595h-267v-595z" />
    <glyph glyph-name="w_w_w.liga" unicode="www" horiz-adv-x="1753" 
d="M107 0l-102 394v16h81l80 -340h2l96 340h73l99 -340h2l79 340h81v-16l-103 -394h-117l-76 266h-2l-75 -266h-118zM674 0l-102 394v16h81l80 -340h2l96 340h73l99 -340h2l79 340h81v-16l-103 -394h-117l-76 266h-2l-75 -266h-118zM1240 0l-102 394v16h81l80 -340h2l96 340
h73l99 -340h2l79 340h81v-16l-103 -394h-117l-76 266h-2l-75 -266h-118z" />
    <glyph glyph-name=".notdef" horiz-adv-x="563" 
d="M65 -125v738h433v-738h-433zM148 -53h267v595h-267v-595z" />
    <glyph glyph-name=".null" horiz-adv-x="0" 
 />
    <glyph glyph-name="nonmarkingreturn" horiz-adv-x="333" 
 />
    <glyph glyph-name="CR" unicode="&#xd;" horiz-adv-x="600" 
 />
    <glyph glyph-name="space" unicode=" " horiz-adv-x="228" 
 />
    <glyph glyph-name="exclam" unicode="!" horiz-adv-x="205" 
d="M111 -9q-30 0 -40 15.5t-10 36.5t10 35.5t40 14.5q28 0 38.5 -14.5t10.5 -35.5q0 -22 -10.5 -37t-38.5 -15zM82 152q-6 87 -12.5 153.5t-10.5 115.5t-1.5 80.5t14.5 46.5t38 15q24 0 36.5 -15t14.5 -47t-1.5 -81t-10 -115.5t-11.5 -152.5l-8 2t-20 2q-10 0 -19 -2z" />
    <glyph glyph-name="quotedbl" unicode="&#x22;" horiz-adv-x="315" 
d="M37 369v57h21q25 0 33 9.5t8 27.5q-32 -2 -45.5 12.5t-13.5 38.5q0 20 11 34.5t39 14.5q23 0 35.5 -14t12.5 -54q0 -36 -7.5 -64.5t-24.5 -45t-47 -16.5h-22zM184 369v57h21q25 0 33 9.5t8 27.5q-32 -2 -45.5 12.5t-13.5 38.5q0 20 11 34.5t39 14.5q23 0 35.5 -14
t12.5 -54q0 -36 -7.5 -64.5t-24.5 -45t-47 -16.5h-22z" />
    <glyph glyph-name="numbersign" unicode="#" horiz-adv-x="691" 
d="M87 0l139 344l72 219h79l-138 -338l-74 -225h-78zM28 152v72h556v-72h-556zM288 0l139 344l72 219h79l-137 -339l-74 -224h-79zM83 343v72h553v-72h-553z" />
    <glyph glyph-name="dollar" unicode="$" horiz-adv-x="544" 
d="M283 -12q-54 0 -106.5 19.5t-88.5 62t-42 110.5l82 12q0 -2 1.5 -15.5t9 -33t24.5 -38t46.5 -31t76.5 -12.5q35 0 59 8.5t39 21.5t21.5 27t6.5 25q1 32 -18 51t-51 31t-70 21t-75.5 21t-68.5 30.5t-48.5 49.5t-15.5 78q2 45 29.5 78t76 51t113.5 18q58 0 106 -21
t77 -62.5t28 -104.5l-79 -11q1 41 -15.5 65.5t-41 37t-49 16.5t-39.5 4q-48 0 -83 -21.5t-37 -58.5q-1 -32 18.5 -51t51.5 -30.5t70 -20t76 -20t69.5 -30t49 -49.5t15.5 -79q-2 -47 -33 -80.5t-79.5 -51t-105.5 -17.5zM247 -109l5 112h73l5 -112h-83zM252 555l-5 117h83
l-5 -117h-73z" />
    <glyph glyph-name="percent" unicode="%" horiz-adv-x="592" 
d="M116 0l-58 41l228 258l191 264l57 -40l-219 -247zM460 -10q-54 0 -78.5 33t-24.5 89q0 54 24 87t79 33t79.5 -33t24.5 -88q0 -53 -24.5 -87t-79.5 -34zM459 43q28 0 40 19.5t12 48.5q0 31 -12 50.5t-40 19.5q-27 0 -39 -19t-12 -51q0 -29 12 -48.5t39 -19.5zM132 332
q-54 0 -79 32.5t-25 87.5q0 54 24.5 87.5t78.5 33.5q55 0 80.5 -33.5t25.5 -87.5q0 -53 -25.5 -86.5t-79.5 -33.5zM131 385q28 0 39.5 19.5t11.5 48.5q0 30 -11.5 49.5t-39.5 19.5q-27 0 -39 -19t-12 -51q0 -28 12 -47.5t39 -19.5z" />
    <glyph glyph-name="ampersand" unicode="&#x26;" horiz-adv-x="641" 
d="M593 -2q-37 15 -69 33t-69 41q-41 -40 -94 -60t-107.5 -21t-100.5 18t-74.5 56t-28.5 93q0 39 15 66t37 45t44 29t35 18q-8 11 -22.5 30t-26 45t-11.5 57q0 41 21.5 68t55 41t72 14.5t72 -12.5t55 -39.5t21.5 -66.5q0 -34 -17.5 -60.5t-42 -45.5t-45 -30t-26.5 -14
q11 -14 33 -36t50 -47t58 -47q8 13 16 32t12 41t0.5 42.5t-18.5 36.5l70 47q7 -9 14.5 -28t12.5 -44t4.5 -54.5t-9.5 -60t-29 -58.5q29 -19 57 -35t66 -31zM390 119q-30 23 -59.5 49.5t-56.5 54.5t-48 53q-36 -18 -64.5 -42t-28.5 -66q0 -35 18.5 -58t48 -35t64.5 -11
t68 14.5t58 40.5zM241 342l18 9t26.5 15t28 21t23 25.5t9.5 28.5q2 26 -13 41.5t-37.5 21t-45.5 0t-38.5 -21t-15.5 -42.5q1 -20 12.5 -45.5t32.5 -52.5z" />
    <glyph glyph-name="quotesingle" unicode="'" horiz-adv-x="192" 
d="M52 369v57h21q25 0 33 9.5t8 27.5q-32 -2 -45.5 12.5t-13.5 38.5q0 20 11 34.5t39 14.5q23 0 35.5 -14t12.5 -54q0 -36 -7.5 -64.5t-24.5 -45t-47 -16.5h-22z" />
    <glyph glyph-name="parenleft" unicode="(" horiz-adv-x="309" 
d="M233 -199l-19.5 16t-47.5 47.5t-56.5 79.5t-47.5 112t-19 144q0 81 19 145.5t47.5 113t56.5 80.5t47.5 48l19.5 16l64 -65q-4 -3 -25 -16.5t-50 -39.5t-57 -65.5t-47 -93t-19 -123.5t20 -124.5t49.5 -93.5t59 -64.5t49.5 -37.5l20 -12z" />
    <glyph glyph-name="parenright" unicode=")" horiz-adv-x="299" 
d="M67 -199l-64 67l20 12t49.5 37.5t58.5 64.5t49 93.5t20 124.5q0 69 -18.5 123t-47 93.5t-57.5 65.5t-50 39.5t-24 16.5l64 65l19 -16t47.5 -48t56.5 -80.5t47.5 -113t19.5 -145.5q0 -80 -19.5 -144t-47.5 -112t-56.5 -79.5t-47.5 -47.5z" />
    <glyph glyph-name="asterisk" unicode="*" horiz-adv-x="380" 
d="M353 418l-132 -23l93 -95l-62 -45l-62 117l-62 -117l-62 45l94 95l-132 23l24 72l119 -60l-19 133h77l-19 -133l119 60z" />
    <glyph glyph-name="plus" unicode="+" horiz-adv-x="385" 
d="M163 84v280h60v-280h-60zM53 194v60h280v-60h-280z" />
    <glyph glyph-name="comma" unicode="," horiz-adv-x="206" 
d="M53 -95v58h21q25 0 33 9.5t8 27.5q-32 -2 -45.5 12t-13.5 38q0 21 11 35.5t39 14.5q23 0 35.5 -14t12.5 -54q0 -36 -7.5 -65t-24.5 -45.5t-47 -16.5h-22z" />
    <glyph glyph-name="hyphen" unicode="-" horiz-adv-x="317" 
d="M40 195v60h222v-60h-222z" />
    <glyph glyph-name="period" unicode="." horiz-adv-x="192" 
d="M87 0q-31 0 -41.5 16t-10.5 38q0 21 11 36.5t41 15.5q29 0 39.5 -15.5t10.5 -36.5q0 -23 -10.5 -38.5t-39.5 -15.5z" />
    <glyph glyph-name="slash" unicode="/" horiz-adv-x="369" 
d="M25 0l254 563h80l-254 -563h-80z" />
    <glyph glyph-name="zero" unicode="0" horiz-adv-x="529" 
d="M265 -14q-121 0 -179 79.5t-58 214.5q0 89 24.5 154.5t77 102t135.5 36.5q81 0 133.5 -36t78 -102t25.5 -155q0 -87 -25.5 -153.5t-78 -103.5t-133.5 -37zM264 56q83 0 121.5 58.5t38.5 165.5q0 72 -16.5 121.5t-52 76t-91.5 26.5q-81 0 -119.5 -56t-38.5 -168
q0 -71 16.5 -121t51 -76.5t90.5 -26.5z" />
    <glyph glyph-name="one" unicode="1" horiz-adv-x="354" 
d="M314 72v-72h-251v72h91v382q-9 -33 -27 -52t-37.5 -27t-35.5 -10t-21 -2v89q6 -1 25.5 2t43 14t41 33.5t18.5 61.5h74v-491h79z" />
    <glyph glyph-name="two" unicode="2" horiz-adv-x="506" 
d="M40 0v69q1 1 19.5 12t48.5 30t65.5 44.5t70.5 54.5t63.5 60.5t44.5 62.5q24 49 15 86t-40.5 58.5t-77.5 21.5q-56 -1 -90.5 -36.5t-28.5 -108.5l-77 10q-4 64 21 110t73 70t111 24q54 0 96.5 -19.5t67.5 -53.5t28 -78.5t-21 -93.5q-19 -36 -52.5 -72t-73.5 -67t-77.5 -55
t-64.5 -39t-35 -18h335v-72h-421z" />
    <glyph glyph-name="three" unicode="3" horiz-adv-x="504" 
d="M259 -10q-62 0 -113 22.5t-82 67t-31 112.5l79 10q2 -46 22.5 -77t53.5 -46.5t72 -15.5q38 0 68 13t47.5 37.5t17.5 55.5q0 28 -11.5 47t-29.5 30t-38 16t-37 5h-73v45h75q30 0 53.5 9t37 27.5t13.5 45.5q0 51 -35 80.5t-94 29.5q-36 0 -61 -12t-41 -30t-24 -38.5
t-9 -38.5l-75 11q1 13 7 34.5t20.5 46t38 46.5t58.5 36t84 14q96 0 151 -43.5t55 -117.5q0 -49 -26.5 -82t-76.5 -43q50 -8 83 -44.5t33 -89.5q0 -50 -27.5 -86.5t-75.5 -56.5t-109 -20z" />
    <glyph glyph-name="four" unicode="4" horiz-adv-x="511" 
d="M28 115v72q49 22 90.5 64t71.5 95.5t46.5 109.5t16.5 107h89q0 -68 -29 -138t-80 -132t-119 -106h362v-72h-448zM319 0v281h83v-281h-83z" />
    <glyph glyph-name="five" unicode="5" horiz-adv-x="517" 
d="M257 -10q-61 0 -105.5 21t-71.5 56t-37 78l83 11q1 -6 7.5 -21t21 -32t40 -29.5t64.5 -12.5q44 0 73 17.5t45 45t18 57.5q3 33 -11 63.5t-43.5 50.5t-76.5 20q-33 0 -56 -8.5t-36.5 -20.5t-20 -21t-6.5 -10l-84 15l29 293h360v-72h-300l-20 -190l8.5 11t27 25t48 25
t72.5 11q68 0 111.5 -28t63 -72.5t16.5 -92.5q-4 -48 -30.5 -91.5t-74.5 -71t-115 -27.5z" />
    <glyph glyph-name="six" unicode="6" horiz-adv-x="537" 
d="M277 -10q-81 0 -132.5 38t-75.5 101.5t-24 138.5q0 58 15.5 112.5t46.5 98t78 69t110 25.5q45 0 76.5 -11t52.5 -27t33 -33t16.5 -28l4.5 -11l-81 -17l-9.5 13.5t-32.5 27t-64 13.5q-37 0 -70 -18.5t-57 -54.5t-34 -87t-2 -116q1 16 12 39.5t33 47t56 39t83 14.5
q64 -1 105.5 -28t60.5 -70t15.5 -90t-29 -89.5t-72.5 -69.5t-115 -27zM281 60q43 0 73 17.5t45.5 45.5t17 59.5t-11 60t-40.5 47t-71 20.5q-49 2 -83 -20t-52.5 -56t-18.5 -71q8 -33 28.5 -56t49.5 -35t63 -12z" />
    <glyph glyph-name="seven" unicode="7" horiz-adv-x="495" 
d="M116 0q0 116 33.5 208.5t92 163.5t133.5 119h-333v72h413v-70q-24 -16 -56.5 -41.5t-67.5 -64.5t-65 -93.5t-48.5 -127t-18.5 -166.5h-83z" />
    <glyph glyph-name="eight" unicode="8" horiz-adv-x="550" 
d="M273 -10q-66 0 -119 18.5t-83.5 55t-30.5 89.5q0 55 37.5 95t101.5 50q-34 7 -55 21.5t-32 33t-15 37t-4 32.5q0 45 25.5 79t70.5 53t104 19q61 0 106 -19.5t70 -53.5t25 -78q0 -14 -4 -32.5t-15 -37t-32 -33t-55 -21.5q65 -11 102.5 -49.5t37.5 -95.5q0 -54 -31 -90.5
t-84 -54.5t-120 -18zM273 56q71 0 112 31t41 80q0 56 -41 83t-112 27q-70 0 -111 -27t-41 -83q0 -49 41 -80t111 -31zM273 319q58 0 92.5 21.5t34.5 65.5q0 49 -35.5 75.5t-91.5 26.5q-57 0 -91.5 -26.5t-34.5 -75.5q0 -30 16.5 -49.5t45.5 -28.5t64 -9z" />
    <glyph glyph-name="nine" unicode="9" horiz-adv-x="538" 
d="M259 -10q-50 0 -85.5 12t-58.5 29.5t-36.5 35t-19 29.5t-6.5 13l81 19q0 -1 6.5 -10.5t20.5 -22t38 -22t60 -9.5q39 0 68.5 17.5t48.5 51t27.5 83.5t6.5 115q-2 -15 -13 -37.5t-32.5 -44.5t-53.5 -37t-76 -15q-67 0 -110.5 27t-64 69t-18 89.5t27.5 90t73 69t118 26.5
q63 0 108.5 -23.5t73 -64t39.5 -93.5t9 -113q-2 -59 -15 -110.5t-40 -90.5t-70.5 -61t-106.5 -22zM252 249q65 0 102.5 39.5t44.5 98.5q-14 57 -50.5 85t-88.5 28q-44 0 -74 -18t-45.5 -46.5t-16.5 -60.5t13 -60.5t42.5 -46.5t72.5 -19z" />
    <glyph glyph-name="colon" unicode=":" horiz-adv-x="212" 
d="M106 38q-30 0 -40.5 15.5t-10.5 37.5q0 21 10.5 36.5t40.5 15.5t40 -15.5t10 -36.5q0 -22 -10 -37.5t-40 -15.5zM106 268q-29 0 -40 15t-11 38q0 21 11 36.5t40 15.5q30 0 40 -16t10 -36q0 -22 -10 -37.5t-40 -15.5z" />
    <glyph glyph-name="semicolon" unicode=";" horiz-adv-x="211" 
d="M110 305q-30 0 -40.5 15.5t-10.5 37.5q0 21 10.5 36.5t40.5 15.5q29 0 39.5 -15.5t10.5 -36.5q0 -23 -10.5 -38t-39.5 -15zM58 -95v58h21q25 0 33.5 9.5t8.5 27.5q-32 -2 -46 12t-14 38q0 21 11 35.5t39 14.5q24 0 36 -14t12 -54q0 -36 -7.5 -65t-24.5 -45.5t-46 -16.5
h-23z" />
    <glyph glyph-name="less" unicode="&#x3c;" horiz-adv-x="385" 
d="M353 395v-68l-253 -96l253 -96v-70l-320 166z" />
    <glyph glyph-name="equal" unicode="=" horiz-adv-x="385" 
d="M40 261v57h306v-57h-306zM40 128v57h306v-57h-306z" />
    <glyph glyph-name="greater" unicode="&#x3e;" horiz-adv-x="385" 
d="M33 395l320 -164l-320 -166v70l253 96l-253 96v68z" />
    <glyph glyph-name="question" unicode="?" horiz-adv-x="442" 
d="M251 155h-75q1 33 16 59t37.5 48.5t45 43.5t38.5 45t17 53q1 41 -25.5 66.5t-73.5 25.5q-32 0 -52.5 -11.5t-32 -30t-15.5 -39.5t-4 -41h-79q-5 36 3.5 70.5t30 62.5t57.5 45t88 17t94 -19t66.5 -53.5t24.5 -82.5q0 -40 -16 -68t-39.5 -50t-47.5 -42t-40.5 -43.5
t-17.5 -55.5zM214 -9q-30 0 -40 15.5t-10 36.5t10.5 35.5t39.5 14.5t38.5 -14.5t9.5 -35.5q0 -22 -9.5 -37t-38.5 -15z" />
    <glyph glyph-name="at" unicode="@" horiz-adv-x="784" 
d="M393 -154q-69 0 -131.5 19t-111 58.5t-76.5 99.5t-28 142t28.5 147t78 112t115.5 71.5t141 24.5q64 0 122.5 -18t104.5 -53t72 -84.5t26 -111.5q0 -56 -22 -106.5t-63.5 -82t-99.5 -31.5q-39 0 -55.5 19t-16.5 46q-1 24 5.5 48t9.5 45l17 137h64l-32 -180
q-7 -34 -1 -55.5t33 -21.5q35 0 59.5 22.5t37.5 58.5t13 76q0 69 -36 120.5t-96.5 79.5t-134.5 28q-81 0 -145.5 -37.5t-101 -101t-36.5 -143.5q0 -82 35 -136.5t95 -82t136 -27.5q50 0 102 13.5t103 39.5l42 -71q-57 -31 -122.5 -47.5t-130.5 -16.5zM358 39q-54 0 -83 34
t-29 88q0 45 19.5 86t54 67.5t79.5 26.5q55 0 84 -33t29 -85q0 -45 -18.5 -87.5t-53 -69.5t-82.5 -27zM378 86q39 0 62 21t33 52.5t10 62.5q0 33 -16.5 52t-54.5 19q-33 0 -57 -18t-37 -47t-13 -61q0 -36 18 -58.5t55 -22.5z" />
    <glyph glyph-name="A" unicode="A" horiz-adv-x="554" 
d="M19 0l189 563h137l193 -563h-89l-171 528l-171 -528h-88zM134 168l3 66h280l4 -66h-287z" />
    <glyph glyph-name="B" unicode="B" horiz-adv-x="549" 
d="M58 0v563h213q27 0 57 -2.5t58.5 -10.5t51.5 -24.5t36.5 -43.5t13.5 -68q0 -32 -12.5 -59.5t-45 -44.5t-94.5 -19v-4q71 -1 109.5 -20t53.5 -49.5t15 -67.5q0 -42 -15 -69.5t-40 -43.5t-56 -24t-63.5 -10.5t-60.5 -2.5h-221zM140 68h132q43 0 78 5.5t56.5 25.5t21.5 61
q0 44 -22.5 64.5t-59.5 27t-82 6.5h-124v-190zM140 323h121q41 0 73.5 5t51.5 22.5t19 55.5q0 42 -20 60.5t-52.5 23t-70.5 4.5h-122v-171z" />
    <glyph glyph-name="C" unicode="C" horiz-adv-x="599" 
d="M300 -10q-78 0 -141 32.5t-100 97t-37 160.5q1 95 37 160.5t100 99t145 33.5q73 0 127 -26.5t87.5 -73.5t44.5 -110h-86q-8 48 -34 77t-62.5 42t-76.5 13q-95 0 -147 -54.5t-52 -155.5q0 -106 51 -161.5t145 -55.5q44 0 81.5 14t63.5 43.5t34 76.5h87q-11 -62 -44.5 -110
t-89 -75t-133.5 -27z" />
    <glyph glyph-name="D" unicode="D" horiz-adv-x="597" 
d="M148 70v421h91q72 0 124.5 -23t81.5 -69t29 -116q0 -66 -16.5 -107.5t-47.5 -65t-74 -32t-97 -8.5h-31h-60zM562 282q0 94 -42.5 156t-120 93.5t-182.5 31.5h-48h-104v-563h101h51q105 0 182.5 24t120 85.5t42.5 172.5z" />
    <glyph glyph-name="E" unicode="E" horiz-adv-x="490" 
d="M55 0v563h390v-72h-308v-171h240v-69h-240v-183h318v-68h-400z" />
    <glyph glyph-name="F" unicode="F" horiz-adv-x="477" 
d="M150 0h-82v563h395v-72h-313v-159h243v-69h-243v-263z" />
    <glyph glyph-name="G" unicode="G" horiz-adv-x="616" 
d="M291 -12q-82 0 -142.5 34t-93.5 99t-32 158q2 94 37 160t98.5 100t146.5 34q111 0 175 -49.5t83 -144.5l-80 -11q-10 46 -36 74t-62.5 40.5t-79.5 12.5q-101 0 -151 -57.5t-50 -153.5q0 -103 54.5 -159.5t153.5 -56.5q45 0 83 15.5t64 47t33 78.5h-139v63h221v-272h-57
l-19 111h-2q-7 -19 -22.5 -40.5t-40.5 -40t-60.5 -30.5t-81.5 -12z" />
    <glyph glyph-name="H" unicode="H" horiz-adv-x="585" 
d="M146 0h-83v563h83v-563zM440 563h82v-563h-82v563zM487 256h-384v65h384v-65z" />
    <glyph glyph-name="I" unicode="I" horiz-adv-x="360" 
d="M136 18v527h82v-527h-82zM59 0v72h235v-72h-235zM59 491v72h235v-72h-235z" />
    <glyph glyph-name="J" unicode="J" horiz-adv-x="451" 
d="M215 -10q-35 0 -66.5 10t-55.5 30t-38.5 52.5t-14.5 77.5h78q0 -23 8 -45.5t28.5 -37.5t58.5 -15q47 0 70 26.5t23 93.5v363h83v-351q0 -47 -8.5 -85t-28 -64.5t-53 -40.5t-84.5 -14zM193 498v65h196v-65h-196z" />
    <glyph glyph-name="K" unicode="K" horiz-adv-x="566" 
d="M147 184v95l277 284h108v-11zM68 0v563h83v-563h-83zM448 0l-224 295l60 59l260 -343v-11h-96z" />
    <glyph glyph-name="L" unicode="L" horiz-adv-x="469" 
d="M65 8v555h83v-555h-83zM65 0v72h378v-72h-378z" />
    <glyph glyph-name="M" unicode="M" horiz-adv-x="719" 
d="M58 0v563h144l158 -526h2l155 526h144v-563h-85l5 524h-2l-158 -524h-123l-157 524h-2l4 -524h-85z" />
    <glyph glyph-name="N" unicode="N" horiz-adv-x="594" 
d="M451 563h85v-563h-157l-237 526h-2v-526h-85v563h147l247 -526h2v526z" />
    <glyph glyph-name="O" unicode="O" horiz-adv-x="608" 
d="M297 -14q-135 0 -206 79.5t-71 214.5q0 89 30.5 154.5t92 102t154.5 36.5q135 0 205.5 -79.5t70.5 -213.5q0 -87 -31.5 -153.5t-92.5 -103.5t-152 -37zM296 66q65 0 108.5 27.5t65 76t21.5 110.5q0 63 -21 111.5t-64.5 76t-109.5 27.5q-96 0 -145.5 -58t-49.5 -157
q0 -61 21 -109.5t64.5 -76.5t109.5 -28z" />
    <glyph glyph-name="P" unicode="P" horiz-adv-x="494" 
d="M143 0h-83v563h83v-563zM131 563h149q94 0 144.5 -46t50.5 -138q0 -83 -52 -129t-143 -46h-149v63h139q60 0 94.5 28t34.5 85q0 59 -34 86.5t-95 27.5h-139v69z" />
    <glyph glyph-name="Q" unicode="Q" horiz-adv-x="619" 
d="M312 -14q-136 0 -207 79.5t-71 214.5q0 89 31 154.5t92.5 102t154.5 36.5q91 0 152.5 -36t92.5 -101.5t31 -154.5q0 -87 -31 -153.5t-92.5 -104t-152.5 -37.5zM379 -121q-17 0 -35 3t-33 15t-24 37t-9 68v37h78v-32q0 -19 1.5 -33.5t11 -22t32.5 -7.5q9 0 24 6t24 6
l3 -63q-1 0 -10.5 -2t-22 -5t-24 -5t-16.5 -2zM311 68q96 0 144.5 58.5t48.5 156.5q0 97 -47.5 156t-145.5 59q-95 0 -144 -56.5t-49 -158.5q0 -98 48 -156.5t145 -58.5z" />
    <glyph glyph-name="R" unicode="R" horiz-adv-x="543" 
d="M59 0v563h197q72 0 122.5 -15t77.5 -50.5t27 -97.5q0 -43 -14.5 -77t-43.5 -53.5t-72 -19.5q33 0 51.5 -12.5t27.5 -33t12 -43.5t4.5 -45t6.5 -38t17.5 -22t36.5 3v-50q-14 -12 -36 -16.5t-44.5 3t-38 31t-15.5 68.5q0 42 -3.5 70t-15.5 43.5t-37 23t-67.5 8t-108.5 -1.5
v-238h-84zM143 300h116q51 0 84 6.5t49.5 27t16.5 60.5q0 47 -20 68t-58 26.5t-94 5.5h-94v-194z" />
    <glyph glyph-name="S" unicode="S" horiz-adv-x="540" 
d="M273 -12q-46 0 -89 11t-78 34t-56 59.5t-22 87.5h84q0 -3 2 -16t10.5 -30t26 -33t49 -26.5t79.5 -10.5q37 0 62 8t40 21t21.5 27t6.5 25q0 31 -19.5 50t-52.5 30.5t-72.5 21t-78.5 21t-71.5 30.5t-50.5 49.5t-16 78.5q3 46 32 79t79.5 50.5t115.5 17.5q59 0 108.5 -21
t80 -62.5t29.5 -105.5h-81q1 35 -14 56.5t-38.5 33.5t-48.5 16.5t-45 4.5q-56 0 -92.5 -20.5t-37.5 -57.5q-1 -32 19 -51t53 -30t73 -20t79 -20t71.5 -29.5t51 -49.5t16.5 -80q-2 -47 -32 -80t-80 -51t-114 -18z" />
    <glyph glyph-name="T" unicode="T" horiz-adv-x="457" 
d="M267 545v-545h-83v545h83zM10 491v72h430v-72h-430z" />
    <glyph glyph-name="U" unicode="U" horiz-adv-x="586" 
d="M292 -14q-116 0 -177.5 66.5t-61.5 187.5v323h87v-322q0 -49 12.5 -82.5t33.5 -54t48.5 -30t57.5 -9.5q45 0 79.5 16.5t54 55.5t19.5 104v322h87v-323q0 -123 -60.5 -188.5t-179.5 -65.5z" />
    <glyph glyph-name="V" unicode="V" horiz-adv-x="536" 
d="M435 563h91l-192 -563h-139l-192 563h90l171 -526z" />
    <glyph glyph-name="W" unicode="W" horiz-adv-x="830" 
d="M366 563h88l-44 -108l-117 -455h-135l-148 563h89l127 -526zM721 563h89l-151 -563h-134l-115 455l-45 108h89l138 -526z" />
    <glyph glyph-name="X" unicode="X" horiz-adv-x="560" 
d="M23 0l204 298l-186 265h100l140 -214l141 214h98l-183 -265l204 -298h-98l-162 244l-161 -244h-97z" />
    <glyph glyph-name="Y" unicode="Y" horiz-adv-x="439" 
d="M176 201l-193 362h93l142 -286l141 286h93l-196 -362h-80zM175 0v214h83v-214h-83z" />
    <glyph glyph-name="Z" unicode="Z" horiz-adv-x="554" 
d="M40 0v70l362 421h-333v72h439v-71l-358 -419h356v-73h-466z" />
    <glyph glyph-name="bracketleft" unicode="[" horiz-adv-x="270" 
d="M35 -199v802h220v-77h-139v-648h139v-77h-220z" />
    <glyph glyph-name="backslash" unicode="\" horiz-adv-x="349" 
d="M262 0l-254 563h80l254 -563h-80z" />
    <glyph glyph-name="bracketright" unicode="]" horiz-adv-x="280" 
d="M35 -199v77h144v648h-139v77h220v-802h-225z" />
    <glyph glyph-name="asciicircum" unicode="^" horiz-adv-x="423" 
d="M28 320v23l183 219l184 -219v-23h-80l-103 169h-2l-102 -169h-80z" />
    <glyph glyph-name="underscore" unicode="_" horiz-adv-x="547" 
d="M30 0v60h462v-60h-462z" />
    <glyph glyph-name="grave" unicode="`" horiz-adv-x="188" 
d="M117 453l-81 96v17h72l48 -102v-11h-39z" />
    <glyph glyph-name="a" unicode="a" horiz-adv-x="440" 
d="M180 -9q-56 0 -91.5 27t-52 74t-16.5 108q0 63 17 110.5t52.5 74.5t90.5 27q34 0 58 -9.5t40 -23.5t26 -28.5t14 -25.5h2v84h85v-409h-71l-14 73h-2q-4 -11 -14 -25t-26.5 -27t-40.5 -21.5t-57 -8.5zM213 62q40 0 63 17.5t33 48.5t10 71q0 43 -10.5 74t-33.5 47.5
t-62 16.5q-41 0 -65.5 -18.5t-35 -49.5t-10.5 -69q0 -39 10.5 -70.5t35 -49.5t65.5 -18z" />
    <glyph glyph-name="b" unicode="b" horiz-adv-x="485" 
d="M276 -10q-38 0 -65 12.5t-44 29.5t-25 31.5t-10 18.5h-2l-13 -82h-72v563h86v-250h2q1 4 8.5 19t23.5 33t43.5 31t67.5 13q60 0 98 -26.5t57 -74t19 -110.5q0 -61 -18.5 -108t-57 -73.5t-98.5 -26.5zM252 62q44 0 69.5 19.5t36 51t10.5 66.5t-11.5 66t-38 50t-70.5 19
q-38 0 -64 -16.5t-39 -47.5t-13 -71q0 -41 13.5 -72t40.5 -48t66 -17z" />
    <glyph glyph-name="c" unicode="c" horiz-adv-x="461" 
d="M230 -10q-57 0 -103 24t-73 70t-27 112q2 66 28.5 114t72.5 74t104 26t99.5 -22t65.5 -57t29 -76h-77q-8 39 -38 61t-76 22q-40 0 -68 -17.5t-43 -48t-16 -70.5q0 -63 33 -101t93 -38q43 0 75 22t40 64h77q-5 -42 -29.5 -78t-66.5 -58.5t-100 -22.5z" />
    <glyph glyph-name="d" unicode="d" horiz-adv-x="496" 
d="M218 -10q-60 0 -98.5 27t-57 74t-18.5 107q0 63 19 110.5t57.5 74t97.5 26.5q40 0 67.5 -13t43.5 -31t23.5 -33t8.5 -19h2v250h86v-563h-72l-13 82h-2q-2 -4 -10 -18.5t-25 -31.5t-44 -29.5t-65 -12.5zM242 62q39 0 66 17t40.5 48t13.5 72q0 40 -13 71t-38.5 47.5
t-64.5 16.5q-44 0 -70.5 -19t-38 -50t-11.5 -66t10.5 -66.5t36 -51t69.5 -19.5z" />
    <glyph glyph-name="e" unicode="e" horiz-adv-x="457" 
d="M226 -10q-69 0 -113 30.5t-65 79t-21 100.5q-1 59 22.5 107t68 76t106.5 28q54 0 96 -23.5t67 -66t27 -100.5q1 -3 1 -11.5v-14.5h-309q0 -64 31.5 -99.5t87.5 -35.5q42 0 71.5 21.5t36.5 57.5h81q-6 -42 -30 -76t-64 -53.5t-94 -19.5zM109 236h222q-1 11 -5.5 29
t-16.5 35.5t-33 29.5t-54 12q-30 0 -51 -10t-34 -26.5t-19.5 -35t-8.5 -34.5z" />
    <glyph glyph-name="f" unicode="f" horiz-adv-x="278" 
d="M75 -2v490q0 44 19.5 66t62.5 22h114v-66h-113v-512h-83zM15 349v60h251v-60h-251z" />
    <glyph glyph-name="g" unicode="g" 
d="M145 -175v78h192v179h-2q-2 -4 -10 -18.5t-24.5 -31.5t-43 -29.5t-65.5 -12.5q-59 0 -98 27t-57.5 74t-18.5 108q0 63 19 110.5t58 73.5t98 26q40 0 67 -13t42.5 -31t23 -33t8.5 -19h2v96h86v-461q0 -44 -11 -71t-34.5 -39.5t-62.5 -12.5h-169zM215 62q39 0 66 17
t40.5 48t13.5 72q0 40 -13 71t-38.5 47.5t-64.5 16.5q-44 0 -70.5 -19t-38 -50t-11.5 -66t10.5 -66.5t36 -51t69.5 -19.5z" />
    <glyph glyph-name="h" unicode="h" horiz-adv-x="466" 
d="M43 0v563h85v-249h2q1 4 8 19t22.5 32.5t41.5 30.5t66 13q43 0 71 -13.5t44.5 -36.5t24.5 -51t10.5 -56t2.5 -52v-200h-81v201q0 38 -8 68.5t-29 48t-63 17.5t-66.5 -20t-35 -51.5t-10.5 -68.5v-195h-85z" />
    <glyph glyph-name="i" unicode="i" horiz-adv-x="184" 
d="M51 0v409h83v-409h-83zM93 466q-29 0 -39.5 15t-10.5 35q0 19 10.5 33.5t39.5 14.5t38.5 -14.5t9.5 -33.5q0 -20 -9.5 -35t-38.5 -15z" />
    <glyph glyph-name="j" unicode="j" horiz-adv-x="228" 
d="M101 466q-29 0 -39 15t-10 35q0 19 10 33.5t39 14.5q30 0 39 -14.5t9 -33.5q0 -20 -9 -35t-39 -15zM60 409h83v-496q0 -44 -19.5 -66t-62.5 -22h-70v66h69v518z" />
    <glyph glyph-name="k" unicode="k" horiz-adv-x="439" 
d="M129 0h-84v563h84v-563zM232 271l202 -271h-100l-163 213zM124 101v95l203 215h104z" />
    <glyph glyph-name="l" unicode="l" horiz-adv-x="182" 
d="M50 0v563h82v-563h-82z" />
    <glyph glyph-name="m" unicode="m" horiz-adv-x="677" 
d="M38 0v409h78l3 -95h2q1 6 8 21t21.5 32t38 29.5t59.5 12.5q35 0 58 -13.5t36.5 -35t19.5 -46.5h2q2 6 10 21t23.5 32.5t40.5 29.5t61 12q39 0 64.5 -16t40.5 -41.5t22 -54t9 -54.5t2 -43v-200h-81v201q0 16 -1.5 38.5t-9 44.5t-24.5 36.5t-48 14.5q-36 0 -57 -20
t-29.5 -52t-8.5 -68v-195h-81v201q0 16 -1.5 38.5t-9 44.5t-24.5 36.5t-48 14.5q-36 0 -57 -20t-29.5 -52t-8.5 -68v-195h-81z" />
    <glyph glyph-name="n" unicode="n" horiz-adv-x="456" 
d="M38 0v409h71l14 -95h2q1 4 8 19t23 32.5t43 30.5t68 13q43 0 70.5 -13.5t44 -36t23.5 -50t9 -56t2 -53.5v-200h-81v201q0 38 -8 68.5t-29 48t-63 17.5t-66.5 -20t-35 -51.5t-10.5 -68.5v-195h-85z" />
    <glyph glyph-name="o" unicode="o" 
d="M226 -10q-66 0 -111 27t-67.5 74.5t-22.5 107.5q0 62 22.5 109.5t67.5 74.5t112 27q98 0 149 -58t51 -153q0 -59 -21.5 -106.5t-66 -75t-113.5 -27.5zM226 61q49 0 75 21t35.5 53.5t9.5 66.5t-9.5 66.5t-35.5 54t-75 21.5q-47 0 -73.5 -21.5t-36.5 -54t-10 -66.5
t10 -66.5t36.5 -53.5t73.5 -21z" />
    <glyph glyph-name="p" unicode="p" horiz-adv-x="484" 
d="M279 -10q-39 0 -65 12.5t-42.5 29.5t-24.5 31.5t-10 18.5h-2v-257h-85v584h72l14 -96h2q1 4 8 19t23 33t42.5 31t66.5 13q61 0 99.5 -27t57.5 -74.5t19 -109.5t-19.5 -109t-58 -73t-97.5 -26zM257 62q44 0 69.5 19.5t36 51t10.5 66.5t-11.5 66t-38 50t-70.5 19
q-38 0 -64 -16.5t-39 -47.5t-13 -71q0 -41 13.5 -72t40.5 -48t66 -17z" />
    <glyph glyph-name="q" unicode="q" horiz-adv-x="484" 
d="M205 -10q-59 0 -98 26.5t-58 73.5t-19 108q0 62 19 110t58.5 74.5t98.5 26.5q40 0 66.5 -13t42.5 -31t23 -33t8 -19h2l14 96h72v-584h-85v257h-2q-2 -4 -10 -18.5t-24.5 -31.5t-42.5 -29.5t-65 -12.5zM227 62q39 0 66 17t40.5 48t13.5 72q0 40 -13 71t-38.5 47.5
t-64.5 16.5q-44 0 -70.5 -19t-38 -50t-11.5 -66t10.5 -66.5t36 -51t69.5 -19.5z" />
    <glyph glyph-name="r" unicode="r" horiz-adv-x="320" 
d="M45 0v409h77l7 -118l-1 -88v-203h-83zM128 184l-3 90q1 22 10 45.5t27.5 44t48 33t71.5 12.5h17v-92h-18q-45 0 -75 -8.5t-47 -25.5t-24 -42t-7 -57z" />
    <glyph glyph-name="s" unicode="s" horiz-adv-x="409" 
d="M209 -10q-28 0 -54.5 7.5t-49 21.5t-40 32t-27 39.5t-9.5 45.5h78q0 -1 1.5 -14t10.5 -29.5t29.5 -28.5t58.5 -12q29 0 49.5 7t31.5 19.5t10 30.5q0 25 -19 39t-49 22.5t-63 16.5t-63 21.5t-48.5 37t-17.5 63.5q0 54 45.5 83.5t115.5 29.5q34 0 66 -8t57.5 -25t41 -45
t14.5 -69h-77q1 26 -8.5 42t-25.5 24.5t-33.5 12t-33.5 3.5q-40 0 -63 -14.5t-23 -38.5q0 -25 19 -39t49 -22t64 -16t64 -21.5t49 -37.5t19 -64q0 -39 -21.5 -64t-59.5 -37.5t-88 -12.5z" />
    <glyph glyph-name="t" unicode="t" horiz-adv-x="291" 
d="M156 0q-42 0 -62 22t-20 67v270h79v-293h95v-66h-92zM11 349v60q23 0 37.5 3t22 12.5t10.5 31t3 58.5h69v-105h94v-60h-236z" />
    <glyph glyph-name="u" unicode="u" horiz-adv-x="453" 
d="M185 -10q-41 0 -68.5 13t-44 35t-24.5 49t-11 56t-3 56v210h82v-210q0 -36 7 -66.5t29 -49.5t65 -19q42 0 65 19.5t32.5 49.5t10.5 62v214h86v-409h-71l-14 85h-2q-3 -10 -12 -25.5t-25 -31.5t-41.5 -27t-60.5 -11z" />
    <glyph glyph-name="v" unicode="v" horiz-adv-x="430" 
d="M325 409h82v-15l-147 -394h-117l-148 393v16h81l126 -340h2z" />
    <glyph glyph-name="w" unicode="w" horiz-adv-x="620" 
d="M107 0l-102 394v16h81l80 -340h2l96 340h73l99 -340h2l79 340h81v-16l-103 -394h-117l-76 266h-2l-75 -266h-118z" />
    <glyph glyph-name="x" unicode="x" horiz-adv-x="432" 
d="M5 0l150 211l-142 198h92l102 -148l102 148h93l-142 -198l151 -211h-93l-111 160l-110 -160h-92z" />
    <glyph glyph-name="y" unicode="y" horiz-adv-x="424" 
d="M-2 -186v65h59q14 0 25 3.5t21.5 16.5t22.5 40l35 77l-160 393h86l115 -307l123 307h87l-210 -479q-17 -38 -30.5 -61t-28 -35t-33 -16t-43.5 -4h-69z" />
    <glyph glyph-name="z" unicode="z" horiz-adv-x="438" 
d="M35 0v61l263 287h-249v63h349v-61l-260 -287h260v-63h-363z" />
    <glyph glyph-name="braceleft" unicode="{" horiz-adv-x="320" 
d="M295 -196q-71 -12 -114 -5t-63 35.5t-22.5 79t8.5 124.5q6 47 0 73t-18.5 37t-27 13.5t-25.5 2.5v81q11 0 25.5 2.5t27 13t18.5 36.5t0 73q-10 74 -8 123.5t22 77t63 35t114 -2.5v-77q-55 12 -81.5 6t-34 -28t-3.5 -55.5t9 -76.5q8 -48 5 -82t-24.5 -55t-68.5 -32
q47 -10 68.5 -31t24.5 -54.5t-5 -81.5q-5 -43 -9 -76.5t3.5 -55.5t34 -28.5t81.5 5.5v-77z" />
    <glyph glyph-name="bar" unicode="|" horiz-adv-x="204" 
d="M60 -151v752h84v-752h-84z" />
    <glyph glyph-name="braceright" unicode="}" horiz-adv-x="333" 
d="M38 -196v77q55 -12 81.5 -5.5t34 28.5t3.5 55.5t-9 76.5q-8 48 -5 81.5t24.5 54.5t68.5 31q-47 11 -68.5 32t-24 55t4.5 82q5 43 9 76.5t-3.5 55.5t-34 28t-81.5 -6v77q77 6 120.5 -2t62 -34.5t18.5 -74.5t-10 -122q-6 -47 0 -73t18.5 -36.5t27 -13t25.5 -2.5v-81
q-11 0 -25.5 -2.5t-27 -13.5t-18.5 -37t0 -73q11 -74 11 -122.5t-18.5 -75t-62.5 -34.5t-121 -2z" />
    <glyph glyph-name="asciitilde" unicode="~" horiz-adv-x="385" 
d="M249 195q-26 0 -40.5 10t-24 23t-18 23t-24.5 10q-19 0 -23 -16.5t-3 -41.5h-52q0 14 1.5 32t8 35t21.5 28.5t43 11.5q26 0 40.5 -10t23.5 -22.5t18.5 -22.5t24.5 -10q19 0 22.5 17.5t3.5 41.5h51q1 -17 -1 -35.5t-9 -35.5t-22 -27.5t-41 -10.5z" />
    <glyph glyph-name="uni00A0" unicode="&#xa0;" horiz-adv-x="228" 
 />
    <glyph glyph-name="exclamdown" unicode="&#xa1;" horiz-adv-x="192" 
d="M98 373q27 0 36.5 -14t9.5 -36q0 -19 -9.5 -33t-36.5 -14q-28 0 -38 14t-10 33q0 21 9.5 35.5t38.5 14.5zM67 211l9 -2t21 -2q15 0 22.5 2l7.5 2q5 -97 10.5 -166.5t8 -117t-0.5 -75t-14.5 -39.5t-33.5 -12t-33.5 12t-14.5 39.5t-1 74.5t7.5 116.5t11.5 167.5z" />
    <glyph glyph-name="cent" unicode="&#xa2;" horiz-adv-x="457" 
d="M227 -10q-58 0 -104 24t-73 70t-27 112q2 66 28.5 114t72.5 74t105 26q58 0 98.5 -20.5t64 -54.5t30.5 -75l-76 -12q-10 44 -38 67t-79 23q-40 0 -67.5 -17.5t-42 -48t-14.5 -70.5q0 -63 31.5 -101t91.5 -38q48 0 78.5 24t39.5 69l76 -12q-7 -42 -31.5 -77t-65 -56
t-98.5 -21zM186 -94l5 102h73l5 -102h-83zM191 392l-5 102h83l-5 -102h-73z" />
    <glyph glyph-name="sterling" unicode="&#xa3;" horiz-adv-x="641" 
d="M104 -13l-39 62q25 20 45 42.5t30.5 49.5t7 60t-23.5 73q-29 54 -30.5 107.5t22 96.5t70 69t113.5 26q72 0 118 -25.5t69.5 -69.5t25.5 -100l-79 -11q-3 16 -9.5 34.5t-17 37t-27 33.5t-40 23.5t-55.5 7.5q-37 -1 -64 -18t-40.5 -46.5t-10.5 -68.5t27 -85
q27 -55 27.5 -93.5t-14.5 -66t-37 -52.5q34 17 67 16t64 -9t59.5 -16t54 -7.5t48.5 18.5q21 17 25 45t-8 59l80 15q15 -55 7.5 -93.5t-30 -60.5t-56.5 -28q-32 -16 -62.5 -17.5t-60 5t-58.5 14.5t-59.5 11.5t-63.5 -3t-69 -31.5q-1 -1 -2.5 -1.5t-3.5 -2.5zM42 217v63h365
v-63h-365z" />
    <glyph glyph-name="currency" unicode="&#xa4;" horiz-adv-x="550" 
d="M444 4h-34l-41 59q-38 -27 -93 -27q-57 0 -96 28l-42 -60h-31l54 77q-41 46 -41 126q0 90 50 135l-47 65h34l35 -50q34 20 84 20q48 0 82 -19l34 49h35l-47 -65q51 -46 51 -135q0 -79 -41 -126zM276 57q25 0 45 6.5t36 16.5q4 3 7 6l6 6q-9 -10 -9.5 -10t3.5 4l8.5 8.5
l4.5 4.5q32 40 32 108q0 78 -41 118q-8 8 -22 15q-30 16 -70 16q-42 0 -72 -16q-1 -1 -11 -8t-10 -8q-41 -38 -41 -117q0 -33 12.5 -67.5t38.5 -58.5q16 -11 36.5 -17.5t46.5 -6.5z" />
    <glyph glyph-name="yen" unicode="&#xa5;" horiz-adv-x="495" 
d="M205 201l-192 362h93l141 -286l142 286h92l-195 -362h-81zM87 98v50h320v-50h-320zM87 194v49h320v-47zM204 0v214h83v-214h-83z" />
    <glyph glyph-name="brokenbar" unicode="&#xa6;" horiz-adv-x="204" 
d="M60 294v307h84v-307h-84zM60 -151v307h84v-307h-84z" />
    <glyph glyph-name="section" unicode="&#xa7;" horiz-adv-x="600" 
d="M418 223v-2q23 -15 39 -40t15 -60q-3 -56 -51.5 -88t-116.5 -32q-47 0 -90.5 16t-71.5 50t-30 86h31q0 -2 1.5 -15t9 -31t24.5 -35.5t48 -29t80 -11.5q45 0 72 11t40.5 27t18 31t4.5 22q1 38 -21 59.5t-58 33.5t-76.5 21.5t-76.5 24t-58 40t-20 70.5q1 28 20.5 48.5
t47.5 31.5v1q-31 17 -50 42.5t-18 61.5q2 36 25 61.5t61.5 39.5t84.5 14q47 0 84.5 -16.5t59.5 -48.5t20 -81h-30q1 36 -13 59t-36 35.5t-45.5 17.5t-41.5 5q-59 0 -97.5 -25t-40.5 -63q0 -37 22.5 -58t58 -32.5t76 -20.5t76 -23.5t57.5 -41t20 -72.5q-1 -28 -16 -48
t-38 -35zM162 369q0 -35 17.5 -55.5t47.5 -32t65.5 -19.5t69.5 -18q11 -2 15 -3t6 -2q8 -2 12 -0.5t6 2.5q26 17 33 37t7 29q1 33 -16.5 54t-47 34t-64.5 21.5t-69 17.5q-14 3 -21.5 4.5t-20.5 -6.5q-39 -26 -40 -63z" />
    <glyph glyph-name="dieresis" unicode="&#xa8;" horiz-adv-x="368" 
d="M100 460q-32 0 -43.5 16.5t-11.5 38.5q0 21 11.5 37.5t43.5 16.5q33 0 43.5 -16.5t10.5 -37.5q0 -22 -11 -38.5t-43 -16.5zM269 460q-32 0 -43.5 16.5t-11.5 38.5q0 21 11.5 37.5t43.5 16.5q33 0 43.5 -16.5t10.5 -37.5q0 -22 -11 -38.5t-43 -16.5z" />
    <glyph glyph-name="copyright" unicode="&#xa9;" horiz-adv-x="627" 
d="M328 -10q-61 0 -114 22.5t-93.5 63t-63 93.5t-22.5 114q0 59 22.5 111.5t63 92.5t93.5 63t114 23q59 0 111.5 -23t92.5 -63t63 -92.5t23 -111.5q0 -61 -23 -114t-63 -93.5t-92.5 -63t-111.5 -22.5zM328 39q52 0 96.5 18t77 50.5t50.5 77t18 97.5q0 52 -18 96.5t-50.5 77
t-77 50.5t-96.5 18q-53 0 -98 -18t-77.5 -50.5t-50.5 -77t-18 -96.5q0 -53 18 -97.5t50.5 -77t77.5 -50.5t98 -18zM328 115q-45 0 -81.5 19t-58 56t-21.5 91q1 80 47 124t116 44q44 0 75.5 -16t50.5 -44t25 -63l-54 -9q-8 40 -30.5 60.5t-66.5 20.5q-52 0 -79.5 -30
t-27.5 -83q0 -57 27 -88t79 -31q42 0 66.5 22.5t32.5 64.5l55 -14q-6 -35 -25.5 -63t-51.5 -44.5t-78 -16.5z" />
    <glyph glyph-name="ordfeminine" unicode="&#xaa;" horiz-adv-x="297" 
d="M127 404q-54 0 -78 37.5t-24 96.5q0 61 24.5 99t77.5 38q30 0 48 -10t28 -23.5t13 -22.5v54h59v-263h-48l-9 46h-2q-3 -9 -13 -21.5t-28.5 -21.5t-47.5 -9zM150 452q38 0 52.5 24t14.5 62q0 40 -15 63.5t-52 23.5q-40 0 -55.5 -25.5t-15.5 -61.5q0 -37 16 -61.5t55 -24.5
z" />
    <glyph glyph-name="guillemotleft" unicode="&#xab;" horiz-adv-x="530" 
d="M317 519v-67l-221 -157l221 -162v-65l-295 227zM487 519v-72l-221 -152l221 -157v-70l-295 227z" />
    <glyph glyph-name="logicalnot" unicode="&#xac;" horiz-adv-x="385" 
d="M82 196v56h222v-56h-222zM247 113v139h57v-139h-57z" />
    <glyph glyph-name="registered" unicode="&#xae;" horiz-adv-x="408" 
d="M203 229q-48 0 -87 23t-62.5 62t-23.5 86q0 48 23.5 87t62.5 62t87 23q47 0 85.5 -23t61.5 -62t23 -87q0 -47 -23 -86t-61.5 -62t-85.5 -23zM203 261q41 0 72 19t48.5 50.5t17.5 69.5q0 39 -17.5 71t-48.5 50.5t-72 18.5t-72.5 -18.5t-49.5 -50.5t-18 -71q0 -38 18 -69.5
t49.5 -50.5t72.5 -19zM138 317v175h63q35 0 54 -11.5t19 -40.5q0 -21 -11 -35t-36 -14q19 0 25.5 -9.5t8 -21.5t5 -18.5t16.5 -1.5v-19q-7 -6 -19 -7t-21 7t-9 29q0 18 -3 26.5t-16.5 11.5t-44.5 1v-72h-31zM169 412h32q23 0 33.5 4t10.5 21q0 21 -13 25t-38 4h-25v-54z" />
    <glyph glyph-name="macron" unicode="&#xaf;" horiz-adv-x="342" 
d="M40 474v60h262v-60h-262z" />
    <glyph glyph-name="degree" unicode="&#xb0;" horiz-adv-x="296" 
d="M135 363q-55 0 -80 28.5t-25 75.5q0 48 24.5 77t80.5 29q55 0 81 -29t26 -78q0 -44 -26 -73.5t-81 -29.5zM134 417q30 0 41.5 15t11.5 37t-11.5 38t-41.5 16q-29 0 -41 -16.5t-12 -37.5q0 -22 13 -37t40 -15z" />
    <glyph glyph-name="plusminus" unicode="&#xb1;" horiz-adv-x="385" 
d="M82 46v51h222v-51h-222zM170 143v206h51v-206h-51zM82 220v51h222v-51h-222z" />
    <glyph glyph-name="uni00B2" unicode="&#xb2;" horiz-adv-x="240" 
d="M15 409v40l19 10t45 27.5t50 39t36 44.5q16 33 0.5 54.5t-46.5 21.5q-26 0 -42 -17.5t-12 -53.5l-44 6q-5 50 25.5 77.5t77.5 27.5q35 0 60 -17t33.5 -44.5t-8.5 -59.5q-11 -23 -33 -43t-46 -36t-42.5 -25t-24.5 -11h162v-41h-210z" />
    <glyph glyph-name="uni00B3" unicode="&#xb3;" horiz-adv-x="243" 
d="M126 399q-47 0 -79 24.5t-32 73.5l45 7q1 -31 20 -47.5t47 -16.5q24 0 40.5 13t16.5 34q0 16 -8.5 25t-20.5 12.5t-24 3.5h-32v25h33q20 0 34 9t14 27q0 22 -15.5 35t-41.5 13q-20 0 -33 -8.5t-19.5 -21t-7.5 -23.5l-42 6q0 8 5 22t16.5 29t31 25t48.5 10
q47 0 73.5 -20.5t26.5 -55.5q0 -23 -13 -39.5t-37 -20.5q24 -3 40 -20.5t16 -42.5q0 -36 -29 -57t-73 -21z" />
    <glyph glyph-name="acute" unicode="&#xb4;" horiz-adv-x="206" 
d="M75 453h-39v11l48 102h72v-17z" />
    <glyph glyph-name="uni00B5" unicode="&#xb5;" horiz-adv-x="515" 
d="M67 -155v564h82v-211q0 -35 7 -65.5t29 -49t65 -18.5q42 0 64.5 19t32 48.5t11.5 61.5v215h85v-408h-71l-9 67h-3q-8 -18 -21 -36t-34 -30t-53 -12q-39 0 -63 13t-38 35h-2v-193h-82z" />
    <glyph glyph-name="paragraph" unicode="&#xb6;" horiz-adv-x="516" 
d="M236 -91v403h-19q-55 2 -100.5 20t-73 59.5t-27.5 113.5q0 70 27 112t72 61t100 20h38h54v-789h-71zM366 -91v789h71v-789h-71zM237 628l-4 70h267v-70h-263z" />
    <glyph glyph-name="periodcentered" unicode="&#xb7;" horiz-adv-x="229" 
d="M110 193q-38 0 -51.5 19t-13.5 46q0 25 13.5 44t51.5 19q39 0 51.5 -19t12.5 -44q0 -27 -13 -46t-51 -19z" />
    <glyph glyph-name="cedilla" unicode="&#xb8;" horiz-adv-x="284" 
d="M35 -118l27 41q12 -11 36.5 -20t46.5 -9q20 0 33.5 8t13.5 25q0 13 -11.5 19.5t-26.5 6.5q-12 0 -25 -4.5t-23 -13.5l-36 21l41 87l41 -16l-39 -61q11 10 27.5 15.5t33.5 5.5q28 0 51.5 -14.5t23.5 -47.5q0 -38 -32 -58.5t-76 -20.5q-26 0 -54 9.5t-52 26.5z" />
    <glyph glyph-name="uni00B9" unicode="&#xb9;" horiz-adv-x="175" 
d="M75 420v215q-5 -23 -18 -35t-25.5 -16t-16.5 -4v52q5 0 20 2t29.5 13.5t15.5 37.5h42v-265h-47zM30 408v42h130v-42h-130z" />
    <glyph glyph-name="ordmasculine" unicode="&#xba;" horiz-adv-x="306" 
d="M154 410q-70 0 -104.5 40.5t-34.5 103.5q0 62 34.5 102.5t104.5 40.5q67 0 102 -39.5t35 -103.5q0 -62 -33.5 -103t-103.5 -41zM154 458q33 0 50.5 14.5t24.5 37t7 45.5t-7 45.5t-24.5 37.5t-50.5 15q-34 0 -52 -15t-24.5 -37.5t-6.5 -45.5t6.5 -45.5t24.5 -37t52 -14.5z
" />
    <glyph glyph-name="guillemotright" unicode="&#xbb;" horiz-adv-x="495" 
d="M185 519l295 -224l-295 -227v65l221 162l-221 157v67zM15 519l295 -224l-295 -227v70l221 157l-221 152v72z" />
    <glyph glyph-name="onequarter" unicode="&#xbc;" horiz-adv-x="619" 
d="M75 304v215q-5 -23 -18 -34.5t-25.5 -16t-16.5 -4.5v53q5 -1 20 1.5t29.5 13.5t15.5 37h42v-265h-47zM30 292v42h130v-42h-130zM81 4l-41 32l221 263l199 262l40 -32l-210 -253zM380 55v41q34 15 58 46t37.5 67.5t13.5 67.5h52q0 -48 -30.5 -98t-81.5 -83h175v-41h-224z
M521 0v138h48v-138h-48z" />
    <glyph glyph-name="onehalf" unicode="&#xbd;" horiz-adv-x="605" 
d="M75 304v215q-5 -23 -18 -34.5t-25.5 -16t-16.5 -4.5v53q5 -1 20 1.5t29.5 13.5t15.5 37h42v-265h-47zM30 292v42h130v-42h-130zM81 4l-41 32l221 263l199 262l40 -32l-210 -253zM380 0v40q6 2 27.5 14t48.5 31.5t49 42t28 46.5q9 28 -5.5 45.5t-43.5 17.5
q-26 0 -42 -17.5t-12 -53.5l-44 6q-5 50 25.5 77.5t77.5 27.5q32 0 55 -13.5t33 -36.5t2 -51q-5 -22 -23 -44.5t-42 -42t-47 -32t-39 -16.5h162v-41h-210z" />
    <glyph glyph-name="threequarters" unicode="&#xbe;" horiz-adv-x="687" 
d="M126 280q-48 0 -79.5 24.5t-31.5 73.5l45 7q1 -31 20 -47.5t47 -16.5q24 0 40.5 13.5t16.5 34.5q0 17 -8.5 27t-20.5 15t-24 5h-32v25h33q20 0 34 11.5t14 29.5q0 22 -15.5 35t-41.5 13q-20 0 -33 -8.5t-19.5 -21t-7.5 -23.5l-42 6q0 8 5 22t16.5 29t31 25t48.5 10
q47 0 73.5 -21t26.5 -57q0 -22 -13 -41t-37 -23q24 -3 40 -21.5t16 -44.5q0 -36 -29 -58.5t-73 -22.5zM149 4l-41 32l221 263l199 262l40 -32l-210 -253zM448 55v41q34 15 58 46t37.5 67.5t13.5 67.5h52q0 -48 -30.5 -98t-81.5 -83h175v-41h-224zM589 0v138h48v-138h-48z
" />
    <glyph glyph-name="questiondown" unicode="&#xbf;" horiz-adv-x="439" 
d="M203 215h74q0 -33 -15.5 -59t-38 -48.5t-45 -43.5t-38 -45t-16.5 -53q-1 -41 25 -66.5t73 -25.5q32 0 52.5 11.5t32 30t16 40t4.5 40.5h79q4 -36 -4 -70.5t-30 -62.5t-58 -45t-87 -17q-52 0 -94 19t-67 54t-25 82q0 40 16.5 68t40 50t47.5 42t40.5 43.5t17.5 55.5z
M240 379q29 0 39 -15.5t10 -36.5t-10 -35.5t-39 -14.5t-39 14.5t-10 35.5q0 22 10 37t39 15z" />
    <glyph glyph-name="Agrave" unicode="&#xc0;" horiz-adv-x="554" 
d="M19 0l189 563h137l193 -563h-89l-171 528l-171 -528h-88zM134 168l3 66h280l4 -66h-287zM261 607l-81 96v17h72l48 -102v-11h-39z" />
    <glyph glyph-name="Aacute" unicode="&#xc1;" horiz-adv-x="554" 
d="M19 0l189 563h137l193 -563h-89l-171 528l-171 -528h-88zM134 168l3 66h280l4 -66h-287zM297 607h-39v11l48 102h72v-17z" />
    <glyph glyph-name="Acircumflex" unicode="&#xc2;" horiz-adv-x="554" 
d="M19 0l189 563h137l193 -563h-89l-171 528l-171 -528h-88zM134 168l3 66h280l4 -66h-287zM145 619v8l114 106h36l113 -106v-8h-75l-54 59h-4l-52 -59h-78z" />
    <glyph glyph-name="Atilde" unicode="&#xc3;" horiz-adv-x="554" 
d="M19 0l189 563h137l193 -563h-89l-171 528l-171 -528h-88zM134 168l3 66h280l4 -66h-287zM153 627q0 15 1 32t7.5 33.5t21 27t40.5 10.5q25 0 39.5 -8.5t23.5 -19.5t18.5 -19.5t22.5 -8.5q17 0 20 14.5t3 39.5h51q1 -17 -1 -35.5t-9 -33.5t-21 -24.5t-39 -9.5
q-24 0 -38.5 8.5t-24 19t-18 19t-22.5 8.5q-17 0 -20.5 -13.5t-2.5 -39.5h-52z" />
    <glyph glyph-name="Adieresis" unicode="&#xc4;" horiz-adv-x="554" 
d="M19 0l189 563h137l193 -563h-89l-171 528l-171 -528h-88zM134 168l3 66h280l4 -66h-287zM193 614q-32 0 -43.5 16.5t-11.5 38.5q0 21 11.5 37.5t43.5 16.5q33 0 43.5 -16.5t10.5 -37.5q0 -22 -11 -38.5t-43 -16.5zM362 614q-32 0 -43.5 16.5t-11.5 38.5q0 21 11.5 37.5
t43.5 16.5q33 0 43.5 -16.5t10.5 -37.5q0 -22 -11 -38.5t-43 -16.5z" />
    <glyph glyph-name="Aring" unicode="&#xc5;" horiz-adv-x="554" 
d="M19 0l189 563h137l193 -563h-89l-171 528l-171 -528h-88zM134 168l3 66h280l4 -66h-287zM276 623q-46 0 -70.5 25t-24.5 68q0 44 24 70t71 26t72 -26t25 -70q0 -40 -25 -66.5t-72 -26.5zM275 672q23 0 35 13.5t12 32.5t-12 33t-35 14q-22 0 -34 -14t-12 -33
q0 -20 12.5 -33t33.5 -13z" />
    <glyph glyph-name="AE" unicode="&#xc6;" horiz-adv-x="847" 
d="M412 0v563h389v-72h-307v-171h240v-69h-240v-183h317v-68h-399zM168 168l3 66h266l-2 -66h-267zM19 0l334 563h81l-326 -563h-89z" />
    <glyph glyph-name="Ccedilla" unicode="&#xc7;" horiz-adv-x="599" 
d="M300 -10q-78 0 -141 32.5t-100 97t-37 160.5q1 95 37 160.5t100 99t145 33.5q73 0 127 -26.5t87.5 -73.5t44.5 -110h-86q-8 48 -34 77t-62.5 42t-76.5 13q-95 0 -147 -54.5t-52 -155.5q0 -106 51 -161.5t145 -55.5q44 0 81.5 14t63.5 43.5t34 76.5h87q-11 -62 -44.5 -110
t-89 -75t-133.5 -27zM203 -133l27 41q12 -11 36.5 -20t46.5 -9q20 0 33.5 8t13.5 25q0 13 -11.5 19.5t-26.5 6.5q-12 0 -25 -4.5t-23 -13.5l-36 21l41 87l41 -16l-39 -61q11 10 27.5 15.5t33.5 5.5q28 0 51.5 -14.5t23.5 -47.5q0 -38 -32 -58.5t-76 -20.5q-26 0 -54 9.5
t-52 26.5z" />
    <glyph glyph-name="Egrave" unicode="&#xc8;" horiz-adv-x="490" 
d="M55 0v563h390v-72h-308v-171h240v-69h-240v-183h318v-68h-400zM230 607l-81 96v17h72l48 -102v-11h-39z" />
    <glyph glyph-name="Eacute" unicode="&#xc9;" horiz-adv-x="490" 
d="M55 0v563h390v-72h-308v-171h240v-69h-240v-183h318v-68h-400zM266 607h-39v11l48 102h72v-17z" />
    <glyph glyph-name="Ecircumflex" unicode="&#xca;" horiz-adv-x="490" 
d="M55 0v563h390v-72h-308v-171h240v-69h-240v-183h318v-68h-400zM114 619v8l114 106h36l113 -106v-8h-75l-54 59h-4l-52 -59h-78z" />
    <glyph glyph-name="Edieresis" unicode="&#xcb;" horiz-adv-x="490" 
d="M55 0v563h390v-72h-308v-171h240v-69h-240v-183h318v-68h-400zM162 614q-32 0 -43.5 16.5t-11.5 38.5q0 21 11.5 37.5t43.5 16.5q33 0 43.5 -16.5t10.5 -37.5q0 -22 -11 -38.5t-43 -16.5zM331 614q-32 0 -43.5 16.5t-11.5 38.5q0 21 11.5 37.5t43.5 16.5q33 0 43.5 -16.5
t10.5 -37.5q0 -22 -11 -38.5t-43 -16.5z" />
    <glyph glyph-name="Igrave" unicode="&#xcc;" horiz-adv-x="360" 
d="M136 18v527h82v-527h-82zM59 0v72h235v-72h-235zM59 491v72h235v-72h-235zM161 607l-81 96v17h72l48 -102v-11h-39z" />
    <glyph glyph-name="Iacute" unicode="&#xcd;" horiz-adv-x="360" 
d="M136 18v527h82v-527h-82zM59 0v72h235v-72h-235zM59 491v72h235v-72h-235zM197 607h-39v11l48 102h72v-17z" />
    <glyph glyph-name="Icircumflex" unicode="&#xce;" horiz-adv-x="360" 
d="M136 18v527h82v-527h-82zM59 0v72h235v-72h-235zM59 491v72h235v-72h-235zM45 619v8l114 106h36l113 -106v-8h-75l-54 59h-4l-52 -59h-78z" />
    <glyph glyph-name="Idieresis" unicode="&#xcf;" horiz-adv-x="360" 
d="M136 18v527h82v-527h-82zM59 0v72h235v-72h-235zM59 491v72h235v-72h-235zM93 614q-32 0 -43.5 16.5t-11.5 38.5q0 21 11.5 37.5t43.5 16.5q33 0 43.5 -16.5t10.5 -37.5q0 -22 -11 -38.5t-43 -16.5zM262 614q-32 0 -43.5 16.5t-11.5 38.5q0 21 11.5 37.5t43.5 16.5
q33 0 43.5 -16.5t10.5 -37.5q0 -22 -11 -38.5t-43 -16.5z" />
    <glyph glyph-name="Eth" unicode="&#xd0;" horiz-adv-x="600" 
d="M65 0v563h104h48q105 0 182.5 -31.5t120 -93.5t42.5 -156q0 -111 -42.5 -172.5t-120 -85.5t-182.5 -24h-51h-101zM0 258v57h304v-57h-304zM148 70h60h31q54 0 97 8.5t74 32t47.5 65t16.5 107.5q0 70 -29 116t-81.5 69t-124.5 23h-91v-421z" />
    <glyph glyph-name="Ntilde" unicode="&#xd1;" horiz-adv-x="594" 
d="M451 563h85v-563h-157l-237 526h-2v-526h-85v563h147l247 -526h2v526zM173 627q0 15 1 32t7.5 33.5t21 27t40.5 10.5q25 0 39.5 -8.5t23.5 -19.5t18.5 -19.5t22.5 -8.5q17 0 20 14.5t3 39.5h51q1 -17 -1 -35.5t-9 -33.5t-21 -24.5t-39 -9.5q-24 0 -38.5 8.5t-24 19
t-18 19t-22.5 8.5q-17 0 -20.5 -13.5t-2.5 -39.5h-52z" />
    <glyph glyph-name="Ograve" unicode="&#xd2;" horiz-adv-x="608" 
d="M297 -14q-135 0 -206 79.5t-71 214.5q0 89 30.5 154.5t92 102t154.5 36.5q135 0 205.5 -79.5t70.5 -213.5q0 -87 -31.5 -153.5t-92.5 -103.5t-152 -37zM296 66q65 0 108.5 27.5t65 76t21.5 110.5q0 63 -21 111.5t-64.5 76t-109.5 27.5q-96 0 -145.5 -58t-49.5 -157
q0 -61 21 -109.5t64.5 -76.5t109.5 -28zM289 607l-81 96v17h72l48 -102v-11h-39z" />
    <glyph glyph-name="Oacute" unicode="&#xd3;" horiz-adv-x="608" 
d="M297 -14q-135 0 -206 79.5t-71 214.5q0 89 30.5 154.5t92 102t154.5 36.5q135 0 205.5 -79.5t70.5 -213.5q0 -87 -31.5 -153.5t-92.5 -103.5t-152 -37zM296 66q65 0 108.5 27.5t65 76t21.5 110.5q0 63 -21 111.5t-64.5 76t-109.5 27.5q-96 0 -145.5 -58t-49.5 -157
q0 -61 21 -109.5t64.5 -76.5t109.5 -28zM325 607h-39v11l48 102h72v-17z" />
    <glyph glyph-name="Ocircumflex" unicode="&#xd4;" horiz-adv-x="608" 
d="M297 -14q-135 0 -206 79.5t-71 214.5q0 89 30.5 154.5t92 102t154.5 36.5q135 0 205.5 -79.5t70.5 -213.5q0 -87 -31.5 -153.5t-92.5 -103.5t-152 -37zM296 66q65 0 108.5 27.5t65 76t21.5 110.5q0 63 -21 111.5t-64.5 76t-109.5 27.5q-96 0 -145.5 -58t-49.5 -157
q0 -61 21 -109.5t64.5 -76.5t109.5 -28zM173 619v8l114 106h36l113 -106v-8h-75l-54 59h-4l-52 -59h-78z" />
    <glyph glyph-name="Otilde" unicode="&#xd5;" horiz-adv-x="608" 
d="M297 -14q-135 0 -206 79.5t-71 214.5q0 89 30.5 154.5t92 102t154.5 36.5q135 0 205.5 -79.5t70.5 -213.5q0 -87 -31.5 -153.5t-92.5 -103.5t-152 -37zM296 66q65 0 108.5 27.5t65 76t21.5 110.5q0 63 -21 111.5t-64.5 76t-109.5 27.5q-96 0 -145.5 -58t-49.5 -157
q0 -61 21 -109.5t64.5 -76.5t109.5 -28zM181 627q0 15 1 32t7.5 33.5t21 27t40.5 10.5q25 0 39.5 -8.5t23.5 -19.5t18.5 -19.5t22.5 -8.5q17 0 20 14.5t3 39.5h51q1 -17 -1 -35.5t-9 -33.5t-21 -24.5t-39 -9.5q-24 0 -38.5 8.5t-24 19t-18 19t-22.5 8.5q-17 0 -20.5 -13.5
t-2.5 -39.5h-52z" />
    <glyph glyph-name="Odieresis" unicode="&#xd6;" horiz-adv-x="608" 
d="M297 -14q-135 0 -206 79.5t-71 214.5q0 89 30.5 154.5t92 102t154.5 36.5q135 0 205.5 -79.5t70.5 -213.5q0 -87 -31.5 -153.5t-92.5 -103.5t-152 -37zM296 66q65 0 108.5 27.5t65 76t21.5 110.5q0 63 -21 111.5t-64.5 76t-109.5 27.5q-96 0 -145.5 -58t-49.5 -157
q0 -61 21 -109.5t64.5 -76.5t109.5 -28zM221 614q-32 0 -43.5 16.5t-11.5 38.5q0 21 11.5 37.5t43.5 16.5q33 0 43.5 -16.5t10.5 -37.5q0 -22 -11 -38.5t-43 -16.5zM390 614q-32 0 -43.5 16.5t-11.5 38.5q0 21 11.5 37.5t43.5 16.5q33 0 43.5 -16.5t10.5 -37.5
q0 -22 -11 -38.5t-43 -16.5z" />
    <glyph glyph-name="multiply" unicode="&#xd7;" horiz-adv-x="385" 
d="M275 94l-82 83l-82 -82l-41 42l81 81l-81 81l42 42l81 -81l81 81l42 -41l-82 -82l82 -82z" />
    <glyph glyph-name="Oslash" unicode="&#xd8;" horiz-adv-x="600" 
d="M86 -24l426 616l25 -14l-426 -617zM297 -14q-135 0 -206 79.5t-71 214.5q0 89 30.5 154.5t92 102t154.5 36.5q135 0 205.5 -79.5t70.5 -213.5q0 -87 -31.5 -153.5t-92.5 -103.5t-152 -37zM296 66q65 0 108.5 27.5t65 76t21.5 110.5q0 63 -21 111.5t-64.5 76t-109.5 27.5
q-96 0 -145.5 -58t-49.5 -157q0 -61 21 -109.5t64.5 -76.5t109.5 -28z" />
    <glyph glyph-name="Ugrave" unicode="&#xd9;" horiz-adv-x="586" 
d="M292 -14q-116 0 -177.5 66.5t-61.5 187.5v323h87v-322q0 -49 12.5 -82.5t33.5 -54t48.5 -30t57.5 -9.5q45 0 79.5 16.5t54 55.5t19.5 104v322h87v-323q0 -123 -60.5 -188.5t-179.5 -65.5zM277 607l-81 96v17h72l48 -102v-11h-39z" />
    <glyph glyph-name="Uacute" unicode="&#xda;" horiz-adv-x="586" 
d="M292 -14q-116 0 -177.5 66.5t-61.5 187.5v323h87v-322q0 -49 12.5 -82.5t33.5 -54t48.5 -30t57.5 -9.5q45 0 79.5 16.5t54 55.5t19.5 104v322h87v-323q0 -123 -60.5 -188.5t-179.5 -65.5zM313 607h-39v11l48 102h72v-17z" />
    <glyph glyph-name="Ucircumflex" unicode="&#xdb;" horiz-adv-x="586" 
d="M292 -14q-116 0 -177.5 66.5t-61.5 187.5v323h87v-322q0 -49 12.5 -82.5t33.5 -54t48.5 -30t57.5 -9.5q45 0 79.5 16.5t54 55.5t19.5 104v322h87v-323q0 -123 -60.5 -188.5t-179.5 -65.5zM161 619v8l114 106h36l113 -106v-8h-75l-54 59h-4l-52 -59h-78z" />
    <glyph glyph-name="Udieresis" unicode="&#xdc;" horiz-adv-x="586" 
d="M292 -14q-116 0 -177.5 66.5t-61.5 187.5v323h87v-322q0 -49 12.5 -82.5t33.5 -54t48.5 -30t57.5 -9.5q45 0 79.5 16.5t54 55.5t19.5 104v322h87v-323q0 -123 -60.5 -188.5t-179.5 -65.5zM209 614q-32 0 -43.5 16.5t-11.5 38.5q0 21 11.5 37.5t43.5 16.5q33 0 43.5 -16.5
t10.5 -37.5q0 -22 -11 -38.5t-43 -16.5zM378 614q-32 0 -43.5 16.5t-11.5 38.5q0 21 11.5 37.5t43.5 16.5q33 0 43.5 -16.5t10.5 -37.5q0 -22 -11 -38.5t-43 -16.5z" />
    <glyph glyph-name="Yacute" unicode="&#xdd;" horiz-adv-x="439" 
d="M176 201l-193 362h93l142 -286l141 286h93l-196 -362h-80zM175 0v214h83v-214h-83zM240 607h-39v11l48 102h72v-17z" />
    <glyph glyph-name="Thorn" unicode="&#xde;" horiz-adv-x="487" 
d="M143 0h-83v563h83v-563zM131 461h143q93 0 143.5 -46t50.5 -138q0 -83 -52 -129t-142 -46h-143v63h132q60 0 95 28t35 85q0 59 -34 86.5t-96 27.5h-132v69z" />
    <glyph glyph-name="germandbls" unicode="&#xdf;" horiz-adv-x="555" 
d="M352 -10q-44 0 -76 11.5t-53 31.5t-32.5 45t-15.5 52h72q0 -1 3.5 -11t13.5 -23t28.5 -23t49.5 -10q34 0 58.5 13t38 34.5t13.5 46.5q0 33 -20 53.5t-49 34.5t-58 25.5t-49 26t-20 37.5q0 20 12 31t29.5 18.5t35.5 16t30 22.5t12 39q0 11 -10.5 17.5t-27 10t-35.5 5
t-36 1.5h-128v-495h-83v563h211q24 0 55.5 -0.5t61.5 -7.5t50 -24.5t20 -52.5q0 -31 -13.5 -50t-33 -30.5t-39 -19.5t-32.5 -17.5t-13 -24.5q0 -17 21 -28t52.5 -21.5t63 -27t53 -44t21.5 -72.5q0 -46 -25.5 -80t-66.5 -53.5t-89 -19.5z" />
    <glyph glyph-name="agrave" unicode="&#xe0;" horiz-adv-x="440" 
d="M180 -9q-56 0 -91.5 27t-52 74t-16.5 108q0 63 17 110.5t52.5 74.5t90.5 27q34 0 58 -9.5t40 -23.5t26 -28.5t14 -25.5h2v84h85v-409h-71l-14 73h-2q-4 -11 -14 -25t-26.5 -27t-40.5 -21.5t-57 -8.5zM213 62q40 0 63 17.5t33 48.5t10 71q0 43 -10.5 74t-33.5 47.5
t-62 16.5q-41 0 -65.5 -18.5t-35 -49.5t-10.5 -69q0 -39 10.5 -70.5t35 -49.5t65.5 -18zM204 453l-81 96v17h72l48 -102v-11h-39z" />
    <glyph glyph-name="aacute" unicode="&#xe1;" horiz-adv-x="440" 
d="M180 -9q-56 0 -91.5 27t-52 74t-16.5 108q0 63 17 110.5t52.5 74.5t90.5 27q34 0 58 -9.5t40 -23.5t26 -28.5t14 -25.5h2v84h85v-409h-71l-14 73h-2q-4 -11 -14 -25t-26.5 -27t-40.5 -21.5t-57 -8.5zM213 62q40 0 63 17.5t33 48.5t10 71q0 43 -10.5 74t-33.5 47.5
t-62 16.5q-41 0 -65.5 -18.5t-35 -49.5t-10.5 -69q0 -39 10.5 -70.5t35 -49.5t65.5 -18zM240 453h-39v11l48 102h72v-17z" />
    <glyph glyph-name="acircumflex" unicode="&#xe2;" horiz-adv-x="440" 
d="M180 -9q-56 0 -91.5 27t-52 74t-16.5 108q0 63 17 110.5t52.5 74.5t90.5 27q34 0 58 -9.5t40 -23.5t26 -28.5t14 -25.5h2v84h85v-409h-71l-14 73h-2q-4 -11 -14 -25t-26.5 -27t-40.5 -21.5t-57 -8.5zM213 62q40 0 63 17.5t33 48.5t10 71q0 43 -10.5 74t-33.5 47.5
t-62 16.5q-41 0 -65.5 -18.5t-35 -49.5t-10.5 -69q0 -39 10.5 -70.5t35 -49.5t65.5 -18zM88 465v8l114 106h36l113 -106v-8h-75l-54 59h-4l-52 -59h-78z" />
    <glyph glyph-name="atilde" unicode="&#xe3;" horiz-adv-x="440" 
d="M180 -9q-56 0 -91.5 27t-52 74t-16.5 108q0 63 17 110.5t52.5 74.5t90.5 27q34 0 58 -9.5t40 -23.5t26 -28.5t14 -25.5h2v84h85v-409h-71l-14 73h-2q-4 -11 -14 -25t-26.5 -27t-40.5 -21.5t-57 -8.5zM213 62q40 0 63 17.5t33 48.5t10 71q0 43 -10.5 74t-33.5 47.5
t-62 16.5q-41 0 -65.5 -18.5t-35 -49.5t-10.5 -69q0 -39 10.5 -70.5t35 -49.5t65.5 -18zM96 473q0 15 1 32t7.5 33.5t21 27t40.5 10.5q25 0 39.5 -8.5t23.5 -19.5t18.5 -19.5t22.5 -8.5q17 0 20 14.5t3 39.5h51q1 -17 -1 -35.5t-9 -33.5t-21 -24.5t-39 -9.5q-24 0 -38.5 8.5
t-24 19t-18 19t-22.5 8.5q-17 0 -20.5 -13.5t-2.5 -39.5h-52z" />
    <glyph glyph-name="adieresis" unicode="&#xe4;" horiz-adv-x="440" 
d="M180 -9q-56 0 -91.5 27t-52 74t-16.5 108q0 63 17 110.5t52.5 74.5t90.5 27q34 0 58 -9.5t40 -23.5t26 -28.5t14 -25.5h2v84h85v-409h-71l-14 73h-2q-4 -11 -14 -25t-26.5 -27t-40.5 -21.5t-57 -8.5zM213 62q40 0 63 17.5t33 48.5t10 71q0 43 -10.5 74t-33.5 47.5
t-62 16.5q-41 0 -65.5 -18.5t-35 -49.5t-10.5 -69q0 -39 10.5 -70.5t35 -49.5t65.5 -18zM136 460q-32 0 -43.5 16.5t-11.5 38.5q0 21 11.5 37.5t43.5 16.5q33 0 43.5 -16.5t10.5 -37.5q0 -22 -11 -38.5t-43 -16.5zM305 460q-32 0 -43.5 16.5t-11.5 38.5q0 21 11.5 37.5
t43.5 16.5q33 0 43.5 -16.5t10.5 -37.5q0 -22 -11 -38.5t-43 -16.5z" />
    <glyph glyph-name="aring" unicode="&#xe5;" horiz-adv-x="440" 
d="M180 -9q-56 0 -91.5 27t-52 74t-16.5 108q0 63 17 110.5t52.5 74.5t90.5 27q34 0 58 -9.5t40 -23.5t26 -28.5t14 -25.5h2v84h85v-409h-71l-14 73h-2q-4 -11 -14 -25t-26.5 -27t-40.5 -21.5t-57 -8.5zM213 62q40 0 63 17.5t33 48.5t10 71q0 43 -10.5 74t-33.5 47.5
t-62 16.5q-41 0 -65.5 -18.5t-35 -49.5t-10.5 -69q0 -39 10.5 -70.5t35 -49.5t65.5 -18zM219 469q-46 0 -70.5 25t-24.5 68q0 44 24 70t71 26t72 -26t25 -70q0 -40 -25 -66.5t-72 -26.5zM218 518q23 0 35 13.5t12 32.5t-12 33t-35 14q-22 0 -34 -14t-12 -33q0 -20 12.5 -33
t33.5 -13z" />
    <glyph glyph-name="ae" unicode="&#xe6;" horiz-adv-x="730" 
d="M147 0q-56 0 -89.5 29.5t-33.5 76.5q0 34 15.5 55.5t41 35.5t57 22.5t63.5 15.5q44 10 66.5 17t30 16t7.5 22q0 22 -12 36.5t-31 22.5t-42 8q-22 0 -44 -8.5t-36.5 -26.5t-14.5 -49h-78q3 53 29 85t65 47t80 15q43 0 81.5 -16.5t55.5 -50.5q24 30 61 49t89 19
q51 0 92 -24.5t66 -67t27 -98.5v-26h-307q0 -62 32 -97t89 -35q44 0 72 21.5t36 58.5l80 -13q-10 -39 -34.5 -71t-63 -50.5t-90.5 -18.5q-56 0 -96 20.5t-64 54t-34 73.5q-2 -23 -14 -48.5t-32.5 -48t-50.5 -37t-69 -14.5zM177 62q39 1 67.5 25.5t43.5 63.5t15 84
q-9 -9 -32 -15t-45 -13q-31 -8 -58.5 -19t-43.5 -28t-16 -45q1 -27 21.5 -40.5t47.5 -12.5zM387 252h222q0 11 -4.5 29t-15.5 36.5t-31.5 30.5t-52.5 12q-31 0 -52.5 -10.5t-35 -27t-21 -35.5t-9.5 -35z" />
    <glyph glyph-name="ccedilla" unicode="&#xe7;" horiz-adv-x="461" 
d="M230 -10q-57 0 -103 24t-73 70t-27 112q2 66 28.5 114t72.5 74t104 26t99.5 -22t65.5 -57t29 -76h-77q-8 39 -38 61t-76 22q-40 0 -68 -17.5t-43 -48t-16 -70.5q0 -63 33 -101t93 -38q43 0 75 22t40 64h77q-5 -42 -29.5 -78t-66.5 -58.5t-100 -22.5zM134 -133l27 41
q12 -11 36.5 -20t46.5 -9q20 0 33.5 8t13.5 25q0 13 -11.5 19.5t-26.5 6.5q-12 0 -25 -4.5t-23 -13.5l-36 21l41 87l41 -16l-39 -61q11 10 27.5 15.5t33.5 5.5q28 0 51.5 -14.5t23.5 -47.5q0 -38 -32 -58.5t-76 -20.5q-26 0 -54 9.5t-52 26.5z" />
    <glyph glyph-name="egrave" unicode="&#xe8;" horiz-adv-x="457" 
d="M226 -10q-69 0 -113 30.5t-65 79t-21 100.5q-1 59 22.5 107t68 76t106.5 28q54 0 96 -23.5t67 -66t27 -100.5q1 -3 1 -11.5v-14.5h-309q0 -64 31.5 -99.5t87.5 -35.5q42 0 71.5 21.5t36.5 57.5h81q-6 -42 -30 -76t-64 -53.5t-94 -19.5zM109 236h222q-1 11 -5.5 29
t-16.5 35.5t-33 29.5t-54 12q-30 0 -51 -10t-34 -26.5t-19.5 -35t-8.5 -34.5zM213 453l-81 96v17h72l48 -102v-11h-39z" />
    <glyph glyph-name="eacute" unicode="&#xe9;" horiz-adv-x="457" 
d="M226 -10q-69 0 -113 30.5t-65 79t-21 100.5q-1 59 22.5 107t68 76t106.5 28q54 0 96 -23.5t67 -66t27 -100.5q1 -3 1 -11.5v-14.5h-309q0 -64 31.5 -99.5t87.5 -35.5q42 0 71.5 21.5t36.5 57.5h81q-6 -42 -30 -76t-64 -53.5t-94 -19.5zM109 236h222q-1 11 -5.5 29
t-16.5 35.5t-33 29.5t-54 12q-30 0 -51 -10t-34 -26.5t-19.5 -35t-8.5 -34.5zM249 453h-39v11l48 102h72v-17z" />
    <glyph glyph-name="ecircumflex" unicode="&#xea;" horiz-adv-x="457" 
d="M226 -10q-69 0 -113 30.5t-65 79t-21 100.5q-1 59 22.5 107t68 76t106.5 28q54 0 96 -23.5t67 -66t27 -100.5q1 -3 1 -11.5v-14.5h-309q0 -64 31.5 -99.5t87.5 -35.5q42 0 71.5 21.5t36.5 57.5h81q-6 -42 -30 -76t-64 -53.5t-94 -19.5zM109 236h222q-1 11 -5.5 29
t-16.5 35.5t-33 29.5t-54 12q-30 0 -51 -10t-34 -26.5t-19.5 -35t-8.5 -34.5zM97 465v8l114 106h36l113 -106v-8h-75l-54 59h-4l-52 -59h-78z" />
    <glyph glyph-name="edieresis" unicode="&#xeb;" horiz-adv-x="457" 
d="M226 -10q-69 0 -113 30.5t-65 79t-21 100.5q-1 59 22.5 107t68 76t106.5 28q54 0 96 -23.5t67 -66t27 -100.5q1 -3 1 -11.5v-14.5h-309q0 -64 31.5 -99.5t87.5 -35.5q42 0 71.5 21.5t36.5 57.5h81q-6 -42 -30 -76t-64 -53.5t-94 -19.5zM109 236h222q-1 11 -5.5 29
t-16.5 35.5t-33 29.5t-54 12q-30 0 -51 -10t-34 -26.5t-19.5 -35t-8.5 -34.5zM145 460q-32 0 -43.5 16.5t-11.5 38.5q0 21 11.5 37.5t43.5 16.5q33 0 43.5 -16.5t10.5 -37.5q0 -22 -11 -38.5t-43 -16.5zM314 460q-32 0 -43.5 16.5t-11.5 38.5q0 21 11.5 37.5t43.5 16.5
q33 0 43.5 -16.5t10.5 -37.5q0 -22 -11 -38.5t-43 -16.5z" />
    <glyph glyph-name="igrave" unicode="&#xec;" horiz-adv-x="184" 
d="M50 0v409h83v-409h-83zM76 453l-81 96v17h72l48 -102v-11h-39z" />
    <glyph glyph-name="iacute" unicode="&#xed;" horiz-adv-x="184" 
d="M50 0v409h83v-409h-83zM112 453h-39v11l48 102h72v-17z" />
    <glyph glyph-name="icircumflex" unicode="&#xee;" horiz-adv-x="184" 
d="M50 0v409h83v-409h-83zM-40 465v8l114 106h36l113 -106v-8h-75l-54 59h-4l-52 -59h-78z" />
    <glyph glyph-name="idieresis" unicode="&#xef;" horiz-adv-x="184" 
d="M50 0v409h83v-409h-83zM8 460q-32 0 -43.5 16.5t-11.5 38.5q0 21 11.5 37.5t43.5 16.5q33 0 43.5 -16.5t10.5 -37.5q0 -22 -11 -38.5t-43 -16.5zM177 460q-32 0 -43.5 16.5t-11.5 38.5q0 21 11.5 37.5t43.5 16.5q33 0 43.5 -16.5t10.5 -37.5q0 -22 -11 -38.5t-43 -16.5z
" />
    <glyph glyph-name="eth" unicode="&#xf0;" horiz-adv-x="505" 
d="M251 -10q-71 0 -118 31.5t-70.5 80.5t-23.5 100q0 49 20 91.5t59 69.5t96 27q40 0 69.5 -12.5t50.5 -31.5t34 -37.5t19 -31.5t6 -14h1q-6 37 -24.5 73.5t-44.5 69.5t-54.5 60t-54.5 45.5t-45 25.5l57 70q58 -26 102 -67.5t74 -93.5t45.5 -108t15.5 -110q0 -64 -23 -118
t-70.5 -87t-120.5 -33zM394 168q-1 52 -24 87t-58.5 53t-72.5 18q-32 0 -59.5 -13.5t-43.5 -41t-16 -69.5q0 -47 21.5 -78.5t54.5 -48t66 -16.5q44 0 83 27t49 82zM223 422l-31 29l208 126l31 -29z" />
    <glyph glyph-name="ntilde" unicode="&#xf1;" horiz-adv-x="456" 
d="M38 0v409h71l14 -95h2q1 4 8 19t23 32.5t43 30.5t68 13q43 0 70.5 -13.5t44 -36t23.5 -50t9 -56t2 -53.5v-200h-81v201q0 38 -8 68.5t-29 48t-63 17.5t-66.5 -20t-35 -51.5t-10.5 -68.5v-195h-85zM104 473q0 15 1 32t7.5 33.5t21 27t40.5 10.5q25 0 39.5 -8.5t23.5 -19.5
t18.5 -19.5t22.5 -8.5q17 0 20 14.5t3 39.5h51q1 -17 -1 -35.5t-9 -33.5t-21 -24.5t-39 -9.5q-24 0 -38.5 8.5t-24 19t-18 19t-22.5 8.5q-17 0 -20.5 -13.5t-2.5 -39.5h-52z" />
    <glyph glyph-name="ograve" unicode="&#xf2;" 
d="M226 -10q-66 0 -111 27t-67.5 74.5t-22.5 107.5q0 62 22.5 109.5t67.5 74.5t112 27q98 0 149 -58t51 -153q0 -59 -21.5 -106.5t-66 -75t-113.5 -27.5zM226 61q49 0 75 21t35.5 53.5t9.5 66.5t-9.5 66.5t-35.5 54t-75 21.5q-47 0 -73.5 -21.5t-36.5 -54t-10 -66.5
t10 -66.5t36.5 -53.5t73.5 -21zM217 453l-81 96v17h72l48 -102v-11h-39z" />
    <glyph glyph-name="oacute" unicode="&#xf3;" 
d="M226 -10q-66 0 -111 27t-67.5 74.5t-22.5 107.5q0 62 22.5 109.5t67.5 74.5t112 27q98 0 149 -58t51 -153q0 -59 -21.5 -106.5t-66 -75t-113.5 -27.5zM226 61q49 0 75 21t35.5 53.5t9.5 66.5t-9.5 66.5t-35.5 54t-75 21.5q-47 0 -73.5 -21.5t-36.5 -54t-10 -66.5
t10 -66.5t36.5 -53.5t73.5 -21zM253 453h-39v11l48 102h72v-17z" />
    <glyph glyph-name="ocircumflex" unicode="&#xf4;" 
d="M226 -10q-66 0 -111 27t-67.5 74.5t-22.5 107.5q0 62 22.5 109.5t67.5 74.5t112 27q98 0 149 -58t51 -153q0 -59 -21.5 -106.5t-66 -75t-113.5 -27.5zM226 61q49 0 75 21t35.5 53.5t9.5 66.5t-9.5 66.5t-35.5 54t-75 21.5q-47 0 -73.5 -21.5t-36.5 -54t-10 -66.5
t10 -66.5t36.5 -53.5t73.5 -21zM101 465v8l114 106h36l113 -106v-8h-75l-54 59h-4l-52 -59h-78z" />
    <glyph glyph-name="otilde" unicode="&#xf5;" 
d="M226 -10q-66 0 -111 27t-67.5 74.5t-22.5 107.5q0 62 22.5 109.5t67.5 74.5t112 27q98 0 149 -58t51 -153q0 -59 -21.5 -106.5t-66 -75t-113.5 -27.5zM226 61q49 0 75 21t35.5 53.5t9.5 66.5t-9.5 66.5t-35.5 54t-75 21.5q-47 0 -73.5 -21.5t-36.5 -54t-10 -66.5
t10 -66.5t36.5 -53.5t73.5 -21zM109 473q0 15 1 32t7.5 33.5t21 27t40.5 10.5q25 0 39.5 -8.5t23.5 -19.5t18.5 -19.5t22.5 -8.5q17 0 20 14.5t3 39.5h51q1 -17 -1 -35.5t-9 -33.5t-21 -24.5t-39 -9.5q-24 0 -38.5 8.5t-24 19t-18 19t-22.5 8.5q-17 0 -20.5 -13.5
t-2.5 -39.5h-52z" />
    <glyph glyph-name="odieresis" unicode="&#xf6;" 
d="M226 -10q-66 0 -111 27t-67.5 74.5t-22.5 107.5q0 62 22.5 109.5t67.5 74.5t112 27q98 0 149 -58t51 -153q0 -59 -21.5 -106.5t-66 -75t-113.5 -27.5zM226 61q49 0 75 21t35.5 53.5t9.5 66.5t-9.5 66.5t-35.5 54t-75 21.5q-47 0 -73.5 -21.5t-36.5 -54t-10 -66.5
t10 -66.5t36.5 -53.5t73.5 -21zM149 460q-32 0 -43.5 16.5t-11.5 38.5q0 21 11.5 37.5t43.5 16.5q33 0 43.5 -16.5t10.5 -37.5q0 -22 -11 -38.5t-43 -16.5zM318 460q-32 0 -43.5 16.5t-11.5 38.5q0 21 11.5 37.5t43.5 16.5q33 0 43.5 -16.5t10.5 -37.5q0 -22 -11 -38.5
t-43 -16.5z" />
    <glyph glyph-name="divide" unicode="&#xf7;" horiz-adv-x="385" 
d="M82 195v60h222v-60h-222zM193 291q-18 0 -27.5 10.5t-9.5 27.5q0 16 9.5 27t27.5 11q17 0 27 -10.5t10 -28.5q0 -15 -9 -26t-28 -11zM193 81q-18 0 -27.5 10.5t-9.5 27.5t9.5 27.5t27.5 10.5q17 0 27 -10.5t10 -27.5q0 -16 -9 -27t-28 -11z" />
    <glyph glyph-name="oslash" unicode="&#xf8;" horiz-adv-x="458" 
d="M60 -24l296 471l26 -14l-297 -472zM226 -10q-66 0 -111 27t-67.5 74.5t-22.5 107.5q0 62 22.5 109.5t67.5 74.5t112 27q98 0 149 -58t51 -153q0 -59 -21.5 -106.5t-66 -75t-113.5 -27.5zM226 61q49 0 75 21t35.5 53.5t9.5 66.5t-9.5 66.5t-35.5 54t-75 21.5
q-47 0 -73.5 -21.5t-36.5 -54t-10 -66.5t10 -66.5t36.5 -53.5t73.5 -21z" />
    <glyph glyph-name="ugrave" unicode="&#xf9;" horiz-adv-x="453" 
d="M185 -10q-41 0 -68.5 13t-44 35t-24.5 49t-11 56t-3 56v210h82v-210q0 -36 7 -66.5t29 -49.5t65 -19q42 0 65 19.5t32.5 49.5t10.5 62v214h86v-409h-71l-14 85h-2q-3 -10 -12 -25.5t-25 -31.5t-41.5 -27t-60.5 -11zM211 453l-81 96v17h72l48 -102v-11h-39z" />
    <glyph glyph-name="uacute" unicode="&#xfa;" horiz-adv-x="453" 
d="M185 -10q-41 0 -68.5 13t-44 35t-24.5 49t-11 56t-3 56v210h82v-210q0 -36 7 -66.5t29 -49.5t65 -19q42 0 65 19.5t32.5 49.5t10.5 62v214h86v-409h-71l-14 85h-2q-3 -10 -12 -25.5t-25 -31.5t-41.5 -27t-60.5 -11zM247 453h-39v11l48 102h72v-17z" />
    <glyph glyph-name="ucircumflex" unicode="&#xfb;" horiz-adv-x="453" 
d="M185 -10q-41 0 -68.5 13t-44 35t-24.5 49t-11 56t-3 56v210h82v-210q0 -36 7 -66.5t29 -49.5t65 -19q42 0 65 19.5t32.5 49.5t10.5 62v214h86v-409h-71l-14 85h-2q-3 -10 -12 -25.5t-25 -31.5t-41.5 -27t-60.5 -11zM95 465v8l114 106h36l113 -106v-8h-75l-54 59h-4
l-52 -59h-78z" />
    <glyph glyph-name="udieresis" unicode="&#xfc;" horiz-adv-x="453" 
d="M185 -10q-41 0 -68.5 13t-44 35t-24.5 49t-11 56t-3 56v210h82v-210q0 -36 7 -66.5t29 -49.5t65 -19q42 0 65 19.5t32.5 49.5t10.5 62v214h86v-409h-71l-14 85h-2q-3 -10 -12 -25.5t-25 -31.5t-41.5 -27t-60.5 -11zM143 460q-32 0 -43.5 16.5t-11.5 38.5q0 21 11.5 37.5
t43.5 16.5q33 0 43.5 -16.5t10.5 -37.5q0 -22 -11 -38.5t-43 -16.5zM312 460q-32 0 -43.5 16.5t-11.5 38.5q0 21 11.5 37.5t43.5 16.5q33 0 43.5 -16.5t10.5 -37.5q0 -22 -11 -38.5t-43 -16.5z" />
    <glyph glyph-name="yacute" unicode="&#xfd;" horiz-adv-x="424" 
d="M-2 -186v65h59q14 0 25 3.5t21.5 16.5t22.5 40l35 77l-160 393h86l115 -307l123 307h87l-210 -479q-17 -38 -30.5 -61t-28 -35t-33 -16t-43.5 -4h-69zM232 453h-39v11l48 102h72v-17z" />
    <glyph glyph-name="thorn" unicode="&#xfe;" horiz-adv-x="485" 
d="M285 -10q-33 0 -58 11t-42.5 27.5t-28.5 31.5t-16 25t-4 8v202q-1 -1 6 16t24 40t46 40.5t73 17.5q57 0 93.5 -30t54.5 -77t18 -99q0 -53 -17 -102t-53.5 -80t-95.5 -31zM50 -199v762h86v-462v-300h-86zM249 60q42 0 66.5 20.5t34.5 52t10 65.5q0 35 -11 66t-36.5 51.5
t-66.5 20.5q-36 0 -61.5 -18t-38 -48.5t-12.5 -71.5q0 -39 13 -70.5t38.5 -49.5t63.5 -18z" />
    <glyph glyph-name="ydieresis" unicode="&#xff;" horiz-adv-x="424" 
d="M-2 -186v65h59q14 0 25 3.5t21.5 16.5t22.5 40l35 77l-160 393h86l115 -307l123 307h87l-210 -479q-17 -38 -30.5 -61t-28 -35t-33 -16t-43.5 -4h-69zM128 460q-32 0 -43.5 16.5t-11.5 38.5q0 21 11.5 37.5t43.5 16.5q33 0 43.5 -16.5t10.5 -37.5q0 -22 -11 -38.5
t-43 -16.5zM297 460q-32 0 -43.5 16.5t-11.5 38.5q0 21 11.5 37.5t43.5 16.5q33 0 43.5 -16.5t10.5 -37.5q0 -22 -11 -38.5t-43 -16.5z" />
    <glyph glyph-name="Amacron" unicode="&#x100;" horiz-adv-x="554" 
d="M19 0l189 563h137l193 -563h-89l-171 528l-171 -528h-88zM134 168l3 66h280l4 -66h-287zM146 628v60h262v-60h-262z" />
    <glyph glyph-name="amacron" unicode="&#x101;" horiz-adv-x="440" 
d="M180 -9q-56 0 -91.5 27t-52 74t-16.5 108q0 63 17 110.5t52.5 74.5t90.5 27q34 0 58 -9.5t40 -23.5t26 -28.5t14 -25.5h2v84h85v-409h-71l-14 73h-2q-4 -11 -14 -25t-26.5 -27t-40.5 -21.5t-57 -8.5zM213 62q40 0 63 17.5t33 48.5t10 71q0 43 -10.5 74t-33.5 47.5
t-62 16.5q-41 0 -65.5 -18.5t-35 -49.5t-10.5 -69q0 -39 10.5 -70.5t35 -49.5t65.5 -18zM89 474v60h262v-60h-262z" />
    <glyph glyph-name="Abreve" unicode="&#x102;" horiz-adv-x="554" 
d="M19 0l189 563h137l193 -563h-89l-171 528l-171 -528h-88zM134 168l3 66h280l4 -66h-287zM278 616q-59 0 -92 26.5t-33 70.5h59q0 -29 19 -38.5t46 -9.5q28 0 46 9t18 39h60q0 -44 -32 -70.5t-91 -26.5z" />
    <glyph glyph-name="abreve" unicode="&#x103;" horiz-adv-x="440" 
d="M180 -9q-56 0 -91.5 27t-52 74t-16.5 108q0 63 17 110.5t52.5 74.5t90.5 27q34 0 58 -9.5t40 -23.5t26 -28.5t14 -25.5h2v84h85v-409h-71l-14 73h-2q-4 -11 -14 -25t-26.5 -27t-40.5 -21.5t-57 -8.5zM213 62q40 0 63 17.5t33 48.5t10 71q0 43 -10.5 74t-33.5 47.5
t-62 16.5q-41 0 -65.5 -18.5t-35 -49.5t-10.5 -69q0 -39 10.5 -70.5t35 -49.5t65.5 -18zM221 462q-59 0 -92 26.5t-33 70.5h59q0 -29 19 -38.5t46 -9.5q28 0 46 9t18 39h60q0 -44 -32 -70.5t-91 -26.5z" />
    <glyph glyph-name="Aogonek" unicode="&#x104;" horiz-adv-x="554" 
d="M472 -189q-24 0 -45.5 9.5t-35 28.5t-13.5 47q0 29 14.5 51.5t36 39.5t43 28.5t36 17l14.5 5.5l16 -38l-15 -6t-34.5 -18t-34 -29t-14.5 -38q0 -16 10 -26.5t28 -10.5q17 0 26.5 7.5t14 15l4.5 7.5l47 -39l-10.5 -13t-32 -26t-55.5 -13zM19 0l189 563h137l193 -563h-89
l-171 528l-171 -528h-88zM134 168l3 66h280l4 -66h-287z" />
    <glyph glyph-name="aogonek" unicode="&#x105;" horiz-adv-x="440" 
d="M180 -9q-56 0 -91.5 27t-52 74t-16.5 108q0 63 17 110.5t52.5 74.5t90.5 27q34 0 58 -9.5t40 -23.5t26 -28.5t14 -25.5h2v84h85v-409h-71l-14 73h-2q-4 -11 -14 -25t-26.5 -27t-40.5 -21.5t-57 -8.5zM213 62q40 0 63 17.5t33 48.5t10 71q0 43 -10.5 74t-33.5 47.5
t-62 16.5q-41 0 -65.5 -18.5t-35 -49.5t-10.5 -69q0 -39 10.5 -70.5t35 -49.5t65.5 -18zM356 -199q-24 0 -45.5 9.5t-35 28.5t-13.5 47q0 29 14.5 51.5t35.5 39.5t42.5 28.5t36 17l14.5 5.5v-38l-12 -6t-28.5 -18t-28.5 -29t-12 -38q0 -16 10 -26.5t28 -10.5q17 0 26.5 7.5
t14 15l4.5 7.5l47 -39l-10.5 -13t-32 -26t-55.5 -13z" />
    <glyph glyph-name="Cacute" unicode="&#x106;" horiz-adv-x="599" 
d="M300 -10q-78 0 -141 32.5t-100 97t-37 160.5q1 95 37 160.5t100 99t145 33.5q73 0 127 -26.5t87.5 -73.5t44.5 -110h-86q-8 48 -34 77t-62.5 42t-76.5 13q-95 0 -147 -54.5t-52 -155.5q0 -106 51 -161.5t145 -55.5q44 0 81.5 14t63.5 43.5t34 76.5h87q-11 -62 -44.5 -110
t-89 -75t-133.5 -27zM320 607h-39v11l48 102h72v-17z" />
    <glyph glyph-name="cacute" unicode="&#x107;" horiz-adv-x="461" 
d="M230 -10q-57 0 -103 24t-73 70t-27 112q2 66 28.5 114t72.5 74t104 26t99.5 -22t65.5 -57t29 -76h-77q-8 39 -38 61t-76 22q-40 0 -68 -17.5t-43 -48t-16 -70.5q0 -63 33 -101t93 -38q43 0 75 22t40 64h77q-5 -42 -29.5 -78t-66.5 -58.5t-100 -22.5zM251 453h-39v11
l48 102h72v-17z" />
    <glyph glyph-name="Cdotaccent" unicode="&#x10a;" horiz-adv-x="599" 
d="M300 -10q-78 0 -141 32.5t-100 97t-37 160.5q1 95 37 160.5t100 99t145 33.5q73 0 127 -26.5t87.5 -73.5t44.5 -110h-86q-8 48 -34 77t-62.5 42t-76.5 13q-95 0 -147 -54.5t-52 -155.5q0 -106 51 -161.5t145 -55.5q44 0 81.5 14t63.5 43.5t34 76.5h87q-11 -62 -44.5 -110
t-89 -75t-133.5 -27zM300 620q-29 0 -39 15t-10 35q0 19 10 33.5t39 14.5q30 0 39 -14.5t9 -33.5q0 -20 -9 -35t-39 -15z" />
    <glyph glyph-name="cdotaccent" unicode="&#x10b;" horiz-adv-x="461" 
d="M230 -10q-57 0 -103 24t-73 70t-27 112q2 66 28.5 114t72.5 74t104 26t99.5 -22t65.5 -57t29 -76h-77q-8 39 -38 61t-76 22q-40 0 -68 -17.5t-43 -48t-16 -70.5q0 -63 33 -101t93 -38q43 0 75 22t40 64h77q-5 -42 -29.5 -78t-66.5 -58.5t-100 -22.5zM231 466
q-29 0 -39 15t-10 35q0 19 10 33.5t39 14.5q30 0 39 -14.5t9 -33.5q0 -20 -9 -35t-39 -15z" />
    <glyph glyph-name="Ccaron" unicode="&#x10c;" horiz-adv-x="599" 
d="M300 -10q-78 0 -141 32.5t-100 97t-37 160.5q1 95 37 160.5t100 99t145 33.5q73 0 127 -26.5t87.5 -73.5t44.5 -110h-86q-8 48 -34 77t-62.5 42t-76.5 13q-95 0 -147 -54.5t-52 -155.5q0 -106 51 -161.5t145 -55.5q44 0 81.5 14t63.5 43.5t34 76.5h87q-11 -62 -44.5 -110
t-89 -75t-133.5 -27zM282 607l-114 110v8h78l52 -63h4l54 63h75v-8l-113 -110h-36z" />
    <glyph glyph-name="ccaron" unicode="&#x10d;" horiz-adv-x="461" 
d="M230 -10q-57 0 -103 24t-73 70t-27 112q2 66 28.5 114t72.5 74t104 26t99.5 -22t65.5 -57t29 -76h-77q-8 39 -38 61t-76 22q-40 0 -68 -17.5t-43 -48t-16 -70.5q0 -63 33 -101t93 -38q43 0 75 22t40 64h77q-5 -42 -29.5 -78t-66.5 -58.5t-100 -22.5zM213 453l-114 110v8
h78l52 -63h4l54 63h75v-8l-113 -110h-36z" />
    <glyph glyph-name="Dcaron" unicode="&#x10e;" horiz-adv-x="597" 
d="M148 70v421h91q72 0 124.5 -23t81.5 -69t29 -116q0 -66 -16.5 -107.5t-47.5 -65t-74 -32t-97 -8.5h-31h-60zM562 282q0 94 -42.5 156t-120 93.5t-182.5 31.5h-48h-104v-563h101h51q105 0 182.5 24t120 85.5t42.5 172.5zM249 607l-114 110v8h78l52 -63h4l54 63h75v-8
l-113 -110h-36z" />
    <glyph glyph-name="dcaron" unicode="&#x10f;" horiz-adv-x="590" 
d="M218 -10q-60 0 -98.5 27t-57 74t-18.5 107q0 63 19 110.5t57.5 74t97.5 26.5q40 0 67.5 -13t43.5 -31t23.5 -33t8.5 -19h2v250h86v-563h-72l-13 82h-2q-2 -4 -10 -18.5t-25 -31.5t-44 -29.5t-65 -12.5zM242 62q39 0 66 17t40.5 48t13.5 72q0 40 -13 71t-38.5 47.5
t-64.5 16.5q-44 0 -70.5 -19t-38 -50t-11.5 -66t10.5 -66.5t36 -51t69.5 -19.5zM489 415l32 154h80l-63 -154h-49z" />
    <glyph glyph-name="Dcroat" unicode="&#x110;" horiz-adv-x="600" 
d="M65 0v563h104h48q105 0 182.5 -31.5t120 -93.5t42.5 -156q0 -111 -42.5 -172.5t-120 -85.5t-182.5 -24h-51h-101zM0 258v57h304v-57h-304zM148 70h60h31q54 0 97 8.5t74 32t47.5 65t16.5 107.5q0 70 -29 116t-81.5 69t-124.5 23h-91v-421z" />
    <glyph glyph-name="dcroat" unicode="&#x111;" horiz-adv-x="497" 
d="M215 -10q-59 0 -97.5 27t-57 74t-18.5 107q0 63 19 110.5t57.5 74t97.5 26.5q40 0 67 -13t43 -31t23.5 -33l9.5 -19h2v250h86v-563h-72l-14 82h-2q-1 -4 -9.5 -18.5t-25.5 -31.5t-43.5 -29.5t-65.5 -12.5zM240 62q39 0 65.5 17t40.5 48t14 72q0 40 -13 71t-39 47.5
t-64 16.5q-44 0 -71 -19t-38.5 -50t-11.5 -66t10.5 -66.5t36.5 -51t70 -19.5zM225 461v52h266v-52h-266z" />
    <glyph glyph-name="Emacron" unicode="&#x112;" horiz-adv-x="490" 
d="M55 0v563h390v-72h-308v-171h240v-69h-240v-183h318v-68h-400zM115 628v60h262v-60h-262z" />
    <glyph glyph-name="emacron" unicode="&#x113;" horiz-adv-x="457" 
d="M226 -10q-69 0 -113 30.5t-65 79t-21 100.5q-1 59 22.5 107t68 76t106.5 28q54 0 96 -23.5t67 -66t27 -100.5q1 -3 1 -11.5v-14.5h-309q0 -64 31.5 -99.5t87.5 -35.5q42 0 71.5 21.5t36.5 57.5h81q-6 -42 -30 -76t-64 -53.5t-94 -19.5zM109 236h222q-1 11 -5.5 29
t-16.5 35.5t-33 29.5t-54 12q-30 0 -51 -10t-34 -26.5t-19.5 -35t-8.5 -34.5zM98 474v60h262v-60h-262z" />
    <glyph glyph-name="Edotaccent" unicode="&#x116;" horiz-adv-x="490" 
d="M55 0v563h390v-72h-308v-171h240v-69h-240v-183h318v-68h-400zM246 620q-29 0 -39 15t-10 35q0 19 10 33.5t39 14.5q30 0 39 -14.5t9 -33.5q0 -20 -9 -35t-39 -15z" />
    <glyph glyph-name="edotaccent" unicode="&#x117;" horiz-adv-x="457" 
d="M226 -10q-69 0 -113 30.5t-65 79t-21 100.5q-1 59 22.5 107t68 76t106.5 28q54 0 96 -23.5t67 -66t27 -100.5q1 -3 1 -11.5v-14.5h-309q0 -64 31.5 -99.5t87.5 -35.5q42 0 71.5 21.5t36.5 57.5h81q-6 -42 -30 -76t-64 -53.5t-94 -19.5zM109 236h222q-1 11 -5.5 29
t-16.5 35.5t-33 29.5t-54 12q-30 0 -51 -10t-34 -26.5t-19.5 -35t-8.5 -34.5zM229 466q-29 0 -39 15t-10 35q0 19 10 33.5t39 14.5q30 0 39 -14.5t9 -33.5q0 -20 -9 -35t-39 -15z" />
    <glyph glyph-name="Eogonek" unicode="&#x118;" horiz-adv-x="490" 
d="M55 0v563h390v-72h-308v-171h240v-69h-240v-183h318v-68h-400zM401 -188q-24 0 -45.5 9.5t-35 28.5t-13.5 47q0 29 14.5 51.5t35.5 39.5t42.5 28.5t36 17l14.5 5.5v-38l-12 -6t-28.5 -18t-28.5 -29t-12 -38q0 -16 10 -26.5t28 -10.5q17 0 26.5 7.5t14 15l4.5 7.5l47 -39
l-10.5 -13t-32 -26t-55.5 -13z" />
    <glyph glyph-name="eogonek" unicode="&#x119;" horiz-adv-x="457" 
d="M241 -190q-24 0 -45.5 9.5t-35 28.5t-13.5 47q0 29 14.5 51.5t36 39.5t43 28.5t36 17l14.5 5.5v-38l-12.5 -6t-28.5 -18t-28.5 -29t-12.5 -38q0 -16 10.5 -26.5t28.5 -10.5q16 0 26 7.5t14.5 15l4.5 7.5l46 -39l-10.5 -13t-32 -26t-55.5 -13zM226 -10q-69 0 -113 30.5
t-65 79t-21 100.5q-1 59 22.5 107t68 76t106.5 28q54 0 96 -23.5t67 -66t27 -100.5q1 -3 1 -11.5v-14.5h-309q0 -64 31.5 -99.5t87.5 -35.5q42 0 71.5 21.5t36.5 57.5h81q-6 -42 -30 -76t-64 -53.5t-94 -19.5zM109 236h222q-1 11 -5.5 29t-16.5 35.5t-33 29.5t-54 12
q-30 0 -51 -10t-34 -26.5t-19.5 -35t-8.5 -34.5z" />
    <glyph glyph-name="Ecaron" unicode="&#x11a;" horiz-adv-x="490" 
d="M55 0v563h390v-72h-308v-171h240v-69h-240v-183h318v-68h-400zM228 607l-114 110v8h78l52 -63h4l54 63h75v-8l-113 -110h-36z" />
    <glyph glyph-name="ecaron" unicode="&#x11b;" horiz-adv-x="457" 
d="M226 -10q-69 0 -113 30.5t-65 79t-21 100.5q-1 59 22.5 107t68 76t106.5 28q54 0 96 -23.5t67 -66t27 -100.5q1 -3 1 -11.5v-14.5h-309q0 -64 31.5 -99.5t87.5 -35.5q42 0 71.5 21.5t36.5 57.5h81q-6 -42 -30 -76t-64 -53.5t-94 -19.5zM109 236h222q-1 11 -5.5 29
t-16.5 35.5t-33 29.5t-54 12q-30 0 -51 -10t-34 -26.5t-19.5 -35t-8.5 -34.5zM211 453l-114 110v8h78l52 -63h4l54 63h75v-8l-113 -110h-36z" />
    <glyph glyph-name="Gbreve" unicode="&#x11e;" horiz-adv-x="616" 
d="M291 -12q-82 0 -142.5 34t-93.5 99t-32 158q2 94 37 160t98.5 100t146.5 34q111 0 175 -49.5t83 -144.5l-80 -11q-10 46 -36 74t-62.5 40.5t-79.5 12.5q-101 0 -151 -57.5t-50 -153.5q0 -103 54.5 -159.5t153.5 -56.5q45 0 83 15.5t64 47t33 78.5h-139v63h221v-272h-57
l-19 111h-2q-7 -19 -22.5 -40.5t-40.5 -40t-60.5 -30.5t-81.5 -12zM309 616q-59 0 -92 26.5t-33 70.5h59q0 -29 19 -38.5t46 -9.5q28 0 46 9t18 39h60q0 -44 -32 -70.5t-91 -26.5z" />
    <glyph glyph-name="gbreve" unicode="&#x11f;" 
d="M145 -175v78h192v179h-2q-2 -4 -10 -18.5t-24.5 -31.5t-43 -29.5t-65.5 -12.5q-59 0 -98 27t-57.5 74t-18.5 108q0 63 19 110.5t58 73.5t98 26q40 0 67 -13t42.5 -31t23 -33t8.5 -19h2v96h86v-461q0 -44 -11 -71t-34.5 -39.5t-62.5 -12.5h-169zM215 62q39 0 66 17
t40.5 48t13.5 72q0 40 -13 71t-38.5 47.5t-64.5 16.5q-44 0 -70.5 -19t-38 -50t-11.5 -66t10.5 -66.5t36 -51t69.5 -19.5zM234 462q-59 0 -92 26.5t-33 70.5h59q0 -29 19 -38.5t46 -9.5q28 0 46 9t18 39h60q0 -44 -32 -70.5t-91 -26.5z" />
    <glyph glyph-name="Gdotaccent" unicode="&#x120;" horiz-adv-x="616" 
d="M291 -12q-82 0 -142.5 34t-93.5 99t-32 158q2 94 37 160t98.5 100t146.5 34q111 0 175 -49.5t83 -144.5l-80 -11q-10 46 -36 74t-62.5 40.5t-79.5 12.5q-101 0 -151 -57.5t-50 -153.5q0 -103 54.5 -159.5t153.5 -56.5q45 0 83 15.5t64 47t33 78.5h-139v63h221v-272h-57
l-19 111h-2q-7 -19 -22.5 -40.5t-40.5 -40t-60.5 -30.5t-81.5 -12zM309 620q-29 0 -39 15t-10 35q0 19 10 33.5t39 14.5q30 0 39 -14.5t9 -33.5q0 -20 -9 -35t-39 -15z" />
    <glyph glyph-name="gdotaccent" unicode="&#x121;" 
d="M145 -175v78h192v179h-2q-2 -4 -10 -18.5t-24.5 -31.5t-43 -29.5t-65.5 -12.5q-59 0 -98 27t-57.5 74t-18.5 108q0 63 19 110.5t58 73.5t98 26q40 0 67 -13t42.5 -31t23 -33t8.5 -19h2v96h86v-461q0 -44 -11 -71t-34.5 -39.5t-62.5 -12.5h-169zM215 62q39 0 66 17
t40.5 48t13.5 72q0 40 -13 71t-38.5 47.5t-64.5 16.5q-44 0 -70.5 -19t-38 -50t-11.5 -66t10.5 -66.5t36 -51t69.5 -19.5zM233 466q-29 0 -39 15t-10 35q0 19 10 33.5t39 14.5q30 0 39 -14.5t9 -33.5q0 -20 -9 -35t-39 -15z" />
    <glyph glyph-name="uni0122" unicode="&#x122;" horiz-adv-x="616" 
d="M291 -12q-82 0 -142.5 34t-93.5 99t-32 158q2 94 37 160t98.5 100t146.5 34q111 0 175 -49.5t83 -144.5l-80 -11q-10 46 -36 74t-62.5 40.5t-79.5 12.5q-101 0 -151 -57.5t-50 -153.5q0 -103 54.5 -159.5t153.5 -56.5q45 0 83 15.5t64 47t33 78.5h-139v63h221v-272h-57
l-19 111h-2q-7 -19 -22.5 -40.5t-40.5 -40t-60.5 -30.5t-81.5 -12zM258 -239v58h21q25 0 33.5 9.5t8.5 27.5q-32 -2 -46 12t-14 38q0 21 11 35.5t39 14.5q24 0 36 -14t12 -54q0 -36 -7.5 -65t-24.5 -45.5t-46 -16.5h-23z" />
    <glyph glyph-name="uni0123" unicode="&#x123;" 
d="M145 -175v78h192v179h-2q-2 -4 -10 -18.5t-24.5 -31.5t-43 -29.5t-65.5 -12.5q-59 0 -98 27t-57.5 74t-18.5 108q0 63 19 110.5t58 73.5t98 26q40 0 67 -13t42.5 -31t23 -33t8.5 -19h2v96h86v-461q0 -44 -11 -71t-34.5 -39.5t-62.5 -12.5h-169zM215 62q39 0 66 17
t40.5 48t13.5 72q0 40 -13 71t-38.5 47.5t-64.5 16.5q-44 0 -70.5 -19t-38 -50t-11.5 -66t10.5 -66.5t36 -51t69.5 -19.5zM240 460h-39v11l48 102h73v-17z" />
    <glyph glyph-name="Hbar" unicode="&#x126;" horiz-adv-x="590" 
d="M15 419v61h555v-61h-555zM146 0h-83v563h83v-563zM440 563h82v-563h-82v563zM487 256h-384v65h384v-65z" />
    <glyph glyph-name="hbar" unicode="&#x127;" horiz-adv-x="474" 
d="M340 0v167q0 49 -6 87.5t-27 60.5t-65 22q-36 0 -59.5 -20.5t-35 -58t-11.5 -88.5v123q-1 -7 1 3t10.5 28.5t24.5 38.5t41 34t61 14q45 0 73.5 -15.5t44 -41.5t22.5 -57t8 -63t1 -60v-174h-83zM53 0v563h83v-563h-83zM266 461h-265v52h265v-52z" />
    <glyph glyph-name="Itilde" unicode="&#x128;" horiz-adv-x="360" 
d="M136 18v527h82v-527h-82zM59 0v72h235v-72h-235zM59 491v72h235v-72h-235zM53 627q0 15 1 32t7.5 33.5t21 27t40.5 10.5q25 0 39.5 -8.5t23.5 -19.5t18.5 -19.5t22.5 -8.5q17 0 20 14.5t3 39.5h51q1 -17 -1 -35.5t-9 -33.5t-21 -24.5t-39 -9.5q-24 0 -38.5 8.5t-24 19
t-18 19t-22.5 8.5q-17 0 -20.5 -13.5t-2.5 -39.5h-52z" />
    <glyph glyph-name="itilde" unicode="&#x129;" horiz-adv-x="184" 
d="M50 0v409h83v-409h-83zM-32 473q0 15 1 32t7.5 33.5t21 27t40.5 10.5q25 0 39.5 -8.5t23.5 -19.5t18.5 -19.5t22.5 -8.5q17 0 20 14.5t3 39.5h51q1 -17 -1 -35.5t-9 -33.5t-21 -24.5t-39 -9.5q-24 0 -38.5 8.5t-24 19t-18 19t-22.5 8.5q-17 0 -20.5 -13.5t-2.5 -39.5h-52
z" />
    <glyph glyph-name="Imacron" unicode="&#x12a;" horiz-adv-x="360" 
d="M136 18v527h82v-527h-82zM59 0v72h235v-72h-235zM59 491v72h235v-72h-235zM46 628v60h262v-60h-262z" />
    <glyph glyph-name="imacron" unicode="&#x12b;" horiz-adv-x="184" 
d="M50 0v409h83v-409h-83zM7 474v60h168v-60h-168z" />
    <glyph glyph-name="Iogonek" unicode="&#x12e;" horiz-adv-x="360" 
d="M136 18v527h82v-527h-82zM59 0v72h235v-72h-235zM59 491v72h235v-72h-235zM180 -189q-24 0 -45.5 9.5t-35 28.5t-13.5 47q0 29 14.5 51.5t35.5 39.5t42.5 28.5t36 17l14.5 5.5v-38l-12 -6t-28.5 -18t-28.5 -29t-12 -38q0 -16 10 -26.5t28 -10.5q17 0 26.5 7.5t14 15
l4.5 7.5l47 -39l-10.5 -13t-32 -26t-55.5 -13z" />
    <glyph glyph-name="iogonek" unicode="&#x12f;" horiz-adv-x="184" 
d="M50 0v409h83v-409h-83zM92 466q-29 0 -39 15t-10 35q0 19 10 33.5t39 14.5q30 0 39 -14.5t9 -33.5q0 -20 -9 -35t-39 -15zM82 -189q-24 0 -45.5 9.5t-35 28.5t-13.5 47q0 29 14.5 51.5t35.5 39.5t42.5 28.5t36 17l14.5 5.5v-38l-12 -6t-28.5 -18t-28.5 -29t-12 -38
q0 -16 10 -26.5t28 -10.5q17 0 26.5 7.5t14 15l4.5 7.5l47 -39l-10.5 -13t-32 -26t-55.5 -13z" />
    <glyph glyph-name="Idotaccent" unicode="&#x130;" horiz-adv-x="360" 
d="M136 18v527h82v-527h-82zM59 0v72h235v-72h-235zM59 491v72h235v-72h-235zM178 620q-29 0 -39 15t-10 35q0 19 10 33.5t39 14.5q30 0 39 -14.5t9 -33.5q0 -20 -9 -35t-39 -15z" />
    <glyph glyph-name="dotlessi" unicode="&#x131;" horiz-adv-x="184" 
d="M50 0v409h83v-409h-83z" />
    <glyph glyph-name="IJ" unicode="&#x132;" horiz-adv-x="811" 
d="M136 18v527h82v-527h-82zM59 0v72h235v-72h-235zM59 491v72h235v-72h-235zM575 -10q-35 0 -66.5 10t-55.5 30t-38.5 52.5t-14.5 77.5h78q0 -23 8 -45.5t28.5 -37.5t58.5 -15q47 0 70 26.5t23 93.5v363h83v-351q0 -47 -8.5 -85t-28 -64.5t-53 -40.5t-84.5 -14zM553 498v65
h196v-65h-196z" />
    <glyph glyph-name="ij" unicode="&#x133;" horiz-adv-x="412" 
d="M51 0v409h83v-409h-83zM93 466q-29 0 -39.5 15t-10.5 35q0 19 10.5 33.5t39.5 14.5t38.5 -14.5t9.5 -33.5q0 -20 -9.5 -35t-38.5 -15zM285 466q-29 0 -39 15t-10 35q0 19 10 33.5t39 14.5q30 0 39 -14.5t9 -33.5q0 -20 -9 -35t-39 -15zM244 409h83v-496q0 -44 -19.5 -66
t-62.5 -22h-70v66h69v518z" />
    <glyph glyph-name="uni0136" unicode="&#x136;" horiz-adv-x="566" 
d="M147 184v95l277 284h108v-11zM68 0v563h83v-563h-83zM448 0l-224 295l60 59l260 -343v-11h-96zM233 -239v58h21q25 0 33.5 9.5t8.5 27.5q-32 -2 -46 12t-14 38q0 21 11 35.5t39 14.5q24 0 36 -14t12 -54q0 -36 -7.5 -65t-24.5 -45.5t-46 -16.5h-23z" />
    <glyph glyph-name="uni0137" unicode="&#x137;" horiz-adv-x="439" 
d="M129 0h-84v563h84v-563zM232 271l202 -271h-100l-163 213zM124 101v95l203 215h104zM169 -239v58h21q25 0 33.5 9.5t8.5 27.5q-32 -2 -46 12t-14 38q0 21 11 35.5t39 14.5q24 0 36 -14t12 -54q0 -36 -7.5 -65t-24.5 -45.5t-46 -16.5h-23z" />
    <glyph glyph-name="Lacute" unicode="&#x139;" horiz-adv-x="469" 
d="M65 8v555h83v-555h-83zM65 0v72h378v-72h-378zM125 611h-39v11l48 102h72v-17z" />
    <glyph glyph-name="lacute" unicode="&#x13a;" horiz-adv-x="182" 
d="M50 0v563h82v-563h-82zM111 608h-39v11l48 102h72v-17z" />
    <glyph glyph-name="uni013B" unicode="&#x13b;" horiz-adv-x="469" 
d="M65 8v555h83v-555h-83zM65 0v72h378v-72h-378zM185 -239v58h21q25 0 33.5 9.5t8.5 27.5q-32 -2 -46 12t-14 38q0 21 11 35.5t39 14.5q24 0 36 -14t12 -54q0 -36 -7.5 -65t-24.5 -45.5t-46 -16.5h-23z" />
    <glyph glyph-name="uni013C" unicode="&#x13c;" horiz-adv-x="182" 
d="M50 0v563h82v-563h-82zM41 -239v58h21q25 0 33.5 9.5t8.5 27.5q-32 -2 -46 12t-14 38q0 21 11 35.5t39 14.5q24 0 36 -14t12 -54q0 -36 -7.5 -65t-24.5 -45.5t-46 -16.5h-23z" />
    <glyph glyph-name="Lcaron" unicode="&#x13d;" horiz-adv-x="469" 
d="M65 8v555h83v-555h-83zM65 0v72h378v-72h-378zM297 409l32 154h80l-63 -154h-49z" />
    <glyph glyph-name="lcaron" unicode="&#x13e;" horiz-adv-x="291" 
d="M50 0v563h82v-563h-82zM179 415l32 154h80l-63 -154h-49z" />
    <glyph glyph-name="Lslash" unicode="&#x141;" horiz-adv-x="469" 
d="M-2 200v73l277 134v-73zM65 8v555h83v-555h-83zM65 0v72h378v-72h-378z" />
    <glyph glyph-name="lslash" unicode="&#x142;" horiz-adv-x="239" 
d="M-7 200v75l212 134v-75zM50 0v563h82v-563h-82z" />
    <glyph glyph-name="Nacute" unicode="&#x143;" horiz-adv-x="594" 
d="M451 563h85v-563h-157l-237 526h-2v-526h-85v563h147l247 -526h2v526zM317 607h-39v11l48 102h72v-17z" />
    <glyph glyph-name="nacute" unicode="&#x144;" horiz-adv-x="456" 
d="M38 0v409h71l14 -95h2q1 4 8 19t23 32.5t43 30.5t68 13q43 0 70.5 -13.5t44 -36t23.5 -50t9 -56t2 -53.5v-200h-81v201q0 38 -8 68.5t-29 48t-63 17.5t-66.5 -20t-35 -51.5t-10.5 -68.5v-195h-85zM248 453h-39v11l48 102h72v-17z" />
    <glyph glyph-name="uni0145" unicode="&#x145;" horiz-adv-x="594" 
d="M451 563h85v-563h-157l-237 526h-2v-526h-85v563h147l247 -526h2v526zM247 -239v58h21q25 0 33.5 9.5t8.5 27.5q-32 -2 -46 12t-14 38q0 21 11 35.5t39 14.5q24 0 36 -14t12 -54q0 -36 -7.5 -65t-24.5 -45.5t-46 -16.5h-23z" />
    <glyph glyph-name="uni0146" unicode="&#x146;" horiz-adv-x="456" 
d="M38 0v409h71l14 -95h2q1 4 8 19t23 32.5t43 30.5t68 13q43 0 70.5 -13.5t44 -36t23.5 -50t9 -56t2 -53.5v-200h-81v201q0 38 -8 68.5t-29 48t-63 17.5t-66.5 -20t-35 -51.5t-10.5 -68.5v-195h-85zM178 -239v58h21q25 0 33.5 9.5t8.5 27.5q-32 -2 -46 12t-14 38
q0 21 11 35.5t39 14.5q24 0 36 -14t12 -54q0 -36 -7.5 -65t-24.5 -45.5t-46 -16.5h-23z" />
    <glyph glyph-name="Ncaron" unicode="&#x147;" horiz-adv-x="594" 
d="M451 563h85v-563h-157l-237 526h-2v-526h-85v563h147l247 -526h2v526zM279 607l-114 110v8h78l52 -63h4l54 63h75v-8l-113 -110h-36z" />
    <glyph glyph-name="ncaron" unicode="&#x148;" horiz-adv-x="456" 
d="M38 0v409h71l14 -95h2q1 4 8 19t23 32.5t43 30.5t68 13q43 0 70.5 -13.5t44 -36t23.5 -50t9 -56t2 -53.5v-200h-81v201q0 38 -8 68.5t-29 48t-63 17.5t-66.5 -20t-35 -51.5t-10.5 -68.5v-195h-85zM210 453l-114 110v8h78l52 -63h4l54 63h75v-8l-113 -110h-36z" />
    <glyph glyph-name="Eng" unicode="&#x14a;" horiz-adv-x="600" 
d="M411 -203q-27 0 -46.5 8t-31.5 17t-17 13l47 56q4 -5 15 -12t27 -7q22 0 35.5 14t13.5 46v85h82v-93q1 -35 -12 -63.5t-40.5 -46t-72.5 -17.5zM451 563h85v-563h-157l-237 526h-2v-526h-85v563h147l247 -526h2v526z" />
    <glyph glyph-name="eng" unicode="&#x14b;" horiz-adv-x="494" 
d="M293 -198q-27 0 -47 7.5t-32 16.5t-16 13l47 56q4 -4 14.5 -11t26.5 -7q23 0 36.5 13.5t12.5 46.5v84h81v-93q1 -34 -11.5 -63t-39.5 -46t-72 -17zM38 0v409h71l14 -95h2q1 4 8 19t23 32.5t43 30.5t68 13q43 0 70.5 -13.5t44 -36t23.5 -50t9 -56t2 -53.5v-200h-81v201
q0 38 -8 68.5t-29 48t-63 17.5t-66.5 -20t-35 -51.5t-10.5 -68.5v-195h-85z" />
    <glyph glyph-name="Omacron" unicode="&#x14c;" horiz-adv-x="608" 
d="M297 -14q-135 0 -206 79.5t-71 214.5q0 89 30.5 154.5t92 102t154.5 36.5q135 0 205.5 -79.5t70.5 -213.5q0 -87 -31.5 -153.5t-92.5 -103.5t-152 -37zM296 66q65 0 108.5 27.5t65 76t21.5 110.5q0 63 -21 111.5t-64.5 76t-109.5 27.5q-96 0 -145.5 -58t-49.5 -157
q0 -61 21 -109.5t64.5 -76.5t109.5 -28zM174 628v60h262v-60h-262z" />
    <glyph glyph-name="omacron" unicode="&#x14d;" 
d="M226 -10q-66 0 -111 27t-67.5 74.5t-22.5 107.5q0 62 22.5 109.5t67.5 74.5t112 27q98 0 149 -58t51 -153q0 -59 -21.5 -106.5t-66 -75t-113.5 -27.5zM226 61q49 0 75 21t35.5 53.5t9.5 66.5t-9.5 66.5t-35.5 54t-75 21.5q-47 0 -73.5 -21.5t-36.5 -54t-10 -66.5
t10 -66.5t36.5 -53.5t73.5 -21zM102 474v60h262v-60h-262z" />
    <glyph glyph-name="Ohungarumlaut" unicode="&#x150;" horiz-adv-x="608" 
d="M297 -14q-135 0 -206 79.5t-71 214.5q0 89 30.5 154.5t92 102t154.5 36.5q135 0 205.5 -79.5t70.5 -213.5q0 -87 -31.5 -153.5t-92.5 -103.5t-152 -37zM296 66q65 0 108.5 27.5t65 76t21.5 110.5q0 63 -21 111.5t-64.5 76t-109.5 27.5q-96 0 -145.5 -58t-49.5 -157
q0 -61 21 -109.5t64.5 -76.5t109.5 -28zM189 631l74 142l69 -33l-104 -128zM344 631l75 142l68 -33l-104 -128z" />
    <glyph glyph-name="ohungarumlaut" unicode="&#x151;" 
d="M226 -10q-66 0 -111 27t-67.5 74.5t-22.5 107.5q0 62 22.5 109.5t67.5 74.5t112 27q98 0 149 -58t51 -153q0 -59 -21.5 -106.5t-66 -75t-113.5 -27.5zM226 61q49 0 75 21t35.5 53.5t9.5 66.5t-9.5 66.5t-35.5 54t-75 21.5q-47 0 -73.5 -21.5t-36.5 -54t-10 -66.5
t10 -66.5t36.5 -53.5t73.5 -21zM117 477l74 142l69 -33l-104 -128zM272 477l75 142l68 -33l-104 -128z" />
    <glyph glyph-name="OE" unicode="&#x152;" horiz-adv-x="842" 
d="M376 0q-104 0 -180.5 24t-118.5 85.5t-42 172.5q0 94 42 156t118.5 93.5t180.5 31.5h18h28.5h66.5v-563h-63.5h-29.5h-20zM359 70h6.5h8h33.5v421h-48q-72 0 -125 -23t-81.5 -69t-28.5 -116q0 -66 16 -107.5t47 -65t74.5 -32t97.5 -8.5zM407 0v563h389v-72h-307v-171h240
v-69h-240v-183h317v-68h-399z" />
    <glyph glyph-name="oe" unicode="&#x153;" horiz-adv-x="764" 
d="M223 -10q-67 0 -112 27t-67.5 74.5t-22.5 107.5q0 62 22.5 109.5t67.5 74.5t112 27q98 0 149 -58t51 -153q0 -59 -21.5 -106.5t-65.5 -75t-113 -27.5zM223 61q48 0 74 21t36 53.5t10 66.5t-10 66.5t-36 54t-74 21.5t-74.5 -21.5t-36.5 -54t-10 -66.5t10 -66.5t36.5 -53.5
t74.5 -21zM545 -10q-70 0 -115 30.5t-66 79t-21 100.5q0 39 11.5 76.5t35.5 68t62.5 48.5t93.5 18q51 0 92 -24.5t66 -67t27 -98.5v-11.5v-14.5h-308q0 -62 32.5 -97t89.5 -35q44 0 72 21.5t36 58.5l80 -13q-10 -39 -34.5 -71t-63 -50.5t-90.5 -18.5zM425 242h222
q0 11 -4.5 29t-15.5 36.5t-31.5 30.5t-52.5 12t-53.5 -10.5t-35 -27t-20.5 -35.5t-9 -35z" />
    <glyph glyph-name="Racute" unicode="&#x154;" horiz-adv-x="543" 
d="M59 0v563h197q72 0 122.5 -15t77.5 -50.5t27 -97.5q0 -43 -14.5 -77t-43.5 -53.5t-72 -19.5q33 0 51.5 -12.5t27.5 -33t12 -43.5t4.5 -45t6.5 -38t17.5 -22t36.5 3v-50q-14 -12 -36 -16.5t-44.5 3t-38 31t-15.5 68.5q0 42 -3.5 70t-15.5 43.5t-37 23t-67.5 8t-108.5 -1.5
v-238h-84zM143 300h116q51 0 84 6.5t49.5 27t16.5 60.5q0 47 -20 68t-58 26.5t-94 5.5h-94v-194zM271 607h-39v11l48 102h72v-17z" />
    <glyph glyph-name="racute" unicode="&#x155;" horiz-adv-x="320" 
d="M45 0v409h77l7 -118l-1 -88v-203h-83zM128 184l-3 90q1 22 10 45.5t27.5 44t48 33t71.5 12.5h17v-92h-18q-45 0 -75 -8.5t-47 -25.5t-24 -42t-7 -57zM180 453h-39v11l48 102h72v-17z" />
    <glyph glyph-name="uni0156" unicode="&#x156;" horiz-adv-x="543" 
d="M59 0v563h197q72 0 122.5 -15t77.5 -50.5t27 -97.5q0 -43 -14.5 -77t-43.5 -53.5t-72 -19.5q33 0 51.5 -12.5t27.5 -33t12 -43.5t4.5 -45t6.5 -38t17.5 -22t36.5 3v-50q-14 -12 -36 -16.5t-44.5 3t-38 31t-15.5 68.5q0 42 -3.5 70t-15.5 43.5t-37 23t-67.5 8t-108.5 -1.5
v-238h-84zM143 300h116q51 0 84 6.5t49.5 27t16.5 60.5q0 47 -20 68t-58 26.5t-94 5.5h-94v-194zM221 -239v58h21q25 0 33.5 9.5t8.5 27.5q-32 -2 -46 12t-14 38q0 21 11 35.5t39 14.5q24 0 36 -14t12 -54q0 -36 -7.5 -65t-24.5 -45.5t-46 -16.5h-23z" />
    <glyph glyph-name="uni0157" unicode="&#x157;" horiz-adv-x="320" 
d="M45 0v409h77l7 -118l-1 -88v-203h-83zM128 184l-3 90q1 22 10 45.5t27.5 44t48 33t71.5 12.5h17v-92h-18q-45 0 -75 -8.5t-47 -25.5t-24 -42t-7 -57zM36 -239v58h21q25 0 33.5 9.5t8.5 27.5q-32 -2 -46 12t-14 38q0 21 11 35.5t39 14.5q24 0 36 -14t12 -54
q0 -36 -7.5 -65t-24.5 -45.5t-46 -16.5h-23z" />
    <glyph glyph-name="Rcaron" unicode="&#x158;" horiz-adv-x="543" 
d="M59 0v563h197q72 0 122.5 -15t77.5 -50.5t27 -97.5q0 -43 -14.5 -77t-43.5 -53.5t-72 -19.5q33 0 51.5 -12.5t27.5 -33t12 -43.5t4.5 -45t6.5 -38t17.5 -22t36.5 3v-50q-14 -12 -36 -16.5t-44.5 3t-38 31t-15.5 68.5q0 42 -3.5 70t-15.5 43.5t-37 23t-67.5 8t-108.5 -1.5
v-238h-84zM143 300h116q51 0 84 6.5t49.5 27t16.5 60.5q0 47 -20 68t-58 26.5t-94 5.5h-94v-194zM233 607l-114 110v8h78l52 -63h4l54 63h75v-8l-113 -110h-36z" />
    <glyph glyph-name="rcaron" unicode="&#x159;" horiz-adv-x="320" 
d="M45 0v409h77l7 -118l-1 -88v-203h-83zM128 184l-3 90q1 22 10 45.5t27.5 44t48 33t71.5 12.5h17v-92h-18q-45 0 -75 -8.5t-47 -25.5t-24 -42t-7 -57zM142 453l-114 110v8h78l52 -63h4l54 63h75v-8l-113 -110h-36z" />
    <glyph glyph-name="Sacute" unicode="&#x15a;" horiz-adv-x="540" 
d="M273 -12q-46 0 -89 11t-78 34t-56 59.5t-22 87.5h84q0 -3 2 -16t10.5 -30t26 -33t49 -26.5t79.5 -10.5q37 0 62 8t40 21t21.5 27t6.5 25q0 31 -19.5 50t-52.5 30.5t-72.5 21t-78.5 21t-71.5 30.5t-50.5 49.5t-16 78.5q3 46 32 79t79.5 50.5t115.5 17.5q59 0 108.5 -21
t80 -62.5t29.5 -105.5h-81q1 35 -14 56.5t-38.5 33.5t-48.5 16.5t-45 4.5q-56 0 -92.5 -20.5t-37.5 -57.5q-1 -32 19 -51t53 -30t73 -20t79 -20t71.5 -29.5t51 -49.5t16.5 -80q-2 -47 -32 -80t-80 -51t-114 -18zM290 607h-39v11l48 102h72v-17z" />
    <glyph glyph-name="sacute" unicode="&#x15b;" horiz-adv-x="409" 
d="M209 -10q-28 0 -54.5 7.5t-49 21.5t-40 32t-27 39.5t-9.5 45.5h78q0 -1 1.5 -14t10.5 -29.5t29.5 -28.5t58.5 -12q29 0 49.5 7t31.5 19.5t10 30.5q0 25 -19 39t-49 22.5t-63 16.5t-63 21.5t-48.5 37t-17.5 63.5q0 54 45.5 83.5t115.5 29.5q34 0 66 -8t57.5 -25t41 -45
t14.5 -69h-77q1 26 -8.5 42t-25.5 24.5t-33.5 12t-33.5 3.5q-40 0 -63 -14.5t-23 -38.5q0 -25 19 -39t49 -22t64 -16t64 -21.5t49 -37.5t19 -64q0 -39 -21.5 -64t-59.5 -37.5t-88 -12.5zM225 453h-39v11l48 102h72v-17z" />
    <glyph glyph-name="Scedilla" unicode="&#x15e;" horiz-adv-x="540" 
d="M273 -12q-46 0 -89 11t-78 34t-56 59.5t-22 87.5h84q0 -3 2 -16t10.5 -30t26 -33t49 -26.5t79.5 -10.5q37 0 62 8t40 21t21.5 27t6.5 25q0 31 -19.5 50t-52.5 30.5t-72.5 21t-78.5 21t-71.5 30.5t-50.5 49.5t-16 78.5q3 46 32 79t79.5 50.5t115.5 17.5q59 0 108.5 -21
t80 -62.5t29.5 -105.5h-81q1 35 -14 56.5t-38.5 33.5t-48.5 16.5t-45 4.5q-56 0 -92.5 -20.5t-37.5 -57.5q-1 -32 19 -51t53 -30t73 -20t79 -20t71.5 -29.5t51 -49.5t16.5 -80q-2 -47 -32 -80t-80 -51t-114 -18zM174 -133l27 41q12 -11 36.5 -20t46.5 -9q20 0 33.5 8
t13.5 25q0 13 -11.5 19.5t-26.5 6.5q-12 0 -25 -4.5t-23 -13.5l-36 21l41 87l41 -16l-39 -61q11 10 27.5 15.5t33.5 5.5q28 0 51.5 -14.5t23.5 -47.5q0 -38 -32 -58.5t-76 -20.5q-26 0 -54 9.5t-52 26.5z" />
    <glyph glyph-name="scedilla" unicode="&#x15f;" horiz-adv-x="409" 
d="M209 -10q-28 0 -54.5 7.5t-49 21.5t-40 32t-27 39.5t-9.5 45.5h78q0 -1 1.5 -14t10.5 -29.5t29.5 -28.5t58.5 -12q29 0 49.5 7t31.5 19.5t10 30.5q0 25 -19 39t-49 22.5t-63 16.5t-63 21.5t-48.5 37t-17.5 63.5q0 54 45.5 83.5t115.5 29.5q34 0 66 -8t57.5 -25t41 -45
t14.5 -69h-77q1 26 -8.5 42t-25.5 24.5t-33.5 12t-33.5 3.5q-40 0 -63 -14.5t-23 -38.5q0 -25 19 -39t49 -22t64 -16t64 -21.5t49 -37.5t19 -64q0 -39 -21.5 -64t-59.5 -37.5t-88 -12.5zM108 -133l27 41q12 -11 36.5 -20t46.5 -9q20 0 33.5 8t13.5 25q0 13 -11.5 19.5
t-26.5 6.5q-12 0 -25 -4.5t-23 -13.5l-36 21l41 87l41 -16l-39 -61q11 10 27.5 15.5t33.5 5.5q28 0 51.5 -14.5t23.5 -47.5q0 -38 -32 -58.5t-76 -20.5q-26 0 -54 9.5t-52 26.5z" />
    <glyph glyph-name="Scaron" unicode="&#x160;" horiz-adv-x="540" 
d="M273 -12q-46 0 -89 11t-78 34t-56 59.5t-22 87.5h84q0 -3 2 -16t10.5 -30t26 -33t49 -26.5t79.5 -10.5q37 0 62 8t40 21t21.5 27t6.5 25q0 31 -19.5 50t-52.5 30.5t-72.5 21t-78.5 21t-71.5 30.5t-50.5 49.5t-16 78.5q3 46 32 79t79.5 50.5t115.5 17.5q59 0 108.5 -21
t80 -62.5t29.5 -105.5h-81q1 35 -14 56.5t-38.5 33.5t-48.5 16.5t-45 4.5q-56 0 -92.5 -20.5t-37.5 -57.5q-1 -32 19 -51t53 -30t73 -20t79 -20t71.5 -29.5t51 -49.5t16.5 -80q-2 -47 -32 -80t-80 -51t-114 -18zM252 607l-114 110v8h78l52 -63h4l54 63h75v-8l-113 -110h-36z
" />
    <glyph glyph-name="scaron" unicode="&#x161;" horiz-adv-x="409" 
d="M209 -10q-28 0 -54.5 7.5t-49 21.5t-40 32t-27 39.5t-9.5 45.5h78q0 -1 1.5 -14t10.5 -29.5t29.5 -28.5t58.5 -12q29 0 49.5 7t31.5 19.5t10 30.5q0 25 -19 39t-49 22.5t-63 16.5t-63 21.5t-48.5 37t-17.5 63.5q0 54 45.5 83.5t115.5 29.5q34 0 66 -8t57.5 -25t41 -45
t14.5 -69h-77q1 26 -8.5 42t-25.5 24.5t-33.5 12t-33.5 3.5q-40 0 -63 -14.5t-23 -38.5q0 -25 19 -39t49 -22t64 -16t64 -21.5t49 -37.5t19 -64q0 -39 -21.5 -64t-59.5 -37.5t-88 -12.5zM187 453l-114 110v8h78l52 -63h4l54 63h75v-8l-113 -110h-36z" />
    <glyph glyph-name="uni0162" unicode="&#x162;" horiz-adv-x="457" 
d="M267 545v-545h-83v545h83zM10 491v72h430v-72h-430zM132 -133l27 41q12 -11 36.5 -20t46.5 -9q20 0 33.5 8t13.5 25q0 13 -11.5 19.5t-26.5 6.5q-12 0 -25 -4.5t-23 -13.5l-36 21l41 87l41 -16l-39 -61q11 10 27.5 15.5t33.5 5.5q28 0 51.5 -14.5t23.5 -47.5
q0 -38 -32 -58.5t-76 -20.5q-26 0 -54 9.5t-52 26.5z" />
    <glyph glyph-name="uni0163" unicode="&#x163;" horiz-adv-x="291" 
d="M156 0q-42 0 -62 22t-20 67v270h79v-293h95v-66h-92zM11 349v60q23 0 37.5 3t22 12.5t10.5 31t3 58.5h69v-105h94v-60h-236zM49 -133l27 41q12 -11 36.5 -20t46.5 -9q20 0 33.5 8t13.5 25q0 13 -11.5 19.5t-26.5 6.5q-12 0 -25 -4.5t-23 -13.5l-36 21l41 87l41 -16
l-39 -61q11 10 27.5 15.5t33.5 5.5q28 0 51.5 -14.5t23.5 -47.5q0 -38 -32 -58.5t-76 -20.5q-26 0 -54 9.5t-52 26.5z" />
    <glyph glyph-name="Tcaron" unicode="&#x164;" horiz-adv-x="457" 
d="M267 545v-545h-83v545h83zM10 491v72h430v-72h-430zM211 607l-114 110v8h78l52 -63h4l54 63h75v-8l-113 -110h-36z" />
    <glyph glyph-name="tcaron" unicode="&#x165;" horiz-adv-x="291" 
d="M156 0q-42 0 -62 22t-20 67v270h79v-293h95v-66h-92zM11 349v60q23 0 37.5 3t22 12.5t10.5 31t3 58.5h69v-105h94v-60h-236zM194 454l32 154h80l-63 -154h-49z" />
    <glyph glyph-name="Tbar" unicode="&#x166;" horiz-adv-x="457" 
d="M10 491v72h430v-72h-430zM57 270v60h337v-60h-337zM267 545v-545h-83v545h83z" />
    <glyph glyph-name="tbar" unicode="&#x167;" horiz-adv-x="291" 
d="M247 18q-29 -22 -59 -26.5t-56 7.5t-42 39t-16 68v255h79v-234q0 -32 9 -49t23.5 -22.5t29.5 -2t28 12.5zM17 185v60h220v-60h-220zM11 345v66q23 0 37.5 2.5t22 12.5t10.5 31.5t3 58.5h69v-105h94v-66h-236z" />
    <glyph glyph-name="Utilde" unicode="&#x168;" horiz-adv-x="586" 
d="M292 -14q-116 0 -177.5 66.5t-61.5 187.5v323h87v-322q0 -49 12.5 -82.5t33.5 -54t48.5 -30t57.5 -9.5q45 0 79.5 16.5t54 55.5t19.5 104v322h87v-323q0 -123 -60.5 -188.5t-179.5 -65.5zM169 627q0 15 1 32t7.5 33.5t21 27t40.5 10.5q25 0 39.5 -8.5t23.5 -19.5
t18.5 -19.5t22.5 -8.5q17 0 20 14.5t3 39.5h51q1 -17 -1 -35.5t-9 -33.5t-21 -24.5t-39 -9.5q-24 0 -38.5 8.5t-24 19t-18 19t-22.5 8.5q-17 0 -20.5 -13.5t-2.5 -39.5h-52z" />
    <glyph glyph-name="utilde" unicode="&#x169;" horiz-adv-x="453" 
d="M185 -10q-41 0 -68.5 13t-44 35t-24.5 49t-11 56t-3 56v210h82v-210q0 -36 7 -66.5t29 -49.5t65 -19q42 0 65 19.5t32.5 49.5t10.5 62v214h86v-409h-71l-14 85h-2q-3 -10 -12 -25.5t-25 -31.5t-41.5 -27t-60.5 -11zM103 473q0 15 1 32t7.5 33.5t21 27t40.5 10.5
q25 0 39.5 -8.5t23.5 -19.5t18.5 -19.5t22.5 -8.5q17 0 20 14.5t3 39.5h51q1 -17 -1 -35.5t-9 -33.5t-21 -24.5t-39 -9.5q-24 0 -38.5 8.5t-24 19t-18 19t-22.5 8.5q-17 0 -20.5 -13.5t-2.5 -39.5h-52z" />
    <glyph glyph-name="Umacron" unicode="&#x16a;" horiz-adv-x="586" 
d="M292 -14q-116 0 -177.5 66.5t-61.5 187.5v323h87v-322q0 -49 12.5 -82.5t33.5 -54t48.5 -30t57.5 -9.5q45 0 79.5 16.5t54 55.5t19.5 104v322h87v-323q0 -123 -60.5 -188.5t-179.5 -65.5zM162 628v60h262v-60h-262z" />
    <glyph glyph-name="umacron" unicode="&#x16b;" horiz-adv-x="453" 
d="M185 -10q-41 0 -68.5 13t-44 35t-24.5 49t-11 56t-3 56v210h82v-210q0 -36 7 -66.5t29 -49.5t65 -19q42 0 65 19.5t32.5 49.5t10.5 62v214h86v-409h-71l-14 85h-2q-3 -10 -12 -25.5t-25 -31.5t-41.5 -27t-60.5 -11zM96 474v60h262v-60h-262z" />
    <glyph glyph-name="Ubreve" unicode="&#x16c;" horiz-adv-x="586" 
d="M292 -14q-116 0 -177.5 66.5t-61.5 187.5v323h87v-322q0 -49 12.5 -82.5t33.5 -54t48.5 -30t57.5 -9.5q45 0 79.5 16.5t54 55.5t19.5 104v322h87v-323q0 -123 -60.5 -188.5t-179.5 -65.5zM294 616q-59 0 -92 26.5t-33 70.5h59q0 -29 19 -38.5t46 -9.5q28 0 46 9t18 39h60
q0 -44 -32 -70.5t-91 -26.5z" />
    <glyph glyph-name="ubreve" unicode="&#x16d;" horiz-adv-x="453" 
d="M185 -10q-41 0 -68.5 13t-44 35t-24.5 49t-11 56t-3 56v210h82v-210q0 -36 7 -66.5t29 -49.5t65 -19q42 0 65 19.5t32.5 49.5t10.5 62v214h86v-409h-71l-14 85h-2q-3 -10 -12 -25.5t-25 -31.5t-41.5 -27t-60.5 -11zM228 462q-59 0 -92 26.5t-33 70.5h59q0 -29 19 -38.5
t46 -9.5q28 0 46 9t18 39h60q0 -44 -32 -70.5t-91 -26.5z" />
    <glyph glyph-name="Uring" unicode="&#x16e;" horiz-adv-x="586" 
d="M292 -14q-116 0 -177.5 66.5t-61.5 187.5v323h87v-322q0 -49 12.5 -82.5t33.5 -54t48.5 -30t57.5 -9.5q45 0 79.5 16.5t54 55.5t19.5 104v322h87v-323q0 -123 -60.5 -188.5t-179.5 -65.5zM292 623q-46 0 -70.5 25t-24.5 68q0 44 24 70t71 26t72 -26t25 -70
q0 -40 -25 -66.5t-72 -26.5zM291 672q23 0 35 13.5t12 32.5t-12 33t-35 14q-22 0 -34 -14t-12 -33q0 -20 12.5 -33t33.5 -13z" />
    <glyph glyph-name="uring" unicode="&#x16f;" horiz-adv-x="453" 
d="M185 -10q-41 0 -68.5 13t-44 35t-24.5 49t-11 56t-3 56v210h82v-210q0 -36 7 -66.5t29 -49.5t65 -19q42 0 65 19.5t32.5 49.5t10.5 62v214h86v-409h-71l-14 85h-2q-3 -10 -12 -25.5t-25 -31.5t-41.5 -27t-60.5 -11zM225 469q-46 0 -70.5 25t-24.5 68q0 44 24 70t71 26
t72 -26t25 -70q0 -40 -25 -66.5t-72 -26.5zM224 518q23 0 35 13.5t12 32.5t-12 33t-35 14q-22 0 -34 -14t-12 -33q0 -20 12.5 -33t33.5 -13z" />
    <glyph glyph-name="Uhungarumlaut" unicode="&#x170;" horiz-adv-x="586" 
d="M292 -14q-116 0 -177.5 66.5t-61.5 187.5v323h87v-322q0 -49 12.5 -82.5t33.5 -54t48.5 -30t57.5 -9.5q45 0 79.5 16.5t54 55.5t19.5 104v322h87v-323q0 -123 -60.5 -188.5t-179.5 -65.5zM177 631l74 142l69 -33l-104 -128zM332 631l75 142l68 -33l-104 -128z" />
    <glyph glyph-name="uhungarumlaut" unicode="&#x171;" horiz-adv-x="453" 
d="M185 -10q-41 0 -68.5 13t-44 35t-24.5 49t-11 56t-3 56v210h82v-210q0 -36 7 -66.5t29 -49.5t65 -19q42 0 65 19.5t32.5 49.5t10.5 62v214h86v-409h-71l-14 85h-2q-3 -10 -12 -25.5t-25 -31.5t-41.5 -27t-60.5 -11zM111 477l74 142l69 -33l-104 -128zM266 477l75 142
l68 -33l-104 -128z" />
    <glyph glyph-name="Uogonek" unicode="&#x172;" horiz-adv-x="586" 
d="M300 -192q-24 0 -45.5 9.5t-35 28.5t-13.5 47q0 29 14.5 51.5t36.5 39t44 27t36.5 16l14.5 5.5l2 -38l-13 -6t-30 -17t-30 -27.5t-13 -37.5q0 -16 10.5 -26.5t28.5 -10.5q16 0 26 7.5t14.5 15l4.5 7.5l46 -39l-10.5 -13t-32 -26t-55.5 -13zM292 -14q-116 0 -177.5 66.5
t-61.5 187.5v323h87v-322q0 -49 12.5 -82.5t33.5 -54t48.5 -30t57.5 -9.5q45 0 79.5 16.5t54 55.5t19.5 104v322h87v-323q0 -123 -60.5 -188.5t-179.5 -65.5z" />
    <glyph glyph-name="uogonek" unicode="&#x173;" horiz-adv-x="453" 
d="M185 -10q-41 0 -68.5 13t-44 35t-24.5 49t-11 56t-3 56v210h82v-210q0 -36 7 -66.5t29 -49.5t65 -19q42 0 65 19.5t32.5 49.5t10.5 62v214h86v-409h-71l-14 85h-2q-3 -10 -12 -25.5t-25 -31.5t-41.5 -27t-60.5 -11zM354 -189q-24 0 -45.5 9.5t-35 28.5t-13.5 47
q0 29 14.5 51.5t35.5 39.5t42.5 28.5t36 17l14.5 5.5v-38l-12 -6t-28.5 -18t-28.5 -29t-12 -38q0 -16 10 -26.5t28 -10.5q17 0 26.5 7.5t14 15l4.5 7.5l47 -39l-10.5 -13t-32 -26t-55.5 -13z" />
    <glyph glyph-name="Wcircumflex" unicode="&#x174;" horiz-adv-x="830" 
d="M366 563h88l-44 -108l-117 -455h-135l-148 563h89l127 -526zM721 563h89l-151 -563h-134l-115 455l-45 108h89l138 -526zM283 619v8l114 106h36l113 -106v-8h-75l-54 59h-4l-52 -59h-78z" />
    <glyph glyph-name="wcircumflex" unicode="&#x175;" horiz-adv-x="620" 
d="M107 0l-102 394v16h81l80 -340h2l96 340h73l99 -340h2l79 340h81v-16l-103 -394h-117l-76 266h-2l-75 -266h-118zM179 465v8l114 106h36l113 -106v-8h-75l-54 59h-4l-52 -59h-78z" />
    <glyph glyph-name="Ycircumflex" unicode="&#x176;" horiz-adv-x="439" 
d="M176 201l-193 362h93l142 -286l141 286h93l-196 -362h-80zM175 0v214h83v-214h-83zM88 619v8l114 106h36l113 -106v-8h-75l-54 59h-4l-52 -59h-78z" />
    <glyph glyph-name="ycircumflex" unicode="&#x177;" horiz-adv-x="424" 
d="M-2 -186v65h59q14 0 25 3.5t21.5 16.5t22.5 40l35 77l-160 393h86l115 -307l123 307h87l-210 -479q-17 -38 -30.5 -61t-28 -35t-33 -16t-43.5 -4h-69zM80 465v8l114 106h36l113 -106v-8h-75l-54 59h-4l-52 -59h-78z" />
    <glyph glyph-name="Ydieresis" unicode="&#x178;" horiz-adv-x="439" 
d="M176 201l-193 362h93l142 -286l141 286h93l-196 -362h-80zM175 0v214h83v-214h-83zM136 614q-32 0 -43.5 16.5t-11.5 38.5q0 21 11.5 37.5t43.5 16.5q33 0 43.5 -16.5t10.5 -37.5q0 -22 -11 -38.5t-43 -16.5zM305 614q-32 0 -43.5 16.5t-11.5 38.5q0 21 11.5 37.5
t43.5 16.5q33 0 43.5 -16.5t10.5 -37.5q0 -22 -11 -38.5t-43 -16.5z" />
    <glyph glyph-name="Zacute" unicode="&#x179;" horiz-adv-x="554" 
d="M40 0v70l362 421h-333v72h439v-71l-358 -419h356v-73h-466zM298 607h-39v11l48 102h72v-17z" />
    <glyph glyph-name="zacute" unicode="&#x17a;" horiz-adv-x="438" 
d="M35 0v61l263 287h-249v63h349v-61l-260 -287h260v-63h-363zM239 453h-39v11l48 102h72v-17z" />
    <glyph glyph-name="Zdotaccent" unicode="&#x17b;" horiz-adv-x="554" 
d="M40 0v70l362 421h-333v72h439v-71l-358 -419h356v-73h-466zM278 620q-29 0 -39 15t-10 35q0 19 10 33.5t39 14.5q30 0 39 -14.5t9 -33.5q0 -20 -9 -35t-39 -15z" />
    <glyph glyph-name="zdotaccent" unicode="&#x17c;" horiz-adv-x="438" 
d="M35 0v61l263 287h-249v63h349v-61l-260 -287h260v-63h-363zM220 466q-29 0 -39 15t-10 35q0 19 10 33.5t39 14.5q30 0 39 -14.5t9 -33.5q0 -20 -9 -35t-39 -15z" />
    <glyph glyph-name="Zcaron" unicode="&#x17d;" horiz-adv-x="554" 
d="M40 0v70l362 421h-333v72h439v-71l-358 -419h356v-73h-466zM260 607l-114 110v8h78l52 -63h4l54 63h75v-8l-113 -110h-36z" />
    <glyph glyph-name="zcaron" unicode="&#x17e;" horiz-adv-x="438" 
d="M35 0v61l263 287h-249v63h349v-61l-260 -287h260v-63h-363zM201 453l-114 110v8h78l52 -63h4l54 63h75v-8l-113 -110h-36z" />
    <glyph glyph-name="Ohorn" unicode="&#x1a0;" horiz-adv-x="608" 
d="M297 -14q-135 0 -206 79.5t-71 214.5q0 89 30.5 154.5t92 102t154.5 36.5q135 0 205.5 -79.5t70.5 -213.5q0 -87 -31.5 -153.5t-92.5 -103.5t-152 -37zM296 66q65 0 108.5 27.5t65 76t21.5 110.5q0 63 -21 111.5t-64.5 76t-109.5 27.5q-96 0 -145.5 -58t-49.5 -157
q0 -61 21 -109.5t64.5 -76.5t109.5 -28zM373 512l1 51h35q14 0 20 3.5t7.5 13t1.5 28.5h63q0 -35 -9.5 -56t-31 -30.5t-57.5 -9.5h-30z" />
    <glyph glyph-name="ohorn" unicode="&#x1a1;" 
d="M226 -10q-66 0 -111 27t-67.5 74.5t-22.5 107.5q0 62 22.5 109.5t67.5 74.5t112 27q98 0 149 -58t51 -153q0 -59 -21.5 -106.5t-66 -75t-113.5 -27.5zM226 61q49 0 75 21t35.5 53.5t9.5 66.5t-9.5 66.5t-35.5 54t-75 21.5q-47 0 -73.5 -21.5t-36.5 -54t-10 -66.5
t10 -66.5t36.5 -53.5t73.5 -21zM280 349l1 51h35q14 0 20 3.5t7.5 13t1.5 28.5h63q0 -35 -9.5 -56t-31 -30.5t-57.5 -9.5h-30z" />
    <glyph glyph-name="Uhorn" unicode="&#x1af;" horiz-adv-x="586" 
d="M292 -14q-116 0 -177.5 66.5t-61.5 187.5v323h87v-322q0 -49 12.5 -82.5t33.5 -54t48.5 -30t57.5 -9.5q45 0 79.5 16.5t54 55.5t19.5 104v322h87v-323q0 -123 -60.5 -188.5t-179.5 -65.5zM497 512l1 51h35q14 0 20 3.5t7.5 13t1.5 28.5h63q0 -35 -9.5 -56t-31 -30.5
t-57.5 -9.5h-30z" />
    <glyph glyph-name="uhorn" unicode="&#x1b0;" horiz-adv-x="453" 
d="M185 -10q-41 0 -68.5 13t-44 35t-24.5 49t-11 56t-3 56v210h82v-210q0 -36 7 -66.5t29 -49.5t65 -19q42 0 65 19.5t32.5 49.5t10.5 62v214h86v-409h-71l-14 85h-2q-3 -10 -12 -25.5t-25 -31.5t-41.5 -27t-60.5 -11zM364 358l1 51h35q14 0 20 3.5t7.5 13t1.5 28.5h63
q0 -35 -9.5 -56t-31 -30.5t-57.5 -9.5h-30z" />
    <glyph glyph-name="uni0218" unicode="&#x218;" horiz-adv-x="540" 
d="M273 -12q-46 0 -89 11t-78 34t-56 59.5t-22 87.5h84q0 -3 2 -16t10.5 -30t26 -33t49 -26.5t79.5 -10.5q37 0 62 8t40 21t21.5 27t6.5 25q0 31 -19.5 50t-52.5 30.5t-72.5 21t-78.5 21t-71.5 30.5t-50.5 49.5t-16 78.5q3 46 32 79t79.5 50.5t115.5 17.5q59 0 108.5 -21
t80 -62.5t29.5 -105.5h-81q1 35 -14 56.5t-38.5 33.5t-48.5 16.5t-45 4.5q-56 0 -92.5 -20.5t-37.5 -57.5q-1 -32 19 -51t53 -30t73 -20t79 -20t71.5 -29.5t51 -49.5t16.5 -80q-2 -47 -32 -80t-80 -51t-114 -18zM220 -239v58h21q25 0 33.5 9.5t8.5 27.5q-32 -2 -46 12
t-14 38q0 21 11 35.5t39 14.5q24 0 36 -14t12 -54q0 -36 -7.5 -65t-24.5 -45.5t-46 -16.5h-23z" />
    <glyph glyph-name="uni0219" unicode="&#x219;" horiz-adv-x="409" 
d="M209 -10q-28 0 -54.5 7.5t-49 21.5t-40 32t-27 39.5t-9.5 45.5h78q0 -1 1.5 -14t10.5 -29.5t29.5 -28.5t58.5 -12q29 0 49.5 7t31.5 19.5t10 30.5q0 25 -19 39t-49 22.5t-63 16.5t-63 21.5t-48.5 37t-17.5 63.5q0 54 45.5 83.5t115.5 29.5q34 0 66 -8t57.5 -25t41 -45
t14.5 -69h-77q1 26 -8.5 42t-25.5 24.5t-33.5 12t-33.5 3.5q-40 0 -63 -14.5t-23 -38.5q0 -25 19 -39t49 -22t64 -16t64 -21.5t49 -37.5t19 -64q0 -39 -21.5 -64t-59.5 -37.5t-88 -12.5zM154 -239v58h21q25 0 33.5 9.5t8.5 27.5q-32 -2 -46 12t-14 38q0 21 11 35.5t39 14.5
q24 0 36 -14t12 -54q0 -36 -7.5 -65t-24.5 -45.5t-46 -16.5h-23z" />
    <glyph glyph-name="uni021A" unicode="&#x21a;" horiz-adv-x="457" 
d="M267 545v-545h-83v545h83zM10 491v72h430v-72h-430zM178 -239v58h21q25 0 33.5 9.5t8.5 27.5q-32 -2 -46 12t-14 38q0 21 11 35.5t39 14.5q24 0 36 -14t12 -54q0 -36 -7.5 -65t-24.5 -45.5t-46 -16.5h-23z" />
    <glyph glyph-name="uni021B" unicode="&#x21b;" horiz-adv-x="291" 
d="M156 0q-42 0 -62 22t-20 67v270h79v-293h95v-66h-92zM11 349v60q23 0 37.5 3t22 12.5t10.5 31t3 58.5h69v-105h94v-60h-236zM95 -239v58h21q25 0 33.5 9.5t8.5 27.5q-32 -2 -46 12t-14 38q0 21 11 35.5t39 14.5q24 0 36 -14t12 -54q0 -36 -7.5 -65t-24.5 -45.5t-46 -16.5
h-23z" />
    <glyph glyph-name="uni0237" unicode="&#x237;" horiz-adv-x="228" 
d="M60 409h83v-496q0 -44 -19.5 -66t-62.5 -22h-70v66h69v518z" />
    <glyph glyph-name="circumflex" unicode="&#x2c6;" horiz-adv-x="437" 
d="M87 465v8l114 106h36l113 -106v-8h-75l-54 59h-4l-52 -59h-78z" />
    <glyph glyph-name="caron" unicode="&#x2c7;" horiz-adv-x="417" 
d="M191 453l-114 110v8h78l52 -63h4l54 63h75v-8l-113 -110h-36z" />
    <glyph glyph-name="breve" unicode="&#x2d8;" horiz-adv-x="356" 
d="M179 462q-59 0 -92 26.5t-33 70.5h59q0 -29 19 -38.5t46 -9.5q28 0 46 9t18 39h60q0 -44 -32 -70.5t-91 -26.5z" />
    <glyph glyph-name="dotaccent" unicode="&#x2d9;" horiz-adv-x="199" 
d="M100 466q-29 0 -39 15t-10 35q0 19 10 33.5t39 14.5q30 0 39 -14.5t9 -33.5q0 -20 -9 -35t-39 -15z" />
    <glyph glyph-name="ring" unicode="&#x2da;" horiz-adv-x="262" 
d="M130 469q-46 0 -70.5 25t-24.5 68q0 44 24 70t71 26t72 -26t25 -70q0 -40 -25 -66.5t-72 -26.5zM129 518q23 0 35 13.5t12 32.5t-12 33t-35 14q-22 0 -34 -14t-12 -33q0 -20 12.5 -33t33.5 -13z" />
    <glyph glyph-name="ogonek" unicode="&#x2db;" horiz-adv-x="274" 
d="M136 -199q-24 0 -45.5 9.5t-35 28.5t-13.5 47q0 29 14.5 51.5t35.5 39.5t42.5 28.5t36 17l14.5 5.5v-38l-12 -6t-28.5 -18t-28.5 -29t-12 -38q0 -16 10 -26.5t28 -10.5q17 0 26.5 7.5t14 15l4.5 7.5l47 -39l-10.5 -13t-32 -26t-55.5 -13z" />
    <glyph glyph-name="tilde" unicode="&#x2dc;" horiz-adv-x="370" 
d="M61 473q0 15 1 32t7.5 33.5t21 27t40.5 10.5q25 0 39.5 -8.5t23.5 -19.5t18.5 -19.5t22.5 -8.5q17 0 20 14.5t3 39.5h51q1 -17 -1 -35.5t-9 -33.5t-21 -24.5t-39 -9.5q-24 0 -38.5 8.5t-24 19t-18 19t-22.5 8.5q-17 0 -20.5 -13.5t-2.5 -39.5h-52z" />
    <glyph glyph-name="hungarumlaut" unicode="&#x2dd;" horiz-adv-x="362" 
d="M32 477l74 142l69 -33l-104 -128zM187 477l75 142l68 -33l-104 -128z" />
    <glyph glyph-name="gravecomb" unicode="&#x300;" horiz-adv-x="0" 
d="M117 453l-81 96v17h72l48 -102v-11h-39z" />
    <glyph glyph-name="acutecomb" unicode="&#x301;" horiz-adv-x="0" 
d="M75 453h-39v11l48 102h72v-17z" />
    <glyph glyph-name="uni0302" unicode="&#x302;" horiz-adv-x="0" 
d="M87 465v8l114 106h36l113 -106v-8h-75l-54 59h-4l-52 -59h-78z" />
    <glyph glyph-name="tildecomb" unicode="&#x303;" horiz-adv-x="0" 
d="M61 473q0 15 1 32t7.5 33.5t21 27t40.5 10.5q25 0 39.5 -8.5t23.5 -19.5t18.5 -19.5t22.5 -8.5q17 0 20 14.5t3 39.5h51q1 -17 -1 -35.5t-9 -33.5t-21 -24.5t-39 -9.5q-24 0 -38.5 8.5t-24 19t-18 19t-22.5 8.5q-17 0 -20.5 -13.5t-2.5 -39.5h-52z" />
    <glyph glyph-name="uni0304" unicode="&#x304;" horiz-adv-x="0" 
d="M40 474v60h262v-60h-262z" />
    <glyph glyph-name="uni0306" unicode="&#x306;" horiz-adv-x="0" 
d="M179 462q-59 0 -92 26.5t-33 70.5h59q0 -29 19 -38.5t46 -9.5q28 0 46 9t18 39h60q0 -44 -32 -70.5t-91 -26.5z" />
    <glyph glyph-name="uni0307" unicode="&#x307;" horiz-adv-x="0" 
d="M100 466q-29 0 -39 15t-10 35q0 19 10 33.5t39 14.5q30 0 39 -14.5t9 -33.5q0 -20 -9 -35t-39 -15z" />
    <glyph glyph-name="uni0308" unicode="&#x308;" horiz-adv-x="0" 
d="M100 460q-32 0 -43.5 16.5t-11.5 38.5q0 21 11.5 37.5t43.5 16.5q33 0 43.5 -16.5t10.5 -37.5q0 -22 -11 -38.5t-43 -16.5zM269 460q-32 0 -43.5 16.5t-11.5 38.5q0 21 11.5 37.5t43.5 16.5q33 0 43.5 -16.5t10.5 -37.5q0 -22 -11 -38.5t-43 -16.5z" />
    <glyph glyph-name="hookabovecomb" unicode="&#x309;" horiz-adv-x="0" 
d="M88 461v13q5 13 20 22.5t28.5 20t13.5 27.5q0 13 -9.5 19.5t-22.5 6.5q-12 0 -24 -7t-17 -21l-37 21q9 30 33.5 45t51.5 15q29 0 53 -17t24 -53q0 -28 -13 -42.5t-27 -25t-18 -24.5h-56z" />
    <glyph glyph-name="uni030A" unicode="&#x30a;" horiz-adv-x="0" 
d="M130 469q-46 0 -70.5 25t-24.5 68q0 44 24 70t71 26t72 -26t25 -70q0 -40 -25 -66.5t-72 -26.5zM129 518q23 0 35 13.5t12 32.5t-12 33t-35 14q-22 0 -34 -14t-12 -33q0 -20 12.5 -33t33.5 -13z" />
    <glyph glyph-name="uni030B" unicode="&#x30b;" horiz-adv-x="0" 
d="M32 477l74 142l69 -33l-104 -128zM187 477l75 142l68 -33l-104 -128z" />
    <glyph glyph-name="uni030C" unicode="&#x30c;" horiz-adv-x="0" 
d="M191 453l-114 110v8h78l52 -63h4l54 63h75v-8l-113 -110h-36z" />
    <glyph glyph-name="uni0312" unicode="&#x312;" horiz-adv-x="0" 
d="M100 460h-39v11l48 102h73v-17z" />
    <glyph glyph-name="uni031B" unicode="&#x31b;" horiz-adv-x="0" 
d="M45 607l1 51h35q14 0 20 3.5t7.5 13t1.5 28.5h63q0 -35 -9.5 -56t-31 -30.5t-57.5 -9.5h-30z" />
    <glyph glyph-name="dotbelowcomb" unicode="&#x323;" horiz-adv-x="0" 
d="M92 -166q-29 0 -39 15t-10 35q0 19 10 33.5t39 14.5q30 0 39 -14.5t9 -33.5q0 -20 -9 -35t-39 -15z" />
    <glyph glyph-name="uni0326" unicode="&#x326;" horiz-adv-x="0" 
d="M52 -239v58h21q25 0 33.5 9.5t8.5 27.5q-32 -2 -46 12t-14 38q0 21 11 35.5t39 14.5q24 0 36 -14t12 -54q0 -36 -7.5 -65t-24.5 -45.5t-46 -16.5h-23z" />
    <glyph glyph-name="uni0327" unicode="&#x327;" horiz-adv-x="0" 
d="M35 -118l27 41q12 -11 36.5 -20t46.5 -9q20 0 33.5 8t13.5 25q0 13 -11.5 19.5t-26.5 6.5q-12 0 -25 -4.5t-23 -13.5l-36 21l41 87l41 -16l-39 -61q11 10 27.5 15.5t33.5 5.5q28 0 51.5 -14.5t23.5 -47.5q0 -38 -32 -58.5t-76 -20.5q-26 0 -54 9.5t-52 26.5z" />
    <glyph glyph-name="uni0328" unicode="&#x328;" horiz-adv-x="0" 
d="M136 -199q-24 0 -45.5 9.5t-35 28.5t-13.5 47q0 29 14.5 51.5t35.5 39.5t42.5 28.5t36 17l14.5 5.5v-38l-12 -6t-28.5 -18t-28.5 -29t-12 -38q0 -16 10 -26.5t28 -10.5q17 0 26.5 7.5t14 15l4.5 7.5l47 -39l-10.5 -13t-32 -26t-55.5 -13z" />
    <glyph glyph-name="Wgrave" unicode="&#x1e80;" horiz-adv-x="830" 
d="M366 563h88l-44 -108l-117 -455h-135l-148 563h89l127 -526zM721 563h89l-151 -563h-134l-115 455l-45 108h89l138 -526zM399 607l-81 96v17h72l48 -102v-11h-39z" />
    <glyph glyph-name="wgrave" unicode="&#x1e81;" horiz-adv-x="620" 
d="M107 0l-102 394v16h81l80 -340h2l96 340h73l99 -340h2l79 340h81v-16l-103 -394h-117l-76 266h-2l-75 -266h-118zM295 453l-81 96v17h72l48 -102v-11h-39z" />
    <glyph glyph-name="Wacute" unicode="&#x1e82;" horiz-adv-x="830" 
d="M366 563h88l-44 -108l-117 -455h-135l-148 563h89l127 -526zM721 563h89l-151 -563h-134l-115 455l-45 108h89l138 -526zM435 607h-39v11l48 102h72v-17z" />
    <glyph glyph-name="wacute" unicode="&#x1e83;" horiz-adv-x="620" 
d="M107 0l-102 394v16h81l80 -340h2l96 340h73l99 -340h2l79 340h81v-16l-103 -394h-117l-76 266h-2l-75 -266h-118zM331 453h-39v11l48 102h72v-17z" />
    <glyph glyph-name="Wdieresis" unicode="&#x1e84;" horiz-adv-x="830" 
d="M366 563h88l-44 -108l-117 -455h-135l-148 563h89l127 -526zM721 563h89l-151 -563h-134l-115 455l-45 108h89l138 -526zM331 614q-32 0 -43.5 16.5t-11.5 38.5q0 21 11.5 37.5t43.5 16.5q33 0 43.5 -16.5t10.5 -37.5q0 -22 -11 -38.5t-43 -16.5zM500 614
q-32 0 -43.5 16.5t-11.5 38.5q0 21 11.5 37.5t43.5 16.5q33 0 43.5 -16.5t10.5 -37.5q0 -22 -11 -38.5t-43 -16.5z" />
    <glyph glyph-name="wdieresis" unicode="&#x1e85;" horiz-adv-x="620" 
d="M107 0l-102 394v16h81l80 -340h2l96 340h73l99 -340h2l79 340h81v-16l-103 -394h-117l-76 266h-2l-75 -266h-118zM227 460q-32 0 -43.5 16.5t-11.5 38.5q0 21 11.5 37.5t43.5 16.5q33 0 43.5 -16.5t10.5 -37.5q0 -22 -11 -38.5t-43 -16.5zM396 460q-32 0 -43.5 16.5
t-11.5 38.5q0 21 11.5 37.5t43.5 16.5q33 0 43.5 -16.5t10.5 -37.5q0 -22 -11 -38.5t-43 -16.5z" />
    <glyph glyph-name="uni1E9E" unicode="&#x1e9e;" horiz-adv-x="563" 
d="M65 -125v738h433v-738h-433zM148 -53h267v595h-267v-595z" />
    <glyph glyph-name="uni1EA0" unicode="&#x1ea0;" horiz-adv-x="554" 
d="M19 0l189 563h137l193 -563h-89l-171 528l-171 -528h-88zM134 168l3 66h280l4 -66h-287zM278 -166q-29 0 -39 15t-10 35q0 19 10 33.5t39 14.5q30 0 39 -14.5t9 -33.5q0 -20 -9 -35t-39 -15z" />
    <glyph glyph-name="uni1EA1" unicode="&#x1ea1;" horiz-adv-x="440" 
d="M180 -9q-56 0 -91.5 27t-52 74t-16.5 108q0 63 17 110.5t52.5 74.5t90.5 27q34 0 58 -9.5t40 -23.5t26 -28.5t14 -25.5h2v84h85v-409h-71l-14 73h-2q-4 -11 -14 -25t-26.5 -27t-40.5 -21.5t-57 -8.5zM213 62q40 0 63 17.5t33 48.5t10 71q0 43 -10.5 74t-33.5 47.5
t-62 16.5q-41 0 -65.5 -18.5t-35 -49.5t-10.5 -69q0 -39 10.5 -70.5t35 -49.5t65.5 -18zM221 -166q-29 0 -39 15t-10 35q0 19 10 33.5t39 14.5q30 0 39 -14.5t9 -33.5q0 -20 -9 -35t-39 -15z" />
    <glyph glyph-name="uni1EA2" unicode="&#x1ea2;" horiz-adv-x="554" 
d="M19 0l189 563h137l193 -563h-89l-171 528l-171 -528h-88zM134 168l3 66h280l4 -66h-287zM247 615v13q5 13 20 22.5t28.5 20t13.5 27.5q0 13 -9.5 19.5t-22.5 6.5q-12 0 -24 -7t-17 -21l-37 21q9 30 33.5 45t51.5 15q29 0 53 -17t24 -53q0 -28 -13 -42.5t-27 -25
t-18 -24.5h-56z" />
    <glyph glyph-name="uni1EA3" unicode="&#x1ea3;" horiz-adv-x="440" 
d="M180 -9q-56 0 -91.5 27t-52 74t-16.5 108q0 63 17 110.5t52.5 74.5t90.5 27q34 0 58 -9.5t40 -23.5t26 -28.5t14 -25.5h2v84h85v-409h-71l-14 73h-2q-4 -11 -14 -25t-26.5 -27t-40.5 -21.5t-57 -8.5zM213 62q40 0 63 17.5t33 48.5t10 71q0 43 -10.5 74t-33.5 47.5
t-62 16.5q-41 0 -65.5 -18.5t-35 -49.5t-10.5 -69q0 -39 10.5 -70.5t35 -49.5t65.5 -18zM190 461v13q5 13 20 22.5t28.5 20t13.5 27.5q0 13 -9.5 19.5t-22.5 6.5q-12 0 -24 -7t-17 -21l-37 21q9 30 33.5 45t51.5 15q29 0 53 -17t24 -53q0 -28 -13 -42.5t-27 -25t-18 -24.5
h-56z" />
    <glyph glyph-name="uni1EA4" unicode="&#x1ea4;" horiz-adv-x="554" 
d="M19 0l189 563h137l193 -563h-89l-171 528l-171 -528h-88zM134 168l3 66h280l4 -66h-287zM147 619v8l114 106h36l113 -106v-8h-75l-54 59h-4l-52 -59h-78zM412 708h-39v11l48 102h72v-17z" />
    <glyph glyph-name="uni1EA5" unicode="&#x1ea5;" horiz-adv-x="440" 
d="M180 -9q-56 0 -91.5 27t-52 74t-16.5 108q0 63 17 110.5t52.5 74.5t90.5 27q34 0 58 -9.5t40 -23.5t26 -28.5t14 -25.5h2v84h85v-409h-71l-14 73h-2q-4 -11 -14 -25t-26.5 -27t-40.5 -21.5t-57 -8.5zM213 62q40 0 63 17.5t33 48.5t10 71q0 43 -10.5 74t-33.5 47.5
t-62 16.5q-41 0 -65.5 -18.5t-35 -49.5t-10.5 -69q0 -39 10.5 -70.5t35 -49.5t65.5 -18zM90 465v8l114 106h36l113 -106v-8h-75l-54 59h-4l-52 -59h-78zM355 554h-39v11l48 102h72v-17z" />
    <glyph glyph-name="uni1EA6" unicode="&#x1ea6;" horiz-adv-x="554" 
d="M19 0l189 563h137l193 -563h-89l-171 528l-171 -528h-88zM134 168l3 66h280l4 -66h-287zM404 708l-81 96v17h72l48 -102v-11h-39zM142 617v8l114 106h36l113 -106v-8h-75l-54 59h-4l-52 -59h-78z" />
    <glyph glyph-name="uni1EA7" unicode="&#x1ea7;" horiz-adv-x="440" 
d="M180 -9q-56 0 -91.5 27t-52 74t-16.5 108q0 63 17 110.5t52.5 74.5t90.5 27q34 0 58 -9.5t40 -23.5t26 -28.5t14 -25.5h2v84h85v-409h-71l-14 73h-2q-4 -11 -14 -25t-26.5 -27t-40.5 -21.5t-57 -8.5zM213 62q40 0 63 17.5t33 48.5t10 71q0 43 -10.5 74t-33.5 47.5
t-62 16.5q-41 0 -65.5 -18.5t-35 -49.5t-10.5 -69q0 -39 10.5 -70.5t35 -49.5t65.5 -18zM347 554l-81 96v17h72l48 -102v-11h-39zM85 463v8l114 106h36l113 -106v-8h-75l-54 59h-4l-52 -59h-78z" />
    <glyph glyph-name="uni1EA8" unicode="&#x1ea8;" horiz-adv-x="554" 
d="M19 0l189 563h137l193 -563h-89l-171 528l-171 -528h-88zM134 168l3 66h280l4 -66h-287zM142 617v8l114 106h36l113 -106v-8h-75l-54 59h-4l-52 -59h-78zM363 706v13q5 13 20 22.5t28.5 20t13.5 27.5q0 13 -9.5 19.5t-22.5 6.5q-12 0 -24 -7t-17 -21l-37 21q9 30 33.5 45
t51.5 15q29 0 53 -17t24 -53q0 -28 -13 -42.5t-27 -25t-18 -24.5h-56z" />
    <glyph glyph-name="uni1EA9" unicode="&#x1ea9;" horiz-adv-x="440" 
d="M180 -9q-56 0 -91.5 27t-52 74t-16.5 108q0 63 17 110.5t52.5 74.5t90.5 27q34 0 58 -9.5t40 -23.5t26 -28.5t14 -25.5h2v84h85v-409h-71l-14 73h-2q-4 -11 -14 -25t-26.5 -27t-40.5 -21.5t-57 -8.5zM213 62q40 0 63 17.5t33 48.5t10 71q0 43 -10.5 74t-33.5 47.5
t-62 16.5q-41 0 -65.5 -18.5t-35 -49.5t-10.5 -69q0 -39 10.5 -70.5t35 -49.5t65.5 -18zM85 463v8l114 106h36l113 -106v-8h-75l-54 59h-4l-52 -59h-78zM306 552v13q5 13 20 22.5t28.5 20t13.5 27.5q0 13 -9.5 19.5t-22.5 6.5q-12 0 -24 -7t-17 -21l-37 21q9 30 33.5 45
t51.5 15q29 0 53 -17t24 -53q0 -28 -13 -42.5t-27 -25t-18 -24.5h-56z" />
    <glyph glyph-name="uni1EAA" unicode="&#x1eaa;" horiz-adv-x="554" 
d="M19 0l189 563h137l193 -563h-89l-171 528l-171 -528h-88zM134 168l3 66h280l4 -66h-287zM146 617v8l114 106h36l113 -106v-8h-75l-54 59h-4l-52 -59h-78zM150 770q0 15 1 32t7.5 33.5t21 27t40.5 10.5q25 0 39.5 -8.5t23.5 -19.5t18.5 -19.5t22.5 -8.5q17 0 20 14.5
t3 39.5h51q1 -17 -1 -35.5t-9 -33.5t-21 -24.5t-39 -9.5q-24 0 -38.5 8.5t-24 19t-18 19t-22.5 8.5q-17 0 -20.5 -13.5t-2.5 -39.5h-52z" />
    <glyph glyph-name="uni1EAB" unicode="&#x1eab;" horiz-adv-x="440" 
d="M180 -9q-56 0 -91.5 27t-52 74t-16.5 108q0 63 17 110.5t52.5 74.5t90.5 27q34 0 58 -9.5t40 -23.5t26 -28.5t14 -25.5h2v84h85v-409h-71l-14 73h-2q-4 -11 -14 -25t-26.5 -27t-40.5 -21.5t-57 -8.5zM213 62q40 0 63 17.5t33 48.5t10 71q0 43 -10.5 74t-33.5 47.5
t-62 16.5q-41 0 -65.5 -18.5t-35 -49.5t-10.5 -69q0 -39 10.5 -70.5t35 -49.5t65.5 -18zM89 463v8l114 106h36l113 -106v-8h-75l-54 59h-4l-52 -59h-78zM93 616q0 15 1 32t7.5 33.5t21 27t40.5 10.5q25 0 39.5 -8.5t23.5 -19.5t18.5 -19.5t22.5 -8.5q17 0 20 14.5t3 39.5h51
q1 -17 -1 -35.5t-9 -33.5t-21 -24.5t-39 -9.5q-24 0 -38.5 8.5t-24 19t-18 19t-22.5 8.5q-17 0 -20.5 -13.5t-2.5 -39.5h-52z" />
    <glyph glyph-name="uni1EAC" unicode="&#x1eac;" horiz-adv-x="554" 
d="M19 0l189 563h137l193 -563h-89l-171 528l-171 -528h-88zM134 168l3 66h280l4 -66h-287zM278 -166q-29 0 -39 15t-10 35q0 19 10 33.5t39 14.5q30 0 39 -14.5t9 -33.5q0 -20 -9 -35t-39 -15zM145 619v8l114 106h36l113 -106v-8h-75l-54 59h-4l-52 -59h-78z" />
    <glyph glyph-name="uni1EAD" unicode="&#x1ead;" horiz-adv-x="440" 
d="M180 -9q-56 0 -91.5 27t-52 74t-16.5 108q0 63 17 110.5t52.5 74.5t90.5 27q34 0 58 -9.5t40 -23.5t26 -28.5t14 -25.5h2v84h85v-409h-71l-14 73h-2q-4 -11 -14 -25t-26.5 -27t-40.5 -21.5t-57 -8.5zM213 62q40 0 63 17.5t33 48.5t10 71q0 43 -10.5 74t-33.5 47.5
t-62 16.5q-41 0 -65.5 -18.5t-35 -49.5t-10.5 -69q0 -39 10.5 -70.5t35 -49.5t65.5 -18zM221 -166q-29 0 -39 15t-10 35q0 19 10 33.5t39 14.5q30 0 39 -14.5t9 -33.5q0 -20 -9 -35t-39 -15zM88 465v8l114 106h36l113 -106v-8h-75l-54 59h-4l-52 -59h-78z" />
    <glyph glyph-name="uni1EAE" unicode="&#x1eae;" horiz-adv-x="554" 
d="M19 0l189 563h137l193 -563h-89l-171 528l-171 -528h-88zM134 168l3 66h280l4 -66h-287zM278 616q-59 0 -92 26.5t-33 70.5h59q0 -29 19 -38.5t46 -9.5q28 0 46 9t18 39h60q0 -44 -32 -70.5t-91 -26.5zM297 742h-39v11l48 102h72v-17z" />
    <glyph glyph-name="uni1EAF" unicode="&#x1eaf;" horiz-adv-x="440" 
d="M180 -9q-56 0 -91.5 27t-52 74t-16.5 108q0 63 17 110.5t52.5 74.5t90.5 27q34 0 58 -9.5t40 -23.5t26 -28.5t14 -25.5h2v84h85v-409h-71l-14 73h-2q-4 -11 -14 -25t-26.5 -27t-40.5 -21.5t-57 -8.5zM213 62q40 0 63 17.5t33 48.5t10 71q0 43 -10.5 74t-33.5 47.5
t-62 16.5q-41 0 -65.5 -18.5t-35 -49.5t-10.5 -69q0 -39 10.5 -70.5t35 -49.5t65.5 -18zM221 462q-59 0 -92 26.5t-33 70.5h59q0 -29 19 -38.5t46 -9.5q28 0 46 9t18 39h60q0 -44 -32 -70.5t-91 -26.5zM240 588h-39v11l48 102h72v-17z" />
    <glyph glyph-name="uni1EB0" unicode="&#x1eb0;" horiz-adv-x="554" 
d="M19 0l189 563h137l193 -563h-89l-171 528l-171 -528h-88zM134 168l3 66h280l4 -66h-287zM278 616q-59 0 -92 26.5t-33 70.5h59q0 -29 19 -38.5t46 -9.5q28 0 46 9t18 39h60q0 -44 -32 -70.5t-91 -26.5zM261 742l-81 96v17h72l48 -102v-11h-39z" />
    <glyph glyph-name="uni1EB1" unicode="&#x1eb1;" horiz-adv-x="440" 
d="M180 -9q-56 0 -91.5 27t-52 74t-16.5 108q0 63 17 110.5t52.5 74.5t90.5 27q34 0 58 -9.5t40 -23.5t26 -28.5t14 -25.5h2v84h85v-409h-71l-14 73h-2q-4 -11 -14 -25t-26.5 -27t-40.5 -21.5t-57 -8.5zM213 62q40 0 63 17.5t33 48.5t10 71q0 43 -10.5 74t-33.5 47.5
t-62 16.5q-41 0 -65.5 -18.5t-35 -49.5t-10.5 -69q0 -39 10.5 -70.5t35 -49.5t65.5 -18zM221 462q-59 0 -92 26.5t-33 70.5h59q0 -29 19 -38.5t46 -9.5q28 0 46 9t18 39h60q0 -44 -32 -70.5t-91 -26.5zM204 588l-81 96v17h72l48 -102v-11h-39z" />
    <glyph glyph-name="uni1EB2" unicode="&#x1eb2;" horiz-adv-x="554" 
d="M19 0l189 563h137l193 -563h-89l-171 528l-171 -528h-88zM134 168l3 66h280l4 -66h-287zM278 616q-59 0 -92 26.5t-33 70.5h59q0 -29 19 -38.5t46 -9.5q28 0 46 9t18 39h60q0 -44 -32 -70.5t-91 -26.5zM247 750v13q5 13 20 22.5t28.5 20t13.5 27.5q0 13 -9.5 19.5
t-22.5 6.5q-12 0 -24 -7t-17 -21l-37 21q9 30 33.5 45t51.5 15q29 0 53 -17t24 -53q0 -28 -13 -42.5t-27 -25t-18 -24.5h-56z" />
    <glyph glyph-name="uni1EB3" unicode="&#x1eb3;" horiz-adv-x="440" 
d="M180 -9q-56 0 -91.5 27t-52 74t-16.5 108q0 63 17 110.5t52.5 74.5t90.5 27q34 0 58 -9.5t40 -23.5t26 -28.5t14 -25.5h2v84h85v-409h-71l-14 73h-2q-4 -11 -14 -25t-26.5 -27t-40.5 -21.5t-57 -8.5zM213 62q40 0 63 17.5t33 48.5t10 71q0 43 -10.5 74t-33.5 47.5
t-62 16.5q-41 0 -65.5 -18.5t-35 -49.5t-10.5 -69q0 -39 10.5 -70.5t35 -49.5t65.5 -18zM221 462q-59 0 -92 26.5t-33 70.5h59q0 -29 19 -38.5t46 -9.5q28 0 46 9t18 39h60q0 -44 -32 -70.5t-91 -26.5zM190 596v13q5 13 20 22.5t28.5 20t13.5 27.5q0 13 -9.5 19.5t-22.5 6.5
q-12 0 -24 -7t-17 -21l-37 21q9 30 33.5 45t51.5 15q29 0 53 -17t24 -53q0 -28 -13 -42.5t-27 -25t-18 -24.5h-56z" />
    <glyph glyph-name="uni1EB4" unicode="&#x1eb4;" horiz-adv-x="554" 
d="M19 0l189 563h137l193 -563h-89l-171 528l-171 -528h-88zM134 168l3 66h280l4 -66h-287zM280 616q-59 0 -92 26.5t-33 70.5h59q0 -29 19 -38.5t46 -9.5q28 0 46 9t18 39h60q0 -44 -32 -70.5t-91 -26.5zM155 762q0 15 1 32t7.5 33.5t21 27t40.5 10.5q25 0 39.5 -8.5
t23.5 -19.5t18.5 -19.5t22.5 -8.5q17 0 20 14.5t3 39.5h51q1 -17 -1 -35.5t-9 -33.5t-21 -24.5t-39 -9.5q-24 0 -38.5 8.5t-24 19t-18 19t-22.5 8.5q-17 0 -20.5 -13.5t-2.5 -39.5h-52z" />
    <glyph glyph-name="uni1EB5" unicode="&#x1eb5;" horiz-adv-x="440" 
d="M180 -9q-56 0 -91.5 27t-52 74t-16.5 108q0 63 17 110.5t52.5 74.5t90.5 27q34 0 58 -9.5t40 -23.5t26 -28.5t14 -25.5h2v84h85v-409h-71l-14 73h-2q-4 -11 -14 -25t-26.5 -27t-40.5 -21.5t-57 -8.5zM213 62q40 0 63 17.5t33 48.5t10 71q0 43 -10.5 74t-33.5 47.5
t-62 16.5q-41 0 -65.5 -18.5t-35 -49.5t-10.5 -69q0 -39 10.5 -70.5t35 -49.5t65.5 -18zM223 462q-59 0 -92 26.5t-33 70.5h59q0 -29 19 -38.5t46 -9.5q28 0 46 9t18 39h60q0 -44 -32 -70.5t-91 -26.5zM98 608q0 15 1 32t7.5 33.5t21 27t40.5 10.5q25 0 39.5 -8.5
t23.5 -19.5t18.5 -19.5t22.5 -8.5q17 0 20 14.5t3 39.5h51q1 -17 -1 -35.5t-9 -33.5t-21 -24.5t-39 -9.5q-24 0 -38.5 8.5t-24 19t-18 19t-22.5 8.5q-17 0 -20.5 -13.5t-2.5 -39.5h-52z" />
    <glyph glyph-name="uni1EB6" unicode="&#x1eb6;" horiz-adv-x="554" 
d="M19 0l189 563h137l193 -563h-89l-171 528l-171 -528h-88zM134 168l3 66h280l4 -66h-287zM278 -166q-29 0 -39 15t-10 35q0 19 10 33.5t39 14.5q30 0 39 -14.5t9 -33.5q0 -20 -9 -35t-39 -15zM278 616q-59 0 -92 26.5t-33 70.5h59q0 -29 19 -38.5t46 -9.5q28 0 46 9t18 39
h60q0 -44 -32 -70.5t-91 -26.5z" />
    <glyph glyph-name="uni1EB7" unicode="&#x1eb7;" horiz-adv-x="440" 
d="M180 -9q-56 0 -91.5 27t-52 74t-16.5 108q0 63 17 110.5t52.5 74.5t90.5 27q34 0 58 -9.5t40 -23.5t26 -28.5t14 -25.5h2v84h85v-409h-71l-14 73h-2q-4 -11 -14 -25t-26.5 -27t-40.5 -21.5t-57 -8.5zM213 62q40 0 63 17.5t33 48.5t10 71q0 43 -10.5 74t-33.5 47.5
t-62 16.5q-41 0 -65.5 -18.5t-35 -49.5t-10.5 -69q0 -39 10.5 -70.5t35 -49.5t65.5 -18zM221 -166q-29 0 -39 15t-10 35q0 19 10 33.5t39 14.5q30 0 39 -14.5t9 -33.5q0 -20 -9 -35t-39 -15zM221 462q-59 0 -92 26.5t-33 70.5h59q0 -29 19 -38.5t46 -9.5q28 0 46 9t18 39h60
q0 -44 -32 -70.5t-91 -26.5z" />
    <glyph glyph-name="uni1EB8" unicode="&#x1eb8;" horiz-adv-x="490" 
d="M55 0v563h390v-72h-308v-171h240v-69h-240v-183h318v-68h-400zM246 -166q-29 0 -39 15t-10 35q0 19 10 33.5t39 14.5q30 0 39 -14.5t9 -33.5q0 -20 -9 -35t-39 -15z" />
    <glyph glyph-name="uni1EB9" unicode="&#x1eb9;" horiz-adv-x="457" 
d="M226 -10q-69 0 -113 30.5t-65 79t-21 100.5q-1 59 22.5 107t68 76t106.5 28q54 0 96 -23.5t67 -66t27 -100.5q1 -3 1 -11.5v-14.5h-309q0 -64 31.5 -99.5t87.5 -35.5q42 0 71.5 21.5t36.5 57.5h81q-6 -42 -30 -76t-64 -53.5t-94 -19.5zM109 236h222q-1 11 -5.5 29
t-16.5 35.5t-33 29.5t-54 12q-30 0 -51 -10t-34 -26.5t-19.5 -35t-8.5 -34.5zM229 -166q-29 0 -39 15t-10 35q0 19 10 33.5t39 14.5q30 0 39 -14.5t9 -33.5q0 -20 -9 -35t-39 -15z" />
    <glyph glyph-name="uni1EBA" unicode="&#x1eba;" horiz-adv-x="490" 
d="M55 0v563h390v-72h-308v-171h240v-69h-240v-183h318v-68h-400zM216 615v13q5 13 20 22.5t28.5 20t13.5 27.5q0 13 -9.5 19.5t-22.5 6.5q-12 0 -24 -7t-17 -21l-37 21q9 30 33.5 45t51.5 15q29 0 53 -17t24 -53q0 -28 -13 -42.5t-27 -25t-18 -24.5h-56z" />
    <glyph glyph-name="uni1EBB" unicode="&#x1ebb;" horiz-adv-x="457" 
d="M226 -10q-69 0 -113 30.5t-65 79t-21 100.5q-1 59 22.5 107t68 76t106.5 28q54 0 96 -23.5t67 -66t27 -100.5q1 -3 1 -11.5v-14.5h-309q0 -64 31.5 -99.5t87.5 -35.5q42 0 71.5 21.5t36.5 57.5h81q-6 -42 -30 -76t-64 -53.5t-94 -19.5zM109 236h222q-1 11 -5.5 29
t-16.5 35.5t-33 29.5t-54 12q-30 0 -51 -10t-34 -26.5t-19.5 -35t-8.5 -34.5zM199 461v13q5 13 20 22.5t28.5 20t13.5 27.5q0 13 -9.5 19.5t-22.5 6.5q-12 0 -24 -7t-17 -21l-37 21q9 30 33.5 45t51.5 15q29 0 53 -17t24 -53q0 -28 -13 -42.5t-27 -25t-18 -24.5h-56z" />
    <glyph glyph-name="uni1EBC" unicode="&#x1ebc;" horiz-adv-x="490" 
d="M55 0v563h390v-72h-308v-171h240v-69h-240v-183h318v-68h-400zM122 627q0 15 1 32t7.5 33.5t21 27t40.5 10.5q25 0 39.5 -8.5t23.5 -19.5t18.5 -19.5t22.5 -8.5q17 0 20 14.5t3 39.5h51q1 -17 -1 -35.5t-9 -33.5t-21 -24.5t-39 -9.5q-24 0 -38.5 8.5t-24 19t-18 19
t-22.5 8.5q-17 0 -20.5 -13.5t-2.5 -39.5h-52z" />
    <glyph glyph-name="uni1EBD" unicode="&#x1ebd;" horiz-adv-x="457" 
d="M226 -10q-69 0 -113 30.5t-65 79t-21 100.5q-1 59 22.5 107t68 76t106.5 28q54 0 96 -23.5t67 -66t27 -100.5q1 -3 1 -11.5v-14.5h-309q0 -64 31.5 -99.5t87.5 -35.5q42 0 71.5 21.5t36.5 57.5h81q-6 -42 -30 -76t-64 -53.5t-94 -19.5zM109 236h222q-1 11 -5.5 29
t-16.5 35.5t-33 29.5t-54 12q-30 0 -51 -10t-34 -26.5t-19.5 -35t-8.5 -34.5zM105 473q0 15 1 32t7.5 33.5t21 27t40.5 10.5q25 0 39.5 -8.5t23.5 -19.5t18.5 -19.5t22.5 -8.5q17 0 20 14.5t3 39.5h51q1 -17 -1 -35.5t-9 -33.5t-21 -24.5t-39 -9.5q-24 0 -38.5 8.5t-24 19
t-18 19t-22.5 8.5q-17 0 -20.5 -13.5t-2.5 -39.5h-52z" />
    <glyph glyph-name="uni1EBE" unicode="&#x1ebe;" horiz-adv-x="490" 
d="M55 0v563h390v-72h-308v-171h240v-69h-240v-183h318v-68h-400zM116 619v8l114 106h36l113 -106v-8h-75l-54 59h-4l-52 -59h-78zM381 708h-39v11l48 102h72v-17z" />
    <glyph glyph-name="uni1EBF" unicode="&#x1ebf;" horiz-adv-x="457" 
d="M226 -10q-69 0 -113 30.5t-65 79t-21 100.5q-1 59 22.5 107t68 76t106.5 28q54 0 96 -23.5t67 -66t27 -100.5q1 -3 1 -11.5v-14.5h-309q0 -64 31.5 -99.5t87.5 -35.5q42 0 71.5 21.5t36.5 57.5h81q-6 -42 -30 -76t-64 -53.5t-94 -19.5zM109 236h222q-1 11 -5.5 29
t-16.5 35.5t-33 29.5t-54 12q-30 0 -51 -10t-34 -26.5t-19.5 -35t-8.5 -34.5zM99 465v8l114 106h36l113 -106v-8h-75l-54 59h-4l-52 -59h-78zM364 554h-39v11l48 102h72v-17z" />
    <glyph glyph-name="uni1EC0" unicode="&#x1ec0;" horiz-adv-x="490" 
d="M55 0v563h390v-72h-308v-171h240v-69h-240v-183h318v-68h-400zM373 708l-81 96v17h72l48 -102v-11h-39zM110 617v8l114 106h36l113 -106v-8h-75l-54 59h-4l-52 -59h-78z" />
    <glyph glyph-name="uni1EC1" unicode="&#x1ec1;" horiz-adv-x="457" 
d="M226 -10q-69 0 -113 30.5t-65 79t-21 100.5q-1 59 22.5 107t68 76t106.5 28q54 0 96 -23.5t67 -66t27 -100.5q1 -3 1 -11.5v-14.5h-309q0 -64 31.5 -99.5t87.5 -35.5q42 0 71.5 21.5t36.5 57.5h81q-6 -42 -30 -76t-64 -53.5t-94 -19.5zM109 236h222q-1 11 -5.5 29
t-16.5 35.5t-33 29.5t-54 12q-30 0 -51 -10t-34 -26.5t-19.5 -35t-8.5 -34.5zM356 554l-81 96v17h72l48 -102v-11h-39zM93 463v8l114 106h36l113 -106v-8h-75l-54 59h-4l-52 -59h-78z" />
    <glyph glyph-name="uni1EC2" unicode="&#x1ec2;" horiz-adv-x="490" 
d="M55 0v563h390v-72h-308v-171h240v-69h-240v-183h318v-68h-400zM110 617v8l114 106h36l113 -106v-8h-75l-54 59h-4l-52 -59h-78zM332 706v13q5 13 20 22.5t28.5 20t13.5 27.5q0 13 -9.5 19.5t-22.5 6.5q-12 0 -24 -7t-17 -21l-37 21q9 30 33.5 45t51.5 15q29 0 53 -17
t24 -53q0 -28 -13 -42.5t-27 -25t-18 -24.5h-56z" />
    <glyph glyph-name="uni1EC3" unicode="&#x1ec3;" horiz-adv-x="457" 
d="M226 -10q-69 0 -113 30.5t-65 79t-21 100.5q-1 59 22.5 107t68 76t106.5 28q54 0 96 -23.5t67 -66t27 -100.5q1 -3 1 -11.5v-14.5h-309q0 -64 31.5 -99.5t87.5 -35.5q42 0 71.5 21.5t36.5 57.5h81q-6 -42 -30 -76t-64 -53.5t-94 -19.5zM109 236h222q-1 11 -5.5 29
t-16.5 35.5t-33 29.5t-54 12q-30 0 -51 -10t-34 -26.5t-19.5 -35t-8.5 -34.5zM93 463v8l114 106h36l113 -106v-8h-75l-54 59h-4l-52 -59h-78zM315 552v13q5 13 20 22.5t28.5 20t13.5 27.5q0 13 -9.5 19.5t-22.5 6.5q-12 0 -24 -7t-17 -21l-37 21q9 30 33.5 45t51.5 15
q29 0 53 -17t24 -53q0 -28 -13 -42.5t-27 -25t-18 -24.5h-56z" />
    <glyph glyph-name="uni1EC4" unicode="&#x1ec4;" horiz-adv-x="490" 
d="M55 0v563h390v-72h-308v-171h240v-69h-240v-183h318v-68h-400zM115 617v8l114 106h36l113 -106v-8h-75l-54 59h-4l-52 -59h-78zM119 770q0 15 1 32t7.5 33.5t21 27t40.5 10.5q25 0 39.5 -8.5t23.5 -19.5t18.5 -19.5t22.5 -8.5q17 0 20 14.5t3 39.5h51q1 -17 -1 -35.5
t-9 -33.5t-21 -24.5t-39 -9.5q-24 0 -38.5 8.5t-24 19t-18 19t-22.5 8.5q-17 0 -20.5 -13.5t-2.5 -39.5h-52z" />
    <glyph glyph-name="uni1EC5" unicode="&#x1ec5;" horiz-adv-x="457" 
d="M226 -10q-69 0 -113 30.5t-65 79t-21 100.5q-1 59 22.5 107t68 76t106.5 28q54 0 96 -23.5t67 -66t27 -100.5q1 -3 1 -11.5v-14.5h-309q0 -64 31.5 -99.5t87.5 -35.5q42 0 71.5 21.5t36.5 57.5h81q-6 -42 -30 -76t-64 -53.5t-94 -19.5zM109 236h222q-1 11 -5.5 29
t-16.5 35.5t-33 29.5t-54 12q-30 0 -51 -10t-34 -26.5t-19.5 -35t-8.5 -34.5zM98 463v8l114 106h36l113 -106v-8h-75l-54 59h-4l-52 -59h-78zM102 616q0 15 1 32t7.5 33.5t21 27t40.5 10.5q25 0 39.5 -8.5t23.5 -19.5t18.5 -19.5t22.5 -8.5q17 0 20 14.5t3 39.5h51
q1 -17 -1 -35.5t-9 -33.5t-21 -24.5t-39 -9.5q-24 0 -38.5 8.5t-24 19t-18 19t-22.5 8.5q-17 0 -20.5 -13.5t-2.5 -39.5h-52z" />
    <glyph glyph-name="uni1EC6" unicode="&#x1ec6;" horiz-adv-x="490" 
d="M55 0v563h390v-72h-308v-171h240v-69h-240v-183h318v-68h-400zM246 -166q-29 0 -39 15t-10 35q0 19 10 33.5t39 14.5q30 0 39 -14.5t9 -33.5q0 -20 -9 -35t-39 -15zM114 619v8l114 106h36l113 -106v-8h-75l-54 59h-4l-52 -59h-78z" />
    <glyph glyph-name="uni1EC7" unicode="&#x1ec7;" horiz-adv-x="457" 
d="M226 -10q-69 0 -113 30.5t-65 79t-21 100.5q-1 59 22.5 107t68 76t106.5 28q54 0 96 -23.5t67 -66t27 -100.5q1 -3 1 -11.5v-14.5h-309q0 -64 31.5 -99.5t87.5 -35.5q42 0 71.5 21.5t36.5 57.5h81q-6 -42 -30 -76t-64 -53.5t-94 -19.5zM109 236h222q-1 11 -5.5 29
t-16.5 35.5t-33 29.5t-54 12q-30 0 -51 -10t-34 -26.5t-19.5 -35t-8.5 -34.5zM229 -166q-29 0 -39 15t-10 35q0 19 10 33.5t39 14.5q30 0 39 -14.5t9 -33.5q0 -20 -9 -35t-39 -15zM97 465v8l114 106h36l113 -106v-8h-75l-54 59h-4l-52 -59h-78z" />
    <glyph glyph-name="uni1EC8" unicode="&#x1ec8;" horiz-adv-x="360" 
d="M136 18v527h82v-527h-82zM59 0v72h235v-72h-235zM59 491v72h235v-72h-235zM147 615v13q5 13 20 22.5t28.5 20t13.5 27.5q0 13 -9.5 19.5t-22.5 6.5q-12 0 -24 -7t-17 -21l-37 21q9 30 33.5 45t51.5 15q29 0 53 -17t24 -53q0 -28 -13 -42.5t-27 -25t-18 -24.5h-56z" />
    <glyph glyph-name="uni1EC9" unicode="&#x1ec9;" horiz-adv-x="184" 
d="M50 0v409h83v-409h-83zM62 461v13q5 13 20 22.5t28.5 20t13.5 27.5q0 13 -9.5 19.5t-22.5 6.5q-12 0 -24 -7t-17 -21l-37 21q9 30 33.5 45t51.5 15q29 0 53 -17t24 -53q0 -28 -13 -42.5t-27 -25t-18 -24.5h-56z" />
    <glyph glyph-name="uni1ECA" unicode="&#x1eca;" horiz-adv-x="360" 
d="M136 18v527h82v-527h-82zM59 0v72h235v-72h-235zM59 491v72h235v-72h-235zM181 -166q-29 0 -39 15t-10 35q0 19 10 33.5t39 14.5q30 0 39 -14.5t9 -33.5q0 -20 -9 -35t-39 -15z" />
    <glyph glyph-name="uni1ECB" unicode="&#x1ecb;" horiz-adv-x="184" 
d="M51 0v409h83v-409h-83zM93 466q-29 0 -39.5 15t-10.5 35q0 19 10.5 33.5t39.5 14.5t38.5 -14.5t9.5 -33.5q0 -20 -9.5 -35t-38.5 -15zM95 -166q-29 0 -39 15t-10 35q0 19 10 33.5t39 14.5q30 0 39 -14.5t9 -33.5q0 -20 -9 -35t-39 -15z" />
    <glyph glyph-name="uni1ECC" unicode="&#x1ecc;" horiz-adv-x="608" 
d="M297 -14q-135 0 -206 79.5t-71 214.5q0 89 30.5 154.5t92 102t154.5 36.5q135 0 205.5 -79.5t70.5 -213.5q0 -87 -31.5 -153.5t-92.5 -103.5t-152 -37zM296 66q65 0 108.5 27.5t65 76t21.5 110.5q0 63 -21 111.5t-64.5 76t-109.5 27.5q-96 0 -145.5 -58t-49.5 -157
q0 -61 21 -109.5t64.5 -76.5t109.5 -28zM305 -166q-29 0 -39 15t-10 35q0 19 10 33.5t39 14.5q30 0 39 -14.5t9 -33.5q0 -20 -9 -35t-39 -15z" />
    <glyph glyph-name="uni1ECD" unicode="&#x1ecd;" 
d="M226 -10q-66 0 -111 27t-67.5 74.5t-22.5 107.5q0 62 22.5 109.5t67.5 74.5t112 27q98 0 149 -58t51 -153q0 -59 -21.5 -106.5t-66 -75t-113.5 -27.5zM226 61q49 0 75 21t35.5 53.5t9.5 66.5t-9.5 66.5t-35.5 54t-75 21.5q-47 0 -73.5 -21.5t-36.5 -54t-10 -66.5
t10 -66.5t36.5 -53.5t73.5 -21zM233 -166q-29 0 -39 15t-10 35q0 19 10 33.5t39 14.5q30 0 39 -14.5t9 -33.5q0 -20 -9 -35t-39 -15z" />
    <glyph glyph-name="uni1ECE" unicode="&#x1ece;" horiz-adv-x="608" 
d="M297 -14q-135 0 -206 79.5t-71 214.5q0 89 30.5 154.5t92 102t154.5 36.5q135 0 205.5 -79.5t70.5 -213.5q0 -87 -31.5 -153.5t-92.5 -103.5t-152 -37zM296 66q65 0 108.5 27.5t65 76t21.5 110.5q0 63 -21 111.5t-64.5 76t-109.5 27.5q-96 0 -145.5 -58t-49.5 -157
q0 -61 21 -109.5t64.5 -76.5t109.5 -28zM275 615v13q5 13 20 22.5t28.5 20t13.5 27.5q0 13 -9.5 19.5t-22.5 6.5q-12 0 -24 -7t-17 -21l-37 21q9 30 33.5 45t51.5 15q29 0 53 -17t24 -53q0 -28 -13 -42.5t-27 -25t-18 -24.5h-56z" />
    <glyph glyph-name="uni1ECF" unicode="&#x1ecf;" 
d="M226 -10q-66 0 -111 27t-67.5 74.5t-22.5 107.5q0 62 22.5 109.5t67.5 74.5t112 27q98 0 149 -58t51 -153q0 -59 -21.5 -106.5t-66 -75t-113.5 -27.5zM226 61q49 0 75 21t35.5 53.5t9.5 66.5t-9.5 66.5t-35.5 54t-75 21.5q-47 0 -73.5 -21.5t-36.5 -54t-10 -66.5
t10 -66.5t36.5 -53.5t73.5 -21zM203 461v13q5 13 20 22.5t28.5 20t13.5 27.5q0 13 -9.5 19.5t-22.5 6.5q-12 0 -24 -7t-17 -21l-37 21q9 30 33.5 45t51.5 15q29 0 53 -17t24 -53q0 -28 -13 -42.5t-27 -25t-18 -24.5h-56z" />
    <glyph glyph-name="uni1ED0" unicode="&#x1ed0;" horiz-adv-x="608" 
d="M297 -14q-135 0 -206 79.5t-71 214.5q0 89 30.5 154.5t92 102t154.5 36.5q135 0 205.5 -79.5t70.5 -213.5q0 -87 -31.5 -153.5t-92.5 -103.5t-152 -37zM296 66q65 0 108.5 27.5t65 76t21.5 110.5q0 63 -21 111.5t-64.5 76t-109.5 27.5q-96 0 -145.5 -58t-49.5 -157
q0 -61 21 -109.5t64.5 -76.5t109.5 -28zM175 619v8l114 106h36l113 -106v-8h-75l-54 59h-4l-52 -59h-78zM440 708h-39v11l48 102h72v-17z" />
    <glyph glyph-name="uni1ED1" unicode="&#x1ed1;" 
d="M226 -10q-66 0 -111 27t-67.5 74.5t-22.5 107.5q0 62 22.5 109.5t67.5 74.5t112 27q98 0 149 -58t51 -153q0 -59 -21.5 -106.5t-66 -75t-113.5 -27.5zM226 61q49 0 75 21t35.5 53.5t9.5 66.5t-9.5 66.5t-35.5 54t-75 21.5q-47 0 -73.5 -21.5t-36.5 -54t-10 -66.5
t10 -66.5t36.5 -53.5t73.5 -21zM103 465v8l114 106h36l113 -106v-8h-75l-54 59h-4l-52 -59h-78zM368 554h-39v11l48 102h72v-17z" />
    <glyph glyph-name="uni1ED2" unicode="&#x1ed2;" horiz-adv-x="608" 
d="M297 -14q-135 0 -206 79.5t-71 214.5q0 89 30.5 154.5t92 102t154.5 36.5q135 0 205.5 -79.5t70.5 -213.5q0 -87 -31.5 -153.5t-92.5 -103.5t-152 -37zM296 66q65 0 108.5 27.5t65 76t21.5 110.5q0 63 -21 111.5t-64.5 76t-109.5 27.5q-96 0 -145.5 -58t-49.5 -157
q0 -61 21 -109.5t64.5 -76.5t109.5 -28zM432 708l-81 96v17h72l48 -102v-11h-39zM169 617v8l114 106h36l113 -106v-8h-75l-54 59h-4l-52 -59h-78z" />
    <glyph glyph-name="uni1ED3" unicode="&#x1ed3;" 
d="M226 -10q-66 0 -111 27t-67.5 74.5t-22.5 107.5q0 62 22.5 109.5t67.5 74.5t112 27q98 0 149 -58t51 -153q0 -59 -21.5 -106.5t-66 -75t-113.5 -27.5zM226 61q49 0 75 21t35.5 53.5t9.5 66.5t-9.5 66.5t-35.5 54t-75 21.5q-47 0 -73.5 -21.5t-36.5 -54t-10 -66.5
t10 -66.5t36.5 -53.5t73.5 -21zM360 554l-81 96v17h72l48 -102v-11h-39zM97 463v8l114 106h36l113 -106v-8h-75l-54 59h-4l-52 -59h-78z" />
    <glyph glyph-name="uni1ED4" unicode="&#x1ed4;" horiz-adv-x="608" 
d="M297 -14q-135 0 -206 79.5t-71 214.5q0 89 30.5 154.5t92 102t154.5 36.5q135 0 205.5 -79.5t70.5 -213.5q0 -87 -31.5 -153.5t-92.5 -103.5t-152 -37zM296 66q65 0 108.5 27.5t65 76t21.5 110.5q0 63 -21 111.5t-64.5 76t-109.5 27.5q-96 0 -145.5 -58t-49.5 -157
q0 -61 21 -109.5t64.5 -76.5t109.5 -28zM169 617v8l114 106h36l113 -106v-8h-75l-54 59h-4l-52 -59h-78zM391 706v13q5 13 20 22.5t28.5 20t13.5 27.5q0 13 -9.5 19.5t-22.5 6.5q-12 0 -24 -7t-17 -21l-37 21q9 30 33.5 45t51.5 15q29 0 53 -17t24 -53q0 -28 -13 -42.5
t-27 -25t-18 -24.5h-56z" />
    <glyph glyph-name="uni1ED5" unicode="&#x1ed5;" 
d="M226 -10q-66 0 -111 27t-67.5 74.5t-22.5 107.5q0 62 22.5 109.5t67.5 74.5t112 27q98 0 149 -58t51 -153q0 -59 -21.5 -106.5t-66 -75t-113.5 -27.5zM226 61q49 0 75 21t35.5 53.5t9.5 66.5t-9.5 66.5t-35.5 54t-75 21.5q-47 0 -73.5 -21.5t-36.5 -54t-10 -66.5
t10 -66.5t36.5 -53.5t73.5 -21zM97 463v8l114 106h36l113 -106v-8h-75l-54 59h-4l-52 -59h-78zM319 552v13q5 13 20 22.5t28.5 20t13.5 27.5q0 13 -9.5 19.5t-22.5 6.5q-12 0 -24 -7t-17 -21l-37 21q9 30 33.5 45t51.5 15q29 0 53 -17t24 -53q0 -28 -13 -42.5t-27 -25
t-18 -24.5h-56z" />
    <glyph glyph-name="uni1ED6" unicode="&#x1ed6;" horiz-adv-x="608" 
d="M297 -14q-135 0 -206 79.5t-71 214.5q0 89 30.5 154.5t92 102t154.5 36.5q135 0 205.5 -79.5t70.5 -213.5q0 -87 -31.5 -153.5t-92.5 -103.5t-152 -37zM296 66q65 0 108.5 27.5t65 76t21.5 110.5q0 63 -21 111.5t-64.5 76t-109.5 27.5q-96 0 -145.5 -58t-49.5 -157
q0 -61 21 -109.5t64.5 -76.5t109.5 -28zM174 617v8l114 106h36l113 -106v-8h-75l-54 59h-4l-52 -59h-78zM178 770q0 15 1 32t7.5 33.5t21 27t40.5 10.5q25 0 39.5 -8.5t23.5 -19.5t18.5 -19.5t22.5 -8.5q17 0 20 14.5t3 39.5h51q1 -17 -1 -35.5t-9 -33.5t-21 -24.5t-39 -9.5
q-24 0 -38.5 8.5t-24 19t-18 19t-22.5 8.5q-17 0 -20.5 -13.5t-2.5 -39.5h-52z" />
    <glyph glyph-name="uni1ED7" unicode="&#x1ed7;" 
d="M226 -10q-66 0 -111 27t-67.5 74.5t-22.5 107.5q0 62 22.5 109.5t67.5 74.5t112 27q98 0 149 -58t51 -153q0 -59 -21.5 -106.5t-66 -75t-113.5 -27.5zM226 61q49 0 75 21t35.5 53.5t9.5 66.5t-9.5 66.5t-35.5 54t-75 21.5q-47 0 -73.5 -21.5t-36.5 -54t-10 -66.5
t10 -66.5t36.5 -53.5t73.5 -21zM102 463v8l114 106h36l113 -106v-8h-75l-54 59h-4l-52 -59h-78zM106 616q0 15 1 32t7.5 33.5t21 27t40.5 10.5q25 0 39.5 -8.5t23.5 -19.5t18.5 -19.5t22.5 -8.5q17 0 20 14.5t3 39.5h51q1 -17 -1 -35.5t-9 -33.5t-21 -24.5t-39 -9.5
q-24 0 -38.5 8.5t-24 19t-18 19t-22.5 8.5q-17 0 -20.5 -13.5t-2.5 -39.5h-52z" />
    <glyph glyph-name="uni1ED8" unicode="&#x1ed8;" horiz-adv-x="608" 
d="M297 -14q-135 0 -206 79.5t-71 214.5q0 89 30.5 154.5t92 102t154.5 36.5q135 0 205.5 -79.5t70.5 -213.5q0 -87 -31.5 -153.5t-92.5 -103.5t-152 -37zM296 66q65 0 108.5 27.5t65 76t21.5 110.5q0 63 -21 111.5t-64.5 76t-109.5 27.5q-96 0 -145.5 -58t-49.5 -157
q0 -61 21 -109.5t64.5 -76.5t109.5 -28zM305 -166q-29 0 -39 15t-10 35q0 19 10 33.5t39 14.5q30 0 39 -14.5t9 -33.5q0 -20 -9 -35t-39 -15zM173 619v8l114 106h36l113 -106v-8h-75l-54 59h-4l-52 -59h-78z" />
    <glyph glyph-name="uni1ED9" unicode="&#x1ed9;" 
d="M226 -10q-66 0 -111 27t-67.5 74.5t-22.5 107.5q0 62 22.5 109.5t67.5 74.5t112 27q98 0 149 -58t51 -153q0 -59 -21.5 -106.5t-66 -75t-113.5 -27.5zM226 61q49 0 75 21t35.5 53.5t9.5 66.5t-9.5 66.5t-35.5 54t-75 21.5q-47 0 -73.5 -21.5t-36.5 -54t-10 -66.5
t10 -66.5t36.5 -53.5t73.5 -21zM233 -166q-29 0 -39 15t-10 35q0 19 10 33.5t39 14.5q30 0 39 -14.5t9 -33.5q0 -20 -9 -35t-39 -15zM101 465v8l114 106h36l113 -106v-8h-75l-54 59h-4l-52 -59h-78z" />
    <glyph glyph-name="uni1EDA" unicode="&#x1eda;" horiz-adv-x="608" 
d="M297 -14q-135 0 -206 79.5t-71 214.5q0 89 30.5 154.5t92 102t154.5 36.5q135 0 205.5 -79.5t70.5 -213.5q0 -87 -31.5 -153.5t-92.5 -103.5t-152 -37zM296 66q65 0 108.5 27.5t65 76t21.5 110.5q0 63 -21 111.5t-64.5 76t-109.5 27.5q-96 0 -145.5 -58t-49.5 -157
q0 -61 21 -109.5t64.5 -76.5t109.5 -28zM373 512l1 51h35q14 0 20 3.5t7.5 13t1.5 28.5h63q0 -35 -9.5 -56t-31 -30.5t-57.5 -9.5h-30zM325 607h-39v11l48 102h72v-17z" />
    <glyph glyph-name="uni1EDB" unicode="&#x1edb;" 
d="M226 -10q-66 0 -111 27t-67.5 74.5t-22.5 107.5q0 62 22.5 109.5t67.5 74.5t112 27q98 0 149 -58t51 -153q0 -59 -21.5 -106.5t-66 -75t-113.5 -27.5zM226 61q49 0 75 21t35.5 53.5t9.5 66.5t-9.5 66.5t-35.5 54t-75 21.5q-47 0 -73.5 -21.5t-36.5 -54t-10 -66.5
t10 -66.5t36.5 -53.5t73.5 -21zM280 349l1 51h35q14 0 20 3.5t7.5 13t1.5 28.5h63q0 -35 -9.5 -56t-31 -30.5t-57.5 -9.5h-30zM253 453h-39v11l48 102h72v-17z" />
    <glyph glyph-name="uni1EDC" unicode="&#x1edc;" horiz-adv-x="608" 
d="M297 -14q-135 0 -206 79.5t-71 214.5q0 89 30.5 154.5t92 102t154.5 36.5q135 0 205.5 -79.5t70.5 -213.5q0 -87 -31.5 -153.5t-92.5 -103.5t-152 -37zM296 66q65 0 108.5 27.5t65 76t21.5 110.5q0 63 -21 111.5t-64.5 76t-109.5 27.5q-96 0 -145.5 -58t-49.5 -157
q0 -61 21 -109.5t64.5 -76.5t109.5 -28zM373 512l1 51h35q14 0 20 3.5t7.5 13t1.5 28.5h63q0 -35 -9.5 -56t-31 -30.5t-57.5 -9.5h-30zM289 607l-81 96v17h72l48 -102v-11h-39z" />
    <glyph glyph-name="uni1EDD" unicode="&#x1edd;" 
d="M226 -10q-66 0 -111 27t-67.5 74.5t-22.5 107.5q0 62 22.5 109.5t67.5 74.5t112 27q98 0 149 -58t51 -153q0 -59 -21.5 -106.5t-66 -75t-113.5 -27.5zM226 61q49 0 75 21t35.5 53.5t9.5 66.5t-9.5 66.5t-35.5 54t-75 21.5q-47 0 -73.5 -21.5t-36.5 -54t-10 -66.5
t10 -66.5t36.5 -53.5t73.5 -21zM280 349l1 51h35q14 0 20 3.5t7.5 13t1.5 28.5h63q0 -35 -9.5 -56t-31 -30.5t-57.5 -9.5h-30zM217 453l-81 96v17h72l48 -102v-11h-39z" />
    <glyph glyph-name="uni1EDE" unicode="&#x1ede;" horiz-adv-x="608" 
d="M297 -14q-135 0 -206 79.5t-71 214.5q0 89 30.5 154.5t92 102t154.5 36.5q135 0 205.5 -79.5t70.5 -213.5q0 -87 -31.5 -153.5t-92.5 -103.5t-152 -37zM296 66q65 0 108.5 27.5t65 76t21.5 110.5q0 63 -21 111.5t-64.5 76t-109.5 27.5q-96 0 -145.5 -58t-49.5 -157
q0 -61 21 -109.5t64.5 -76.5t109.5 -28zM373 512l1 51h35q14 0 20 3.5t7.5 13t1.5 28.5h63q0 -35 -9.5 -56t-31 -30.5t-57.5 -9.5h-30zM275 615v13q5 13 20 22.5t28.5 20t13.5 27.5q0 13 -9.5 19.5t-22.5 6.5q-12 0 -24 -7t-17 -21l-37 21q9 30 33.5 45t51.5 15q29 0 53 -17
t24 -53q0 -28 -13 -42.5t-27 -25t-18 -24.5h-56z" />
    <glyph glyph-name="uni1EDF" unicode="&#x1edf;" 
d="M226 -10q-66 0 -111 27t-67.5 74.5t-22.5 107.5q0 62 22.5 109.5t67.5 74.5t112 27q98 0 149 -58t51 -153q0 -59 -21.5 -106.5t-66 -75t-113.5 -27.5zM226 61q49 0 75 21t35.5 53.5t9.5 66.5t-9.5 66.5t-35.5 54t-75 21.5q-47 0 -73.5 -21.5t-36.5 -54t-10 -66.5
t10 -66.5t36.5 -53.5t73.5 -21zM280 349l1 51h35q14 0 20 3.5t7.5 13t1.5 28.5h63q0 -35 -9.5 -56t-31 -30.5t-57.5 -9.5h-30zM203 461v13q5 13 20 22.5t28.5 20t13.5 27.5q0 13 -9.5 19.5t-22.5 6.5q-12 0 -24 -7t-17 -21l-37 21q9 30 33.5 45t51.5 15q29 0 53 -17t24 -53
q0 -28 -13 -42.5t-27 -25t-18 -24.5h-56z" />
    <glyph glyph-name="uni1EE0" unicode="&#x1ee0;" horiz-adv-x="608" 
d="M297 -14q-135 0 -206 79.5t-71 214.5q0 89 30.5 154.5t92 102t154.5 36.5q135 0 205.5 -79.5t70.5 -213.5q0 -87 -31.5 -153.5t-92.5 -103.5t-152 -37zM296 66q65 0 108.5 27.5t65 76t21.5 110.5q0 63 -21 111.5t-64.5 76t-109.5 27.5q-96 0 -145.5 -58t-49.5 -157
q0 -61 21 -109.5t64.5 -76.5t109.5 -28zM373 512l1 51h35q14 0 20 3.5t7.5 13t1.5 28.5h63q0 -35 -9.5 -56t-31 -30.5t-57.5 -9.5h-30zM181 627q0 15 1 32t7.5 33.5t21 27t40.5 10.5q25 0 39.5 -8.5t23.5 -19.5t18.5 -19.5t22.5 -8.5q17 0 20 14.5t3 39.5h51q1 -17 -1 -35.5
t-9 -33.5t-21 -24.5t-39 -9.5q-24 0 -38.5 8.5t-24 19t-18 19t-22.5 8.5q-17 0 -20.5 -13.5t-2.5 -39.5h-52z" />
    <glyph glyph-name="uni1EE1" unicode="&#x1ee1;" 
d="M226 -10q-66 0 -111 27t-67.5 74.5t-22.5 107.5q0 62 22.5 109.5t67.5 74.5t112 27q98 0 149 -58t51 -153q0 -59 -21.5 -106.5t-66 -75t-113.5 -27.5zM226 61q49 0 75 21t35.5 53.5t9.5 66.5t-9.5 66.5t-35.5 54t-75 21.5q-47 0 -73.5 -21.5t-36.5 -54t-10 -66.5
t10 -66.5t36.5 -53.5t73.5 -21zM280 349l1 51h35q14 0 20 3.5t7.5 13t1.5 28.5h63q0 -35 -9.5 -56t-31 -30.5t-57.5 -9.5h-30zM109 473q0 15 1 32t7.5 33.5t21 27t40.5 10.5q25 0 39.5 -8.5t23.5 -19.5t18.5 -19.5t22.5 -8.5q17 0 20 14.5t3 39.5h51q1 -17 -1 -35.5
t-9 -33.5t-21 -24.5t-39 -9.5q-24 0 -38.5 8.5t-24 19t-18 19t-22.5 8.5q-17 0 -20.5 -13.5t-2.5 -39.5h-52z" />
    <glyph glyph-name="uni1EE2" unicode="&#x1ee2;" horiz-adv-x="608" 
d="M297 -14q-135 0 -206 79.5t-71 214.5q0 89 30.5 154.5t92 102t154.5 36.5q135 0 205.5 -79.5t70.5 -213.5q0 -87 -31.5 -153.5t-92.5 -103.5t-152 -37zM296 66q65 0 108.5 27.5t65 76t21.5 110.5q0 63 -21 111.5t-64.5 76t-109.5 27.5q-96 0 -145.5 -58t-49.5 -157
q0 -61 21 -109.5t64.5 -76.5t109.5 -28zM373 512l1 51h35q14 0 20 3.5t7.5 13t1.5 28.5h63q0 -35 -9.5 -56t-31 -30.5t-57.5 -9.5h-30zM305 -166q-29 0 -39 15t-10 35q0 19 10 33.5t39 14.5q30 0 39 -14.5t9 -33.5q0 -20 -9 -35t-39 -15z" />
    <glyph glyph-name="uni1EE3" unicode="&#x1ee3;" 
d="M226 -10q-66 0 -111 27t-67.5 74.5t-22.5 107.5q0 62 22.5 109.5t67.5 74.5t112 27q98 0 149 -58t51 -153q0 -59 -21.5 -106.5t-66 -75t-113.5 -27.5zM226 61q49 0 75 21t35.5 53.5t9.5 66.5t-9.5 66.5t-35.5 54t-75 21.5q-47 0 -73.5 -21.5t-36.5 -54t-10 -66.5
t10 -66.5t36.5 -53.5t73.5 -21zM280 349l1 51h35q14 0 20 3.5t7.5 13t1.5 28.5h63q0 -35 -9.5 -56t-31 -30.5t-57.5 -9.5h-30zM233 -166q-29 0 -39 15t-10 35q0 19 10 33.5t39 14.5q30 0 39 -14.5t9 -33.5q0 -20 -9 -35t-39 -15z" />
    <glyph glyph-name="uni1EE4" unicode="&#x1ee4;" horiz-adv-x="586" 
d="M292 -14q-116 0 -177.5 66.5t-61.5 187.5v323h87v-322q0 -49 12.5 -82.5t33.5 -54t48.5 -30t57.5 -9.5q45 0 79.5 16.5t54 55.5t19.5 104v322h87v-323q0 -123 -60.5 -188.5t-179.5 -65.5zM294 -166q-29 0 -39 15t-10 35q0 19 10 33.5t39 14.5q30 0 39 -14.5t9 -33.5
q0 -20 -9 -35t-39 -15z" />
    <glyph glyph-name="uni1EE5" unicode="&#x1ee5;" horiz-adv-x="453" 
d="M185 -10q-41 0 -68.5 13t-44 35t-24.5 49t-11 56t-3 56v210h82v-210q0 -36 7 -66.5t29 -49.5t65 -19q42 0 65 19.5t32.5 49.5t10.5 62v214h86v-409h-71l-14 85h-2q-3 -10 -12 -25.5t-25 -31.5t-41.5 -27t-60.5 -11zM227 -166q-29 0 -39 15t-10 35q0 19 10 33.5t39 14.5
q30 0 39 -14.5t9 -33.5q0 -20 -9 -35t-39 -15z" />
    <glyph glyph-name="uni1EE6" unicode="&#x1ee6;" horiz-adv-x="586" 
d="M292 -14q-116 0 -177.5 66.5t-61.5 187.5v323h87v-322q0 -49 12.5 -82.5t33.5 -54t48.5 -30t57.5 -9.5q45 0 79.5 16.5t54 55.5t19.5 104v322h87v-323q0 -123 -60.5 -188.5t-179.5 -65.5zM263 615v13q5 13 20 22.5t28.5 20t13.5 27.5q0 13 -9.5 19.5t-22.5 6.5
q-12 0 -24 -7t-17 -21l-37 21q9 30 33.5 45t51.5 15q29 0 53 -17t24 -53q0 -28 -13 -42.5t-27 -25t-18 -24.5h-56z" />
    <glyph glyph-name="uni1EE7" unicode="&#x1ee7;" horiz-adv-x="453" 
d="M185 -10q-41 0 -68.5 13t-44 35t-24.5 49t-11 56t-3 56v210h82v-210q0 -36 7 -66.5t29 -49.5t65 -19q42 0 65 19.5t32.5 49.5t10.5 62v214h86v-409h-71l-14 85h-2q-3 -10 -12 -25.5t-25 -31.5t-41.5 -27t-60.5 -11zM197 461v13q5 13 20 22.5t28.5 20t13.5 27.5
q0 13 -9.5 19.5t-22.5 6.5q-12 0 -24 -7t-17 -21l-37 21q9 30 33.5 45t51.5 15q29 0 53 -17t24 -53q0 -28 -13 -42.5t-27 -25t-18 -24.5h-56z" />
    <glyph glyph-name="uni1EE8" unicode="&#x1ee8;" horiz-adv-x="586" 
d="M292 -14q-116 0 -177.5 66.5t-61.5 187.5v323h87v-322q0 -49 12.5 -82.5t33.5 -54t48.5 -30t57.5 -9.5q45 0 79.5 16.5t54 55.5t19.5 104v322h87v-323q0 -123 -60.5 -188.5t-179.5 -65.5zM497 512l1 51h35q14 0 20 3.5t7.5 13t1.5 28.5h63q0 -35 -9.5 -56t-31 -30.5
t-57.5 -9.5h-30zM313 607h-39v11l48 102h72v-17z" />
    <glyph glyph-name="uni1EE9" unicode="&#x1ee9;" horiz-adv-x="453" 
d="M185 -10q-41 0 -68.5 13t-44 35t-24.5 49t-11 56t-3 56v210h82v-210q0 -36 7 -66.5t29 -49.5t65 -19q42 0 65 19.5t32.5 49.5t10.5 62v214h86v-409h-71l-14 85h-2q-3 -10 -12 -25.5t-25 -31.5t-41.5 -27t-60.5 -11zM364 358l1 51h35q14 0 20 3.5t7.5 13t1.5 28.5h63
q0 -35 -9.5 -56t-31 -30.5t-57.5 -9.5h-30zM247 453h-39v11l48 102h72v-17z" />
    <glyph glyph-name="uni1EEA" unicode="&#x1eea;" horiz-adv-x="586" 
d="M292 -14q-116 0 -177.5 66.5t-61.5 187.5v323h87v-322q0 -49 12.5 -82.5t33.5 -54t48.5 -30t57.5 -9.5q45 0 79.5 16.5t54 55.5t19.5 104v322h87v-323q0 -123 -60.5 -188.5t-179.5 -65.5zM497 512l1 51h35q14 0 20 3.5t7.5 13t1.5 28.5h63q0 -35 -9.5 -56t-31 -30.5
t-57.5 -9.5h-30zM277 607l-81 96v17h72l48 -102v-11h-39z" />
    <glyph glyph-name="uni1EEB" unicode="&#x1eeb;" horiz-adv-x="453" 
d="M185 -10q-41 0 -68.5 13t-44 35t-24.5 49t-11 56t-3 56v210h82v-210q0 -36 7 -66.5t29 -49.5t65 -19q42 0 65 19.5t32.5 49.5t10.5 62v214h86v-409h-71l-14 85h-2q-3 -10 -12 -25.5t-25 -31.5t-41.5 -27t-60.5 -11zM364 358l1 51h35q14 0 20 3.5t7.5 13t1.5 28.5h63
q0 -35 -9.5 -56t-31 -30.5t-57.5 -9.5h-30zM211 453l-81 96v17h72l48 -102v-11h-39z" />
    <glyph glyph-name="uni1EEC" unicode="&#x1eec;" horiz-adv-x="586" 
d="M292 -14q-116 0 -177.5 66.5t-61.5 187.5v323h87v-322q0 -49 12.5 -82.5t33.5 -54t48.5 -30t57.5 -9.5q45 0 79.5 16.5t54 55.5t19.5 104v322h87v-323q0 -123 -60.5 -188.5t-179.5 -65.5zM497 512l1 51h35q14 0 20 3.5t7.5 13t1.5 28.5h63q0 -35 -9.5 -56t-31 -30.5
t-57.5 -9.5h-30zM263 615v13q5 13 20 22.5t28.5 20t13.5 27.5q0 13 -9.5 19.5t-22.5 6.5q-12 0 -24 -7t-17 -21l-37 21q9 30 33.5 45t51.5 15q29 0 53 -17t24 -53q0 -28 -13 -42.5t-27 -25t-18 -24.5h-56z" />
    <glyph glyph-name="uni1EED" unicode="&#x1eed;" horiz-adv-x="453" 
d="M185 -10q-41 0 -68.5 13t-44 35t-24.5 49t-11 56t-3 56v210h82v-210q0 -36 7 -66.5t29 -49.5t65 -19q42 0 65 19.5t32.5 49.5t10.5 62v214h86v-409h-71l-14 85h-2q-3 -10 -12 -25.5t-25 -31.5t-41.5 -27t-60.5 -11zM364 358l1 51h35q14 0 20 3.5t7.5 13t1.5 28.5h63
q0 -35 -9.5 -56t-31 -30.5t-57.5 -9.5h-30zM197 461v13q5 13 20 22.5t28.5 20t13.5 27.5q0 13 -9.5 19.5t-22.5 6.5q-12 0 -24 -7t-17 -21l-37 21q9 30 33.5 45t51.5 15q29 0 53 -17t24 -53q0 -28 -13 -42.5t-27 -25t-18 -24.5h-56z" />
    <glyph glyph-name="uni1EEE" unicode="&#x1eee;" horiz-adv-x="586" 
d="M292 -14q-116 0 -177.5 66.5t-61.5 187.5v323h87v-322q0 -49 12.5 -82.5t33.5 -54t48.5 -30t57.5 -9.5q45 0 79.5 16.5t54 55.5t19.5 104v322h87v-323q0 -123 -60.5 -188.5t-179.5 -65.5zM497 512l1 51h35q14 0 20 3.5t7.5 13t1.5 28.5h63q0 -35 -9.5 -56t-31 -30.5
t-57.5 -9.5h-30zM169 627q0 15 1 32t7.5 33.5t21 27t40.5 10.5q25 0 39.5 -8.5t23.5 -19.5t18.5 -19.5t22.5 -8.5q17 0 20 14.5t3 39.5h51q1 -17 -1 -35.5t-9 -33.5t-21 -24.5t-39 -9.5q-24 0 -38.5 8.5t-24 19t-18 19t-22.5 8.5q-17 0 -20.5 -13.5t-2.5 -39.5h-52z" />
    <glyph glyph-name="uni1EEF" unicode="&#x1eef;" horiz-adv-x="453" 
d="M185 -10q-41 0 -68.5 13t-44 35t-24.5 49t-11 56t-3 56v210h82v-210q0 -36 7 -66.5t29 -49.5t65 -19q42 0 65 19.5t32.5 49.5t10.5 62v214h86v-409h-71l-14 85h-2q-3 -10 -12 -25.5t-25 -31.5t-41.5 -27t-60.5 -11zM364 358l1 51h35q14 0 20 3.5t7.5 13t1.5 28.5h63
q0 -35 -9.5 -56t-31 -30.5t-57.5 -9.5h-30zM103 473q0 15 1 32t7.5 33.5t21 27t40.5 10.5q25 0 39.5 -8.5t23.5 -19.5t18.5 -19.5t22.5 -8.5q17 0 20 14.5t3 39.5h51q1 -17 -1 -35.5t-9 -33.5t-21 -24.5t-39 -9.5q-24 0 -38.5 8.5t-24 19t-18 19t-22.5 8.5
q-17 0 -20.5 -13.5t-2.5 -39.5h-52z" />
    <glyph glyph-name="uni1EF0" unicode="&#x1ef0;" horiz-adv-x="586" 
d="M292 -14q-116 0 -177.5 66.5t-61.5 187.5v323h87v-322q0 -49 12.5 -82.5t33.5 -54t48.5 -30t57.5 -9.5q45 0 79.5 16.5t54 55.5t19.5 104v322h87v-323q0 -123 -60.5 -188.5t-179.5 -65.5zM497 512l1 51h35q14 0 20 3.5t7.5 13t1.5 28.5h63q0 -35 -9.5 -56t-31 -30.5
t-57.5 -9.5h-30zM294 -166q-29 0 -39 15t-10 35q0 19 10 33.5t39 14.5q30 0 39 -14.5t9 -33.5q0 -20 -9 -35t-39 -15z" />
    <glyph glyph-name="uni1EF1" unicode="&#x1ef1;" horiz-adv-x="453" 
d="M185 -10q-41 0 -68.5 13t-44 35t-24.5 49t-11 56t-3 56v210h82v-210q0 -36 7 -66.5t29 -49.5t65 -19q42 0 65 19.5t32.5 49.5t10.5 62v214h86v-409h-71l-14 85h-2q-3 -10 -12 -25.5t-25 -31.5t-41.5 -27t-60.5 -11zM364 358l1 51h35q14 0 20 3.5t7.5 13t1.5 28.5h63
q0 -35 -9.5 -56t-31 -30.5t-57.5 -9.5h-30zM227 -166q-29 0 -39 15t-10 35q0 19 10 33.5t39 14.5q30 0 39 -14.5t9 -33.5q0 -20 -9 -35t-39 -15z" />
    <glyph glyph-name="Ygrave" unicode="&#x1ef2;" horiz-adv-x="439" 
d="M176 201l-193 362h93l142 -286l141 286h93l-196 -362h-80zM175 0v214h83v-214h-83zM204 607l-81 96v17h72l48 -102v-11h-39z" />
    <glyph glyph-name="ygrave" unicode="&#x1ef3;" horiz-adv-x="424" 
d="M-2 -186v65h59q14 0 25 3.5t21.5 16.5t22.5 40l35 77l-160 393h86l115 -307l123 307h87l-210 -479q-17 -38 -30.5 -61t-28 -35t-33 -16t-43.5 -4h-69zM196 453l-81 96v17h72l48 -102v-11h-39z" />
    <glyph glyph-name="uni1EF4" unicode="&#x1ef4;" horiz-adv-x="439" 
d="M176 201l-193 362h93l142 -286l141 286h93l-196 -362h-80zM175 0v214h83v-214h-83zM217 -166q-29 0 -39 15t-10 35q0 19 10 33.5t39 14.5q30 0 39 -14.5t9 -33.5q0 -20 -9 -35t-39 -15z" />
    <glyph glyph-name="uni1EF5" unicode="&#x1ef5;" horiz-adv-x="424" 
d="M-2 -186v65h59q14 0 25 3.5t21.5 16.5t22.5 40l35 77l-160 393h86l115 -307l123 307h87l-210 -479q-17 -38 -30.5 -61t-28 -35t-33 -16t-43.5 -4h-69zM325 -166q-29 0 -39 15t-10 35q0 19 10 33.5t39 14.5q30 0 39 -14.5t9 -33.5q0 -20 -9 -35t-39 -15z" />
    <glyph glyph-name="uni1EF6" unicode="&#x1ef6;" horiz-adv-x="439" 
d="M176 201l-193 362h93l142 -286l141 286h93l-196 -362h-80zM175 0v214h83v-214h-83zM190 615v13q5 13 20 22.5t28.5 20t13.5 27.5q0 13 -9.5 19.5t-22.5 6.5q-12 0 -24 -7t-17 -21l-37 21q9 30 33.5 45t51.5 15q29 0 53 -17t24 -53q0 -28 -13 -42.5t-27 -25t-18 -24.5h-56
z" />
    <glyph glyph-name="uni1EF7" unicode="&#x1ef7;" horiz-adv-x="424" 
d="M-2 -186v65h59q14 0 25 3.5t21.5 16.5t22.5 40l35 77l-160 393h86l115 -307l123 307h87l-210 -479q-17 -38 -30.5 -61t-28 -35t-33 -16t-43.5 -4h-69zM182 461v13q5 13 20 22.5t28.5 20t13.5 27.5q0 13 -9.5 19.5t-22.5 6.5q-12 0 -24 -7t-17 -21l-37 21q9 30 33.5 45
t51.5 15q29 0 53 -17t24 -53q0 -28 -13 -42.5t-27 -25t-18 -24.5h-56z" />
    <glyph glyph-name="uni1EF8" unicode="&#x1ef8;" horiz-adv-x="439" 
d="M176 201l-193 362h93l142 -286l141 286h93l-196 -362h-80zM175 0v214h83v-214h-83zM96 627q0 15 1 32t7.5 33.5t21 27t40.5 10.5q25 0 39.5 -8.5t23.5 -19.5t18.5 -19.5t22.5 -8.5q17 0 20 14.5t3 39.5h51q1 -17 -1 -35.5t-9 -33.5t-21 -24.5t-39 -9.5q-24 0 -38.5 8.5
t-24 19t-18 19t-22.5 8.5q-17 0 -20.5 -13.5t-2.5 -39.5h-52z" />
    <glyph glyph-name="uni1EF9" unicode="&#x1ef9;" horiz-adv-x="424" 
d="M-2 -186v65h59q14 0 25 3.5t21.5 16.5t22.5 40l35 77l-160 393h86l115 -307l123 307h87l-210 -479q-17 -38 -30.5 -61t-28 -35t-33 -16t-43.5 -4h-69zM88 473q0 15 1 32t7.5 33.5t21 27t40.5 10.5q25 0 39.5 -8.5t23.5 -19.5t18.5 -19.5t22.5 -8.5q17 0 20 14.5t3 39.5
h51q1 -17 -1 -35.5t-9 -33.5t-21 -24.5t-39 -9.5q-24 0 -38.5 8.5t-24 19t-18 19t-22.5 8.5q-17 0 -20.5 -13.5t-2.5 -39.5h-52z" />
    <glyph glyph-name="endash" unicode="&#x2013;" horiz-adv-x="417" 
d="M40 195v60h322v-60h-322z" />
    <glyph glyph-name="emdash" unicode="&#x2014;" horiz-adv-x="557" 
d="M40 195v60h462v-60h-462z" />
    <glyph glyph-name="quoteleft" unicode="&#x2018;" horiz-adv-x="221" 
d="M87 349q-28 0 -38.5 14.5t-10.5 36.5q0 20 9.5 34.5t37.5 14.5q29 0 40 -14.5t11 -35.5t-11 -35.5t-38 -14.5zM38 399q0 4 1 22t7 42t19.5 47t36.5 38t59 15v-71q-31 0 -49 -9.5t-27 -23.5t-11 -27.5t-1 -23l1 -9.5h-36z" />
    <glyph glyph-name="quoteright" unicode="&#x2019;" horiz-adv-x="196" 
d="M30 349v71q32 0 50 9.5t26.5 23.5t11 27.5t1.5 23l-1 9.5h36q0 -4 -1.5 -22t-7.5 -42t-19 -47t-36.5 -38t-59.5 -15zM106 463q-28 0 -39 14.5t-11 35.5t10.5 35.5t38.5 14.5q27 0 38 -14.5t11 -36.5q0 -20 -10 -34.5t-38 -14.5z" />
    <glyph glyph-name="quotesinglbase" unicode="&#x201a;" horiz-adv-x="221" 
d="M48 -87v71q31 0 49 9.5t27 23.5t11 27.5t1 23l-1 9.5h36q0 -4 -1 -22t-7 -42t-19.5 -47t-36.5 -38t-59 -15zM124 27q-29 0 -40 14.5t-11 35.5t11 35.5t38 14.5q28 0 38.5 -14.5t10.5 -36.5q0 -20 -9.5 -34.5t-37.5 -14.5z" />
    <glyph glyph-name="quotedblleft" unicode="&#x201c;" horiz-adv-x="360" 
d="M181 399q0 4 1.5 22t7.5 42t19 47t36 38t60 15v-71q-32 0 -50 -9.5t-26.5 -23.5t-11 -27.5t-1.5 -23l1 -9.5h-36zM87 349q-28 0 -38.5 14.5t-10.5 36.5q0 20 9.5 34.5t37.5 14.5q29 0 40 -14.5t11 -35.5t-11 -35.5t-38 -14.5zM38 399q0 4 1 22t7 42t19.5 47t36.5 38
t59 15v-71q-31 0 -49 -9.5t-27 -23.5t-11 -27.5t-1 -23l1 -9.5h-36zM230 349q-27 0 -38 14.5t-11 36.5q0 20 10 34.5t38 14.5t39 -14.5t11 -35.5t-10.5 -35.5t-38.5 -14.5z" />
    <glyph glyph-name="quotedblright" unicode="&#x201d;" horiz-adv-x="360" 
d="M181 349v71q32 0 50 9.5t26.5 23.5t11 27.5t1.5 23l-1 9.5h36q0 -4 -1.5 -22t-7.5 -42t-19 -47t-36.5 -38t-59.5 -15zM38 349v71q31 0 49 9.5t27 23.5t11 27.5t1 23l-1 9.5h36q0 -4 -1 -22t-7 -42t-19.5 -47t-36.5 -38t-59 -15zM113 463q-28 0 -39 14.5t-11 35.5t11 35.5
t38 14.5q28 0 38.5 -14.5t10.5 -36.5q0 -20 -9.5 -34.5t-38.5 -14.5zM257 463q-28 0 -39 14.5t-11 35.5t10.5 35.5t38.5 14.5q27 0 38 -14.5t11 -36.5q0 -20 -10 -34.5t-38 -14.5z" />
    <glyph glyph-name="quotedblbase" unicode="&#x201e;" horiz-adv-x="348" 
d="M38 -87v71q31 0 49 9.5t27 23.5t11 27.5t1 23l-1 9.5h36q0 -4 -1 -22t-7 -42t-19.5 -47t-36.5 -38t-59 -15zM113 27q-28 0 -39 14.5t-11 35.5t11 35.5t38 14.5q28 0 38.5 -14.5t10.5 -36.5q0 -20 -9.5 -34.5t-38.5 -14.5zM181 -87v71q32 0 50 9.5t26.5 23.5t11 27.5
t1.5 23l-1 9.5h36q0 -4 -1.5 -22t-7.5 -42t-19 -47t-36.5 -38t-59.5 -15zM257 27q-28 0 -39 14.5t-11 35.5t10.5 35.5t38.5 14.5q27 0 38 -14.5t11 -36.5q0 -20 -10 -34.5t-38 -14.5z" />
    <glyph glyph-name="bullet" unicode="&#x2022;" horiz-adv-x="244" 
d="M110 193q-38 0 -51.5 19t-13.5 46q0 25 13.5 44t51.5 19q39 0 51.5 -19t12.5 -44q0 -27 -13 -46t-51 -19z" />
    <glyph glyph-name="ellipsis" unicode="&#x2026;" horiz-adv-x="559" 
d="M102 0q-31 0 -41.5 15.5t-10.5 38.5q0 21 10.5 36.5t41.5 15.5q29 0 39.5 -15.5t10.5 -36.5q0 -23 -10.5 -38.5t-39.5 -15.5zM278 0q-31 0 -41.5 15.5t-10.5 38.5q0 21 10.5 36.5t41.5 15.5q29 0 39.5 -15.5t10.5 -37.5q0 -21 -10.5 -37t-39.5 -16zM454 0
q-31 0 -41.5 15.5t-10.5 38.5q0 21 10.5 36.5t41.5 15.5q29 0 39.5 -15.5t10.5 -36.5q0 -23 -10.5 -38.5t-39.5 -15.5z" />
    <glyph glyph-name="perthousand" unicode="&#x2030;" horiz-adv-x="795" 
d="M116 0l-58 41l228 258l191 264l57 -40l-219 -247zM460 -10q-54 0 -78.5 33t-24.5 89q0 54 24 87t79 33t79.5 -33t24.5 -88q0 -53 -24.5 -87t-79.5 -34zM459 43q28 0 40 19.5t12 48.5q0 31 -12 50.5t-40 19.5q-27 0 -39 -19t-12 -51q0 -29 12 -48.5t39 -19.5zM132 332
q-54 0 -79 32.5t-25 87.5q0 54 24.5 87.5t78.5 33.5q55 0 80.5 -33.5t25.5 -87.5q0 -53 -25.5 -86.5t-79.5 -33.5zM131 385q28 0 39.5 19.5t11.5 48.5q0 30 -11.5 49.5t-39.5 19.5q-27 0 -39 -19t-12 -51q0 -28 12 -47.5t39 -19.5zM708 -10q-54 0 -78.5 33t-24.5 89
q0 54 24 87t79 33t79.5 -33t24.5 -88q0 -53 -24.5 -87t-79.5 -34zM707 43q28 0 40 19.5t12 48.5q0 31 -12 50.5t-40 19.5q-27 0 -39 -19t-12 -51q0 -29 12 -48.5t39 -19.5z" />
    <glyph glyph-name="guilsinglleft" unicode="&#x2039;" horiz-adv-x="401" 
d="M361 395v-68l-254 -96l254 -96v-70l-321 166z" />
    <glyph glyph-name="guilsinglright" unicode="&#x203a;" horiz-adv-x="408" 
d="M43 395l320 -164l-320 -166v70l253 96l-253 96v68z" />
    <glyph glyph-name="fraction" unicode="&#x2044;" horiz-adv-x="190" 
d="M-94 4l-41 32l221 263l199 262l40 -32l-210 -253z" />
    <glyph glyph-name="uni2074" unicode="&#x2074;" horiz-adv-x="254" 
d="M15 464v41q34 15 58 46t37.5 67.5t13.5 67.5h52q0 -48 -30.5 -98t-81.5 -83h175v-41h-224zM156 409v138h48v-138h-48z" />
    <glyph glyph-name="Euro" unicode="&#x20ac;" horiz-adv-x="628" 
d="M341 -10q-71 0 -128.5 32.5t-91.5 97t-34 160.5q0 95 33.5 160.5t92 99t131.5 33.5q70 0 119.5 -26.5t79.5 -74t40 -109.5l-84 -13q-13 71 -49.5 109t-105.5 38q-54 0 -92.5 -26.5t-58.5 -74.5t-20 -114q0 -104 43.5 -158.5t125.5 -54.5q67 0 107 38t51 108l86 -12
q-10 -63 -40.5 -111t-81 -75t-123.5 -27zM357 209h-322v49h337zM35 307v48h367l-15 -50z" />
    <glyph glyph-name="trademark" unicode="&#x2122;" horiz-adv-x="459" 
d="M194 354v209h68l47 -191l47 191h68v-209h-41l4 191l-49 -191h-58l-48 191l2 -191h-40zM56 354v176h-68v33h174v-33h-68v-176h-38z" />
    <glyph glyph-name="oneeighth" unicode="&#x215b;" horiz-adv-x="622" 
d="M75 304v215q-5 -23 -18 -34.5t-25.5 -16t-16.5 -4.5v53q5 -1 20 1.5t29.5 13.5t15.5 37h42v-265h-47zM30 292v42h130v-42h-130zM81 4l-41 32l221 263l199 262l40 -32l-210 -253zM493 -12q-48 0 -80.5 21.5t-32.5 59.5q0 27 18 47t49 27q-22 3 -33 14t-14.5 24t-3.5 21
q0 34 27 54.5t70 20.5q44 0 71 -21t27 -54q0 -8 -3.5 -21t-14.5 -24t-34 -14q31 -7 49.5 -26.5t18.5 -47.5q0 -39 -33 -60t-81 -21zM493 26q32 0 50 14.5t18 36.5q0 26 -18 39t-50 13q-31 0 -49 -13t-18 -39q0 -22 18 -36.5t49 -14.5zM493 153q26 0 41 10.5t15 30.5
q0 22 -15.5 33.5t-40.5 11.5t-40.5 -11.5t-15.5 -33.5q0 -20 16 -30.5t40 -10.5z" />
    <glyph glyph-name="threeeighths" unicode="&#x215c;" horiz-adv-x="689" 
d="M126 280q-48 0 -79.5 24.5t-31.5 73.5l45 7q1 -31 20 -47.5t47 -16.5q24 0 40.5 13.5t16.5 34.5q0 17 -8.5 27t-20.5 15t-24 5h-32v25h33q20 0 34 11.5t14 29.5q0 22 -15.5 35t-41.5 13q-20 0 -33 -8.5t-19.5 -21t-7.5 -23.5l-42 6q0 8 5 22t16.5 29t31 25t48.5 10
q47 0 73.5 -21t26.5 -57q0 -22 -13 -41t-37 -23q24 -3 40 -21.5t16 -44.5q0 -36 -29 -58.5t-73 -22.5zM149 4l-41 32l221 263l199 262l40 -32l-210 -253zM561 -12q-48 0 -80.5 21.5t-32.5 59.5q0 27 18 47t49 27q-22 3 -33 14t-14.5 24t-3.5 21q0 34 27 54.5t70 20.5
q44 0 71 -21t27 -54q0 -8 -3.5 -21t-14.5 -24t-34 -14q31 -7 49.5 -26.5t18.5 -47.5q0 -39 -33 -60t-81 -21zM561 26q32 0 50 14.5t18 36.5q0 26 -18 39t-50 13q-31 0 -49 -13t-18 -39q0 -22 18 -36.5t49 -14.5zM561 153q26 0 41 10.5t15 30.5q0 22 -15.5 33.5t-40.5 11.5
t-40.5 -11.5t-15.5 -33.5q0 -20 16 -30.5t40 -10.5z" />
    <glyph glyph-name="fiveeighths" unicode="&#x215d;" horiz-adv-x="690" 
d="M121 280q-32 0 -54.5 11t-35 29t-16.5 37l48 7q1 -4 6 -14.5t18 -20t35 -9.5q28 0 43.5 17.5t16.5 37.5q1 21 -13.5 39.5t-44.5 18.5q-19 0 -30.5 -7t-16.5 -13t-5 -7l-49 8l15 143h177v-41h-144l-9 -86l7.5 9t24 17.5t43.5 8.5q49 0 71 -27.5t20 -62.5
q-1 -36 -29.5 -65.5t-77.5 -29.5zM149 4l-41 32l221 263l199 262l40 -32l-210 -253zM561 -12q-48 0 -80.5 21.5t-32.5 59.5q0 27 18 47t49 27q-22 3 -33 14t-14.5 24t-3.5 21q0 34 27 54.5t70 20.5q44 0 71 -21t27 -54q0 -8 -3.5 -21t-14.5 -24t-34 -14q31 -7 49.5 -26.5
t18.5 -47.5q0 -39 -33 -60t-81 -21zM561 26q32 0 50 14.5t18 36.5q0 26 -18 39t-50 13q-31 0 -49 -13t-18 -39q0 -22 18 -36.5t49 -14.5zM561 153q26 0 41 10.5t15 30.5q0 22 -15.5 33.5t-40.5 11.5t-40.5 -11.5t-15.5 -33.5q0 -20 16 -30.5t40 -10.5z" />
    <glyph glyph-name="seveneighths" unicode="&#x215e;" horiz-adv-x="686" 
d="M59 292q0 85 32 139t88 84h-164v42h209v-41q-15 -9 -34.5 -23.5t-38.5 -39.5t-31.5 -64t-12.5 -97h-48zM145 4l-41 32l221 263l199 262l40 -32l-210 -253zM557 -12q-48 0 -80.5 21.5t-32.5 59.5q0 27 18 47t49 27q-22 3 -33 14t-14.5 24t-3.5 21q0 34 27 54.5t70 20.5
q44 0 71 -21t27 -54q0 -8 -3.5 -21t-14.5 -24t-34 -14q31 -7 49.5 -26.5t18.5 -47.5q0 -39 -33 -60t-81 -21zM557 26q32 0 50 14.5t18 36.5q0 26 -18 39t-50 13q-31 0 -49 -13t-18 -39q0 -22 18 -36.5t49 -14.5zM557 153q26 0 41 10.5t15 30.5q0 22 -15.5 33.5t-40.5 11.5
t-40.5 -11.5t-15.5 -33.5q0 -20 16 -30.5t40 -10.5z" />
    <glyph glyph-name="arrowleft" unicode="&#x2190;" horiz-adv-x="406" 
d="M35 195v66q43 0 66 14t33.5 33t13 34t2.5 16h53q0 -1 -2 -18t-9.5 -40.5t-25 -48t-49.5 -40.5t-82 -16zM150 98q0 2 -2.5 16.5t-13 33.5t-34 33t-65.5 14v66q50 0 82 -16.5t49.5 -40.5t25 -48.5t9.5 -41l2 -16.5h-53zM35 195v66h336v-66h-336z" />
    <glyph glyph-name="arrowup" unicode="&#x2191;" horiz-adv-x="330" 
d="M295 279l-16.5 2t-41 9.5t-48.5 25.5t-40.5 49.5t-16.5 81.5h66q0 -42 14 -65.5t33 -34t34 -12.5t16 -2v-54zM132 111v336h66v-336h-66zM35 279v54q2 0 16.5 2t33.5 12.5t33 34t14 65.5h66q0 -50 -16 -81.5t-40.5 -49.5t-48.5 -25.5t-40.5 -9.5t-17.5 -2z" />
    <glyph glyph-name="arrowright" unicode="&#x2192;" horiz-adv-x="406" 
d="M371 195q-50 0 -81.5 16t-49.5 40.5t-25.5 48t-9.5 40.5t-2 18h54q0 -1 2 -16t12.5 -34t34 -33t65.5 -14v-66zM35 195v66h336v-66h-336zM203 98l2 16.5t9.5 41t25.5 48.5t49.5 40.5t81.5 16.5v-66q-42 0 -65.5 -14t-34 -33t-12.5 -33.5t-2 -16.5h-54z" />
    <glyph glyph-name="arrowdown" unicode="&#x2193;" horiz-adv-x="330" 
d="M132 111q0 50 16.5 82t40.5 49.5t48.5 25t41 9.5l16.5 2v-53q-1 0 -16 -2.5t-34 -13t-33 -34t-14 -65.5h-66zM132 111q0 43 -14 66t-33 33.5t-33.5 13t-16.5 2.5v53q1 0 17.5 -2t40.5 -9.5t48.5 -25t40.5 -49.5t16 -82h-66zM132 111v336h66v-336h-66z" />
    <glyph glyph-name="arrowboth" unicode="&#x2194;" horiz-adv-x="532" 
d="M497 194q-50 0 -81.5 16.5t-49.5 40.5t-25.5 48t-9.5 40.5t-2 17.5h54q0 -1 2 -16t12.5 -34t34 -33t65.5 -14v-66zM150 97q0 2 -2.5 16.5t-13 33.5t-34 33t-65.5 14v66q50 0 82 -16.5t49.5 -40.5t25 -48.5t9.5 -41l2 -16.5h-53zM35 194v66q43 0 66 14t33.5 33t13 34
t2.5 16h53q0 -1 -2 -17.5t-9.5 -40.5t-25 -48t-49.5 -40.5t-82 -16.5zM35 194v66h336v-66h-336zM161 194v66h336v-66h-336zM329 97l2 16.5t9.5 41t25.5 48.5t49.5 40.5t81.5 16.5v-66q-42 0 -65.5 -14t-34 -33t-12.5 -33.5t-2 -16.5h-54z" />
    <glyph glyph-name="arrowupdn" unicode="&#x2195;" horiz-adv-x="330" 
d="M295 279l-16.5 2t-41 9.5t-48.5 25.5t-40.5 49.5t-16.5 81.5h66q0 -42 14 -65.5t33 -34t34 -12.5t16 -2v-54zM132 -15q0 43 -14 66t-33 33.5t-33.5 13t-16.5 2.5v53q1 0 17.5 -2t40.5 -9.5t48.5 -25t40.5 -49.5t16 -82h-66zM132 -15q0 50 16.5 82t40.5 49.5t48.5 25
t41 9.5l16.5 2v-53q-1 0 -16 -2.5t-34 -13t-33 -34t-14 -65.5h-66zM132 -15v336h66v-336h-66zM132 111v336h66v-336h-66zM35 279v54q2 0 16.5 2t33.5 12.5t33 34t14 65.5h66q0 -50 -16 -81.5t-40.5 -49.5t-48.5 -25.5t-40.5 -9.5t-17.5 -2z" />
    <glyph glyph-name="uni2196" unicode="&#x2196;" horiz-adv-x="368" 
d="M262 139l-244 245l48 44l245 -244zM68 196l-38 38q1 1 10.5 13t16 32t-0.5 47t-38 58l48 44q35 -35 46 -68.5t6 -63t-16.5 -52t-22.5 -35.5zM252 380q-1 -1 -14 -11.5t-35.5 -22t-52 -15.5t-63.5 7t-69 46l48 44q31 -31 57.5 -37t46.5 0.5t31.5 16t12.5 10.5z" />
    <glyph glyph-name="uni2197" unicode="&#x2197;" horiz-adv-x="368" 
d="M66 139l-48 45l245 244l48 -44zM261 196l-11 13t-23 35.5t-17 52t6 63t47 68.5l48 -44q-31 -31 -38 -58t-0.5 -47t15.5 -32t10 -13zM76 380l39 38q1 -1 12.5 -10.5t31.5 -16t46.5 -0.5t57.5 37l48 -44q-36 -35 -69.5 -46t-63.5 -7t-52.5 15.5t-35.5 22t-14 11.5z" />
    <glyph glyph-name="uni2198" unicode="&#x2198;" horiz-adv-x="368" 
d="M285 127l-250 250l48 44l250 -249zM285 127q-31 31 -57.5 37.5t-46.5 0t-31.5 -16t-12.5 -10.5l-38 38q1 0 14 10.5t35.5 22t52 16t63.5 -6.5t69 -46zM285 127q-35 36 -46 69.5t-6 63t16.5 52t22.5 35l11 12.5l38 -38q-1 -1 -10.5 -12.5t-16 -31.5t0.5 -47t38 -58z" />
    <glyph glyph-name="uni2199" unicode="&#x2199;" horiz-adv-x="462" 
d="M83 127l-48 45l250 249l48 -44zM83 127l-48 45q31 31 38 58t1 47t-15.5 31.5t-10.5 12.5l38 38l10.5 -12.5t22.5 -35t17 -52t-6 -63t-47 -69.5zM83 127l-48 45q36 35 69.5 46t63.5 6.5t52.5 -16t35.5 -22l13 -10.5l-37 -38q-1 1 -12.5 10.5t-31.5 16t-46.5 0t-58.5 -37.5
z" />
    <glyph glyph-name="uni21A9" unicode="&#x21a9;" horiz-adv-x="468" 
d="M35 212v26q42 0 65 14t33.5 33t13 34t2.5 16h25q0 -1 -1.5 -13.5t-8 -30.5t-21.5 -36.5t-41 -30.5t-67 -12zM433 212h-398v26h398v-26zM174 115h-25q0 2 -2.5 16.5t-13 33.5t-33.5 33t-65 14v26q41 0 67 -12.5t41 -30.5t21.5 -36.5t8 -31zM405 404h28v-192h-28v192z" />
    <glyph glyph-name="carriagereturn" unicode="&#x21b5;" horiz-adv-x="468" 
d="M35 212v26q42 0 65 14t33.5 33t13 34t2.5 16h25q0 -1 -1.5 -13.5t-8 -30.5t-21.5 -36.5t-41 -30.5t-67 -12zM433 212h-398v26h398v-26zM174 115h-25q0 2 -2.5 16.5t-13 33.5t-33.5 33t-65 14v26q41 0 67 -12.5t41 -30.5t21.5 -36.5t8 -31zM405 404h28v-192h-28v192z" />
    <glyph glyph-name="minus" unicode="&#x2212;" horiz-adv-x="385" 
d="M82 195v60h222v-60h-222z" />
    <glyph glyph-name="uni2215" unicode="&#x2215;" horiz-adv-x="369" 
d="M25 0l254 563h80l-254 -563h-80z" />
    <glyph glyph-name="notequal" unicode="&#x2260;" horiz-adv-x="385" 
d="M70 36l153 342h80l-153 -342h-80zM45 111v57h296v-57h-296zM45 244v57h296v-57h-296z" />
    <glyph glyph-name="uni240D" unicode="&#x240d;" horiz-adv-x="586" 
d="M168 180q-55 0 -91.5 35.5t-36.5 105.5t36 104.5t94 34.5q44 0 76 -23.5t41 -73.5h-13q-8 41 -35 63.5t-69 22.5q-53 0 -85.5 -33t-32.5 -95q0 -64 32 -96.5t84 -32.5q46 0 73.5 22.5t34.5 62.5h14q-9 -48 -41 -72.5t-81 -24.5zM339 184v268h78q50 0 76.5 -15t26.5 -59
q0 -25 -15.5 -46.5t-48.5 -21.5q28 0 39 -13.5t12.5 -33t1 -38t3 -28.5t19.5 -5v-11l-8.5 -0.5t-17 5.5t-8.5 27q0 39 -4 58t-17.5 25.5t-43 6.5h-80.5v-119h-13zM352 316h77q40 0 59.5 14t19.5 48q0 39 -23.5 50t-67.5 11h-65v-123z" />
    <glyph glyph-name="I.ss01" horiz-adv-x="501" 
d="M214 -69q-1 127 -2.5 211.5t-9 135.5t-26 76.5t-52 34t-89.5 8.5v66q66 0 103 12.5t53 39.5t19.5 71t3.5 108h67q0 -64 3.5 -108t20 -71t54.5 -39.5t107 -12.5v-66q-57 0 -92.5 -8.5t-55 -34t-28 -76.5t-10 -135.5t-1.5 -211.5h-65zM245 210h6q0 66 1.5 108.5t7.5 66.5
t21.5 33.5t45.5 9.5q-39 0 -55 9t-18.5 28.5t-2.5 50.5h-6q0 -31 -2.5 -50.5t-18.5 -28.5t-55 -9q31 0 47 -9.5t21.5 -33.5t6.5 -66t1 -109z" />
    <glyph glyph-name="N_o.dlig" horiz-adv-x="871" 
d="M717 327q-58 0 -86 34t-28 86t28 86t86 34q56 0 84.5 -33t28.5 -87q0 -51 -27.5 -85.5t-85.5 -34.5zM601 207v60h230v-60h-230zM717 380q20 0 32 10t17 25.5t5 32.5q0 16 -5 31.5t-17 25.5t-32 10q-22 0 -34 -10t-17 -25.5t-5 -31.5q0 -17 5 -32.5t17 -25.5t34 -10z
M451 563h85v-563h-157l-237 526h-2v-526h-85v563h147l247 -526h2v526z" />
    <glyph glyph-name="i.loclTRK" horiz-adv-x="184" 
d="M50 0v409h83v-409h-83zM92 466q-29 0 -39 15t-10 35q0 19 10 33.5t39 14.5q30 0 39 -14.5t9 -33.5q0 -20 -9 -35t-39 -15z" />
    <glyph glyph-name="a.ss01" horiz-adv-x="473" 
d="M381 -9q-24 0 -39.5 8.5t-23.5 21.5t-10.5 29t-2.5 31v200q0 21 -12 36t-31 23t-42 8q-22 0 -44 -8.5t-36.5 -27t-14.5 -48.5h-78q3 52 29 84.5t65 47t80 14.5q42 0 80 -14t62.5 -44.5t24.5 -79.5v-165q0 -19 4.5 -31.5t13 -17t19 -4t21.5 6.5l4 -48q-1 0 -9 -6t-23 -11
t-37 -5zM143 -9q-53 0 -86 29t-33 77q0 33 15.5 55t41 35.5t57 22.5t63.5 16q44 10 66.5 17t30 15.5t7.5 22.5l3 -145q-19 -64 -60 -104.5t-105 -40.5zM174 53q33 1 62.5 25.5t48 63t18.5 83.5q-9 -8 -32 -14.5t-45 -12.5q-31 -8 -58.5 -19t-43.5 -28.5t-16 -44.5
q1 -27 20 -40.5t46 -12.5z" />
    <glyph glyph-name="aacute.ss01" horiz-adv-x="473" 
d="M381 -9q-24 0 -39.5 8.5t-23.5 21.5t-10.5 29t-2.5 31v200q0 21 -12 36t-31 23t-42 8q-22 0 -44 -8.5t-36.5 -27t-14.5 -48.5h-78q3 52 29 84.5t65 47t80 14.5q42 0 80 -14t62.5 -44.5t24.5 -79.5v-165q0 -19 4.5 -31.5t13 -17t19 -4t21.5 6.5l4 -48q-1 0 -9 -6t-23 -11
t-37 -5zM143 -9q-53 0 -86 29t-33 77q0 33 15.5 55t41 35.5t57 22.5t63.5 16q44 10 66.5 17t30 15.5t7.5 22.5l3 -145q-19 -64 -60 -104.5t-105 -40.5zM174 53q33 1 62.5 25.5t48 63t18.5 83.5q-9 -8 -32 -14.5t-45 -12.5q-31 -8 -58.5 -19t-43.5 -28.5t-16 -44.5
q1 -27 20 -40.5t46 -12.5zM250 453h-39v11l48 102h72v-17z" />
    <glyph glyph-name="abreve.ss01" horiz-adv-x="473" 
d="M381 -9q-24 0 -39.5 8.5t-23.5 21.5t-10.5 29t-2.5 31v200q0 21 -12 36t-31 23t-42 8q-22 0 -44 -8.5t-36.5 -27t-14.5 -48.5h-78q3 52 29 84.5t65 47t80 14.5q42 0 80 -14t62.5 -44.5t24.5 -79.5v-165q0 -19 4.5 -31.5t13 -17t19 -4t21.5 6.5l4 -48q-1 0 -9 -6t-23 -11
t-37 -5zM143 -9q-53 0 -86 29t-33 77q0 33 15.5 55t41 35.5t57 22.5t63.5 16q44 10 66.5 17t30 15.5t7.5 22.5l3 -145q-19 -64 -60 -104.5t-105 -40.5zM174 53q33 1 62.5 25.5t48 63t18.5 83.5q-9 -8 -32 -14.5t-45 -12.5q-31 -8 -58.5 -19t-43.5 -28.5t-16 -44.5
q1 -27 20 -40.5t46 -12.5zM231 462q-59 0 -92 26.5t-33 70.5h59q0 -29 19 -38.5t46 -9.5q28 0 46 9t18 39h60q0 -44 -32 -70.5t-91 -26.5z" />
    <glyph glyph-name="uni1EAF.ss01" horiz-adv-x="473" 
d="M381 -9q-24 0 -39.5 8.5t-23.5 21.5t-10.5 29t-2.5 31v200q0 21 -12 36t-31 23t-42 8q-22 0 -44 -8.5t-36.5 -27t-14.5 -48.5h-78q3 52 29 84.5t65 47t80 14.5q42 0 80 -14t62.5 -44.5t24.5 -79.5v-165q0 -19 4.5 -31.5t13 -17t19 -4t21.5 6.5l4 -48q-1 0 -9 -6t-23 -11
t-37 -5zM143 -9q-53 0 -86 29t-33 77q0 33 15.5 55t41 35.5t57 22.5t63.5 16q44 10 66.5 17t30 15.5t7.5 22.5l3 -145q-19 -64 -60 -104.5t-105 -40.5zM174 53q33 1 62.5 25.5t48 63t18.5 83.5q-9 -8 -32 -14.5t-45 -12.5q-31 -8 -58.5 -19t-43.5 -28.5t-16 -44.5
q1 -27 20 -40.5t46 -12.5zM231 462q-59 0 -92 26.5t-33 70.5h59q0 -29 19 -38.5t46 -9.5q28 0 46 9t18 39h60q0 -44 -32 -70.5t-91 -26.5zM250 588h-39v11l48 102h72v-17z" />
    <glyph glyph-name="uni1EB7.ss01" horiz-adv-x="473" 
d="M381 -9q-24 0 -39.5 8.5t-23.5 21.5t-10.5 29t-2.5 31v200q0 21 -12 36t-31 23t-42 8q-22 0 -44 -8.5t-36.5 -27t-14.5 -48.5h-78q3 52 29 84.5t65 47t80 14.5q42 0 80 -14t62.5 -44.5t24.5 -79.5v-165q0 -19 4.5 -31.5t13 -17t19 -4t21.5 6.5l4 -48q-1 0 -9 -6t-23 -11
t-37 -5zM143 -9q-53 0 -86 29t-33 77q0 33 15.5 55t41 35.5t57 22.5t63.5 16q44 10 66.5 17t30 15.5t7.5 22.5l3 -145q-19 -64 -60 -104.5t-105 -40.5zM174 53q33 1 62.5 25.5t48 63t18.5 83.5q-9 -8 -32 -14.5t-45 -12.5q-31 -8 -58.5 -19t-43.5 -28.5t-16 -44.5
q1 -27 20 -40.5t46 -12.5zM237 -166q-29 0 -39 15t-10 35q0 19 10 33.5t39 14.5q30 0 39 -14.5t9 -33.5q0 -20 -9 -35t-39 -15zM231 462q-59 0 -92 26.5t-33 70.5h59q0 -29 19 -38.5t46 -9.5q28 0 46 9t18 39h60q0 -44 -32 -70.5t-91 -26.5z" />
    <glyph glyph-name="uni1EB1.ss01" horiz-adv-x="473" 
d="M381 -9q-24 0 -39.5 8.5t-23.5 21.5t-10.5 29t-2.5 31v200q0 21 -12 36t-31 23t-42 8q-22 0 -44 -8.5t-36.5 -27t-14.5 -48.5h-78q3 52 29 84.5t65 47t80 14.5q42 0 80 -14t62.5 -44.5t24.5 -79.5v-165q0 -19 4.5 -31.5t13 -17t19 -4t21.5 6.5l4 -48q-1 0 -9 -6t-23 -11
t-37 -5zM143 -9q-53 0 -86 29t-33 77q0 33 15.5 55t41 35.5t57 22.5t63.5 16q44 10 66.5 17t30 15.5t7.5 22.5l3 -145q-19 -64 -60 -104.5t-105 -40.5zM174 53q33 1 62.5 25.5t48 63t18.5 83.5q-9 -8 -32 -14.5t-45 -12.5q-31 -8 -58.5 -19t-43.5 -28.5t-16 -44.5
q1 -27 20 -40.5t46 -12.5zM231 462q-59 0 -92 26.5t-33 70.5h59q0 -29 19 -38.5t46 -9.5q28 0 46 9t18 39h60q0 -44 -32 -70.5t-91 -26.5zM214 588l-81 96v17h72l48 -102v-11h-39z" />
    <glyph glyph-name="uni1EB3.ss01" horiz-adv-x="473" 
d="M381 -9q-24 0 -39.5 8.5t-23.5 21.5t-10.5 29t-2.5 31v200q0 21 -12 36t-31 23t-42 8q-22 0 -44 -8.5t-36.5 -27t-14.5 -48.5h-78q3 52 29 84.5t65 47t80 14.5q42 0 80 -14t62.5 -44.5t24.5 -79.5v-165q0 -19 4.5 -31.5t13 -17t19 -4t21.5 6.5l4 -48q-1 0 -9 -6t-23 -11
t-37 -5zM143 -9q-53 0 -86 29t-33 77q0 33 15.5 55t41 35.5t57 22.5t63.5 16q44 10 66.5 17t30 15.5t7.5 22.5l3 -145q-19 -64 -60 -104.5t-105 -40.5zM174 53q33 1 62.5 25.5t48 63t18.5 83.5q-9 -8 -32 -14.5t-45 -12.5q-31 -8 -58.5 -19t-43.5 -28.5t-16 -44.5
q1 -27 20 -40.5t46 -12.5zM231 462q-59 0 -92 26.5t-33 70.5h59q0 -29 19 -38.5t46 -9.5q28 0 46 9t18 39h60q0 -44 -32 -70.5t-91 -26.5zM200 596v13q5 13 20 22.5t28.5 20t13.5 27.5q0 13 -9.5 19.5t-22.5 6.5q-12 0 -24 -7t-17 -21l-37 21q9 30 33.5 45t51.5 15
q29 0 53 -17t24 -53q0 -28 -13 -42.5t-27 -25t-18 -24.5h-56z" />
    <glyph glyph-name="uni1EB5.ss01" horiz-adv-x="473" 
d="M381 -9q-24 0 -39.5 8.5t-23.5 21.5t-10.5 29t-2.5 31v200q0 21 -12 36t-31 23t-42 8q-22 0 -44 -8.5t-36.5 -27t-14.5 -48.5h-78q3 52 29 84.5t65 47t80 14.5q42 0 80 -14t62.5 -44.5t24.5 -79.5v-165q0 -19 4.5 -31.5t13 -17t19 -4t21.5 6.5l4 -48q-1 0 -9 -6t-23 -11
t-37 -5zM143 -9q-53 0 -86 29t-33 77q0 33 15.5 55t41 35.5t57 22.5t63.5 16q44 10 66.5 17t30 15.5t7.5 22.5l3 -145q-19 -64 -60 -104.5t-105 -40.5zM174 53q33 1 62.5 25.5t48 63t18.5 83.5q-9 -8 -32 -14.5t-45 -12.5q-31 -8 -58.5 -19t-43.5 -28.5t-16 -44.5
q1 -27 20 -40.5t46 -12.5zM233 462q-59 0 -92 26.5t-33 70.5h59q0 -29 19 -38.5t46 -9.5q28 0 46 9t18 39h60q0 -44 -32 -70.5t-91 -26.5zM108 608q0 15 1 32t7.5 33.5t21 27t40.5 10.5q25 0 39.5 -8.5t23.5 -19.5t18.5 -19.5t22.5 -8.5q17 0 20 14.5t3 39.5h51
q1 -17 -1 -35.5t-9 -33.5t-21 -24.5t-39 -9.5q-24 0 -38.5 8.5t-24 19t-18 19t-22.5 8.5q-17 0 -20.5 -13.5t-2.5 -39.5h-52z" />
    <glyph glyph-name="acircumflex.ss01" horiz-adv-x="473" 
d="M381 -9q-24 0 -39.5 8.5t-23.5 21.5t-10.5 29t-2.5 31v200q0 21 -12 36t-31 23t-42 8q-22 0 -44 -8.5t-36.5 -27t-14.5 -48.5h-78q3 52 29 84.5t65 47t80 14.5q42 0 80 -14t62.5 -44.5t24.5 -79.5v-165q0 -19 4.5 -31.5t13 -17t19 -4t21.5 6.5l4 -48q-1 0 -9 -6t-23 -11
t-37 -5zM143 -9q-53 0 -86 29t-33 77q0 33 15.5 55t41 35.5t57 22.5t63.5 16q44 10 66.5 17t30 15.5t7.5 22.5l3 -145q-19 -64 -60 -104.5t-105 -40.5zM174 53q33 1 62.5 25.5t48 63t18.5 83.5q-9 -8 -32 -14.5t-45 -12.5q-31 -8 -58.5 -19t-43.5 -28.5t-16 -44.5
q1 -27 20 -40.5t46 -12.5zM98 465v8l114 106h36l113 -106v-8h-75l-54 59h-4l-52 -59h-78z" />
    <glyph glyph-name="uni1EA5.ss01" horiz-adv-x="473" 
d="M381 -9q-24 0 -39.5 8.5t-23.5 21.5t-10.5 29t-2.5 31v200q0 21 -12 36t-31 23t-42 8q-22 0 -44 -8.5t-36.5 -27t-14.5 -48.5h-78q3 52 29 84.5t65 47t80 14.5q42 0 80 -14t62.5 -44.5t24.5 -79.5v-165q0 -19 4.5 -31.5t13 -17t19 -4t21.5 6.5l4 -48q-1 0 -9 -6t-23 -11
t-37 -5zM143 -9q-53 0 -86 29t-33 77q0 33 15.5 55t41 35.5t57 22.5t63.5 16q44 10 66.5 17t30 15.5t7.5 22.5l3 -145q-19 -64 -60 -104.5t-105 -40.5zM174 53q33 1 62.5 25.5t48 63t18.5 83.5q-9 -8 -32 -14.5t-45 -12.5q-31 -8 -58.5 -19t-43.5 -28.5t-16 -44.5
q1 -27 20 -40.5t46 -12.5zM100 465v8l114 106h36l113 -106v-8h-75l-54 59h-4l-52 -59h-78zM365 554h-39v11l48 102h72v-17z" />
    <glyph glyph-name="uni1EAD.ss01" horiz-adv-x="473" 
d="M381 -9q-24 0 -39.5 8.5t-23.5 21.5t-10.5 29t-2.5 31v200q0 21 -12 36t-31 23t-42 8q-22 0 -44 -8.5t-36.5 -27t-14.5 -48.5h-78q3 52 29 84.5t65 47t80 14.5q42 0 80 -14t62.5 -44.5t24.5 -79.5v-165q0 -19 4.5 -31.5t13 -17t19 -4t21.5 6.5l4 -48q-1 0 -9 -6t-23 -11
t-37 -5zM143 -9q-53 0 -86 29t-33 77q0 33 15.5 55t41 35.5t57 22.5t63.5 16q44 10 66.5 17t30 15.5t7.5 22.5l3 -145q-19 -64 -60 -104.5t-105 -40.5zM174 53q33 1 62.5 25.5t48 63t18.5 83.5q-9 -8 -32 -14.5t-45 -12.5q-31 -8 -58.5 -19t-43.5 -28.5t-16 -44.5
q1 -27 20 -40.5t46 -12.5zM237 -166q-29 0 -39 15t-10 35q0 19 10 33.5t39 14.5q30 0 39 -14.5t9 -33.5q0 -20 -9 -35t-39 -15zM98 465v8l114 106h36l113 -106v-8h-75l-54 59h-4l-52 -59h-78z" />
    <glyph glyph-name="uni1EA7.ss01" horiz-adv-x="473" 
d="M381 -9q-24 0 -39.5 8.5t-23.5 21.5t-10.5 29t-2.5 31v200q0 21 -12 36t-31 23t-42 8q-22 0 -44 -8.5t-36.5 -27t-14.5 -48.5h-78q3 52 29 84.5t65 47t80 14.5q42 0 80 -14t62.5 -44.5t24.5 -79.5v-165q0 -19 4.5 -31.5t13 -17t19 -4t21.5 6.5l4 -48q-1 0 -9 -6t-23 -11
t-37 -5zM143 -9q-53 0 -86 29t-33 77q0 33 15.5 55t41 35.5t57 22.5t63.5 16q44 10 66.5 17t30 15.5t7.5 22.5l3 -145q-19 -64 -60 -104.5t-105 -40.5zM174 53q33 1 62.5 25.5t48 63t18.5 83.5q-9 -8 -32 -14.5t-45 -12.5q-31 -8 -58.5 -19t-43.5 -28.5t-16 -44.5
q1 -27 20 -40.5t46 -12.5zM357 554l-81 96v17h72l48 -102v-11h-39zM95 463v8l114 106h36l113 -106v-8h-75l-54 59h-4l-52 -59h-78z" />
    <glyph glyph-name="uni1EA9.ss01" horiz-adv-x="473" 
d="M381 -9q-24 0 -39.5 8.5t-23.5 21.5t-10.5 29t-2.5 31v200q0 21 -12 36t-31 23t-42 8q-22 0 -44 -8.5t-36.5 -27t-14.5 -48.5h-78q3 52 29 84.5t65 47t80 14.5q42 0 80 -14t62.5 -44.5t24.5 -79.5v-165q0 -19 4.5 -31.5t13 -17t19 -4t21.5 6.5l4 -48q-1 0 -9 -6t-23 -11
t-37 -5zM143 -9q-53 0 -86 29t-33 77q0 33 15.5 55t41 35.5t57 22.5t63.5 16q44 10 66.5 17t30 15.5t7.5 22.5l3 -145q-19 -64 -60 -104.5t-105 -40.5zM174 53q33 1 62.5 25.5t48 63t18.5 83.5q-9 -8 -32 -14.5t-45 -12.5q-31 -8 -58.5 -19t-43.5 -28.5t-16 -44.5
q1 -27 20 -40.5t46 -12.5zM95 463v8l114 106h36l113 -106v-8h-75l-54 59h-4l-52 -59h-78zM316 552v13q5 13 20 22.5t28.5 20t13.5 27.5q0 13 -9.5 19.5t-22.5 6.5q-12 0 -24 -7t-17 -21l-37 21q9 30 33.5 45t51.5 15q29 0 53 -17t24 -53q0 -28 -13 -42.5t-27 -25t-18 -24.5
h-56z" />
    <glyph glyph-name="uni1EAB.ss01" horiz-adv-x="473" 
d="M381 -9q-24 0 -39.5 8.5t-23.5 21.5t-10.5 29t-2.5 31v200q0 21 -12 36t-31 23t-42 8q-22 0 -44 -8.5t-36.5 -27t-14.5 -48.5h-78q3 52 29 84.5t65 47t80 14.5q42 0 80 -14t62.5 -44.5t24.5 -79.5v-165q0 -19 4.5 -31.5t13 -17t19 -4t21.5 6.5l4 -48q-1 0 -9 -6t-23 -11
t-37 -5zM143 -9q-53 0 -86 29t-33 77q0 33 15.5 55t41 35.5t57 22.5t63.5 16q44 10 66.5 17t30 15.5t7.5 22.5l3 -145q-19 -64 -60 -104.5t-105 -40.5zM174 53q33 1 62.5 25.5t48 63t18.5 83.5q-9 -8 -32 -14.5t-45 -12.5q-31 -8 -58.5 -19t-43.5 -28.5t-16 -44.5
q1 -27 20 -40.5t46 -12.5zM99 463v8l114 106h36l113 -106v-8h-75l-54 59h-4l-52 -59h-78zM103 616q0 15 1 32t7.5 33.5t21 27t40.5 10.5q25 0 39.5 -8.5t23.5 -19.5t18.5 -19.5t22.5 -8.5q17 0 20 14.5t3 39.5h51q1 -17 -1 -35.5t-9 -33.5t-21 -24.5t-39 -9.5
q-24 0 -38.5 8.5t-24 19t-18 19t-22.5 8.5q-17 0 -20.5 -13.5t-2.5 -39.5h-52z" />
    <glyph glyph-name="adieresis.ss01" horiz-adv-x="473" 
d="M381 -9q-24 0 -39.5 8.5t-23.5 21.5t-10.5 29t-2.5 31v200q0 21 -12 36t-31 23t-42 8q-22 0 -44 -8.5t-36.5 -27t-14.5 -48.5h-78q3 52 29 84.5t65 47t80 14.5q42 0 80 -14t62.5 -44.5t24.5 -79.5v-165q0 -19 4.5 -31.5t13 -17t19 -4t21.5 6.5l4 -48q-1 0 -9 -6t-23 -11
t-37 -5zM143 -9q-53 0 -86 29t-33 77q0 33 15.5 55t41 35.5t57 22.5t63.5 16q44 10 66.5 17t30 15.5t7.5 22.5l3 -145q-19 -64 -60 -104.5t-105 -40.5zM174 53q33 1 62.5 25.5t48 63t18.5 83.5q-9 -8 -32 -14.5t-45 -12.5q-31 -8 -58.5 -19t-43.5 -28.5t-16 -44.5
q1 -27 20 -40.5t46 -12.5zM146 460q-32 0 -43.5 16.5t-11.5 38.5q0 21 11.5 37.5t43.5 16.5q33 0 43.5 -16.5t10.5 -37.5q0 -22 -11 -38.5t-43 -16.5zM315 460q-32 0 -43.5 16.5t-11.5 38.5q0 21 11.5 37.5t43.5 16.5q33 0 43.5 -16.5t10.5 -37.5q0 -22 -11 -38.5t-43 -16.5
z" />
    <glyph glyph-name="uni1EA1.ss01" horiz-adv-x="473" 
d="M381 -9q-24 0 -39.5 8.5t-23.5 21.5t-10.5 29t-2.5 31v200q0 21 -12 36t-31 23t-42 8q-22 0 -44 -8.5t-36.5 -27t-14.5 -48.5h-78q3 52 29 84.5t65 47t80 14.5q42 0 80 -14t62.5 -44.5t24.5 -79.5v-165q0 -19 4.5 -31.5t13 -17t19 -4t21.5 6.5l4 -48q-1 0 -9 -6t-23 -11
t-37 -5zM143 -9q-53 0 -86 29t-33 77q0 33 15.5 55t41 35.5t57 22.5t63.5 16q44 10 66.5 17t30 15.5t7.5 22.5l3 -145q-19 -64 -60 -104.5t-105 -40.5zM174 53q33 1 62.5 25.5t48 63t18.5 83.5q-9 -8 -32 -14.5t-45 -12.5q-31 -8 -58.5 -19t-43.5 -28.5t-16 -44.5
q1 -27 20 -40.5t46 -12.5zM237 -166q-29 0 -39 15t-10 35q0 19 10 33.5t39 14.5q30 0 39 -14.5t9 -33.5q0 -20 -9 -35t-39 -15z" />
    <glyph glyph-name="agrave.ss01" horiz-adv-x="473" 
d="M381 -9q-24 0 -39.5 8.5t-23.5 21.5t-10.5 29t-2.5 31v200q0 21 -12 36t-31 23t-42 8q-22 0 -44 -8.5t-36.5 -27t-14.5 -48.5h-78q3 52 29 84.5t65 47t80 14.5q42 0 80 -14t62.5 -44.5t24.5 -79.5v-165q0 -19 4.5 -31.5t13 -17t19 -4t21.5 6.5l4 -48q-1 0 -9 -6t-23 -11
t-37 -5zM143 -9q-53 0 -86 29t-33 77q0 33 15.5 55t41 35.5t57 22.5t63.5 16q44 10 66.5 17t30 15.5t7.5 22.5l3 -145q-19 -64 -60 -104.5t-105 -40.5zM174 53q33 1 62.5 25.5t48 63t18.5 83.5q-9 -8 -32 -14.5t-45 -12.5q-31 -8 -58.5 -19t-43.5 -28.5t-16 -44.5
q1 -27 20 -40.5t46 -12.5zM214 453l-81 96v17h72l48 -102v-11h-39z" />
    <glyph glyph-name="uni1EA3.ss01" horiz-adv-x="473" 
d="M381 -9q-24 0 -39.5 8.5t-23.5 21.5t-10.5 29t-2.5 31v200q0 21 -12 36t-31 23t-42 8q-22 0 -44 -8.5t-36.5 -27t-14.5 -48.5h-78q3 52 29 84.5t65 47t80 14.5q42 0 80 -14t62.5 -44.5t24.5 -79.5v-165q0 -19 4.5 -31.5t13 -17t19 -4t21.5 6.5l4 -48q-1 0 -9 -6t-23 -11
t-37 -5zM143 -9q-53 0 -86 29t-33 77q0 33 15.5 55t41 35.5t57 22.5t63.5 16q44 10 66.5 17t30 15.5t7.5 22.5l3 -145q-19 -64 -60 -104.5t-105 -40.5zM174 53q33 1 62.5 25.5t48 63t18.5 83.5q-9 -8 -32 -14.5t-45 -12.5q-31 -8 -58.5 -19t-43.5 -28.5t-16 -44.5
q1 -27 20 -40.5t46 -12.5zM200 461v13q5 13 20 22.5t28.5 20t13.5 27.5q0 13 -9.5 19.5t-22.5 6.5q-12 0 -24 -7t-17 -21l-37 21q9 30 33.5 45t51.5 15q29 0 53 -17t24 -53q0 -28 -13 -42.5t-27 -25t-18 -24.5h-56z" />
    <glyph glyph-name="amacron.ss01" horiz-adv-x="473" 
d="M381 -9q-24 0 -39.5 8.5t-23.5 21.5t-10.5 29t-2.5 31v200q0 21 -12 36t-31 23t-42 8q-22 0 -44 -8.5t-36.5 -27t-14.5 -48.5h-78q3 52 29 84.5t65 47t80 14.5q42 0 80 -14t62.5 -44.5t24.5 -79.5v-165q0 -19 4.5 -31.5t13 -17t19 -4t21.5 6.5l4 -48q-1 0 -9 -6t-23 -11
t-37 -5zM143 -9q-53 0 -86 29t-33 77q0 33 15.5 55t41 35.5t57 22.5t63.5 16q44 10 66.5 17t30 15.5t7.5 22.5l3 -145q-19 -64 -60 -104.5t-105 -40.5zM174 53q33 1 62.5 25.5t48 63t18.5 83.5q-9 -8 -32 -14.5t-45 -12.5q-31 -8 -58.5 -19t-43.5 -28.5t-16 -44.5
q1 -27 20 -40.5t46 -12.5zM99 474v60h262v-60h-262z" />
    <glyph glyph-name="aogonek.ss01" horiz-adv-x="473" 
d="M397 -199q-24 0 -45.5 9.5t-35 28.5t-13.5 47q0 29 14.5 51.5t36.5 39.5t44 28.5t36.5 17l14.5 5.5l2 -38l-13 -6t-30 -18t-30 -29t-13 -38q0 -16 10.5 -26.5t28.5 -10.5q16 0 26 7.5t14.5 15l4.5 7.5l46 -39l-10.5 -13t-32 -26t-55.5 -13zM381 -9q-24 0 -39.5 8.5
t-23.5 21.5t-10.5 29t-2.5 31v200q0 21 -12 36t-31 23t-42 8q-22 0 -44 -8.5t-36.5 -27t-14.5 -48.5h-78q3 52 29 84.5t65 47t80 14.5q42 0 80 -14t62.5 -44.5t24.5 -79.5v-165q0 -19 4.5 -31.5t13 -17t19 -4t21.5 6.5l4 -48q-1 0 -9 -6t-23 -11t-37 -5zM143 -9
q-53 0 -86 29t-33 77q0 33 15.5 55t41 35.5t57 22.5t63.5 16q44 10 66.5 17t30 15.5t7.5 22.5l3 -145q-19 -64 -60 -104.5t-105 -40.5zM174 53q33 1 62.5 25.5t48 63t18.5 83.5q-9 -8 -32 -14.5t-45 -12.5q-31 -8 -58.5 -19t-43.5 -28.5t-16 -44.5q1 -27 20 -40.5t46 -12.5z
" />
    <glyph glyph-name="aring.ss01" horiz-adv-x="473" 
d="M381 -9q-24 0 -39.5 8.5t-23.5 21.5t-10.5 29t-2.5 31v200q0 21 -12 36t-31 23t-42 8q-22 0 -44 -8.5t-36.5 -27t-14.5 -48.5h-78q3 52 29 84.5t65 47t80 14.5q42 0 80 -14t62.5 -44.5t24.5 -79.5v-165q0 -19 4.5 -31.5t13 -17t19 -4t21.5 6.5l4 -48q-1 0 -9 -6t-23 -11
t-37 -5zM143 -9q-53 0 -86 29t-33 77q0 33 15.5 55t41 35.5t57 22.5t63.5 16q44 10 66.5 17t30 15.5t7.5 22.5l3 -145q-19 -64 -60 -104.5t-105 -40.5zM174 53q33 1 62.5 25.5t48 63t18.5 83.5q-9 -8 -32 -14.5t-45 -12.5q-31 -8 -58.5 -19t-43.5 -28.5t-16 -44.5
q1 -27 20 -40.5t46 -12.5zM229 469q-46 0 -70.5 25t-24.5 68q0 44 24 70t71 26t72 -26t25 -70q0 -40 -25 -66.5t-72 -26.5zM228 518q23 0 35 13.5t12 32.5t-12 33t-35 14q-22 0 -34 -14t-12 -33q0 -20 12.5 -33t33.5 -13z" />
    <glyph glyph-name="atilde.ss01" horiz-adv-x="473" 
d="M381 -9q-24 0 -39.5 8.5t-23.5 21.5t-10.5 29t-2.5 31v200q0 21 -12 36t-31 23t-42 8q-22 0 -44 -8.5t-36.5 -27t-14.5 -48.5h-78q3 52 29 84.5t65 47t80 14.5q42 0 80 -14t62.5 -44.5t24.5 -79.5v-165q0 -19 4.5 -31.5t13 -17t19 -4t21.5 6.5l4 -48q-1 0 -9 -6t-23 -11
t-37 -5zM143 -9q-53 0 -86 29t-33 77q0 33 15.5 55t41 35.5t57 22.5t63.5 16q44 10 66.5 17t30 15.5t7.5 22.5l3 -145q-19 -64 -60 -104.5t-105 -40.5zM174 53q33 1 62.5 25.5t48 63t18.5 83.5q-9 -8 -32 -14.5t-45 -12.5q-31 -8 -58.5 -19t-43.5 -28.5t-16 -44.5
q1 -27 20 -40.5t46 -12.5zM106 473q0 15 1 32t7.5 33.5t21 27t40.5 10.5q25 0 39.5 -8.5t23.5 -19.5t18.5 -19.5t22.5 -8.5q17 0 20 14.5t3 39.5h51q1 -17 -1 -35.5t-9 -33.5t-21 -24.5t-39 -9.5q-24 0 -38.5 8.5t-24 19t-18 19t-22.5 8.5q-17 0 -20.5 -13.5t-2.5 -39.5h-52
z" />
    <glyph glyph-name="f.ss01" horiz-adv-x="332" 
d="M289 277h-98v-277h-83v277h-79v66h260v-66zM166 341q-32 -1 -65.5 10.5t-56 36.5t-22.5 64q0 32 19.5 57t53 39.5t74.5 14.5q51 0 87 -20t57.5 -51.5t25.5 -66.5h-81q0 6 -4 16.5t-14 22.5t-27 20t-44 8q-24 0 -40.5 -9t-25 -23t-8.5 -28q0 -20 9.5 -37t31.5 -29
t59.5 -18.5t93.5 -4.5z" />
    <glyph glyph-name="g.ss01" 
d="M126 83q0 -20 15.5 -28t38.5 -8.5t45 -0.5q35 0 71.5 -4t68 -16.5t50.5 -36.5t19 -65q0 -43 -29 -69.5t-76.5 -39t-104.5 -12.5q-63 -1 -109.5 11t-72 38t-24.5 67q0 27 12.5 49.5t36.5 36t59 13.5q-28 3 -47 18t-19 40q0 21 15.5 33.5t38 17.5t43.5 5q-58 10 -84.5 46
t-26.5 80q0 70 48 111.5t133 41.5h49t38 5.5t15 23.5q0 21 -23 26.5t-57 -7.5l-12 57q33 11 64.5 6.5t52 -21.5t20.5 -46q0 -18 -8 -30t-19.5 -18.5t-20.5 -9.5l-12 -4q41 -13 67.5 -50.5t26.5 -84.5q0 -37 -19.5 -69t-59.5 -51t-103 -19q-22 0 -45 -0.5t-39 -7.5t-16 -28z
M131 261q0 -32 12.5 -52t34 -29t49.5 -9q48 0 70.5 23.5t22.5 66.5q0 41 -21.5 67.5t-72.5 26.5q-36 0 -57 -12.5t-29.5 -34t-8.5 -47.5zM225 -133q35 0 63.5 5.5t46 20t17.5 40.5q0 24 -16.5 38t-45.5 19.5t-65 5.5q-35 0 -63.5 -5t-45 -18.5t-16.5 -39.5q0 -27 17.5 -41.5
t46 -19.5t61.5 -5z" />
    <glyph glyph-name="gbreve.ss01" 
d="M126 83q0 -20 15.5 -28t38.5 -8.5t45 -0.5q35 0 71.5 -4t68 -16.5t50.5 -36.5t19 -65q0 -43 -29 -69.5t-76.5 -39t-104.5 -12.5q-63 -1 -109.5 11t-72 38t-24.5 67q0 27 12.5 49.5t36.5 36t59 13.5q-28 3 -47 18t-19 40q0 21 15.5 33.5t38 17.5t43.5 5q-58 10 -84.5 46
t-26.5 80q0 70 48 111.5t133 41.5h49t38 5.5t15 23.5q0 21 -23 26.5t-57 -7.5l-12 57q33 11 64.5 6.5t52 -21.5t20.5 -46q0 -18 -8 -30t-19.5 -18.5t-20.5 -9.5l-12 -4q41 -13 67.5 -50.5t26.5 -84.5q0 -37 -19.5 -69t-59.5 -51t-103 -19q-22 0 -45 -0.5t-39 -7.5t-16 -28z
M131 261q0 -32 12.5 -52t34 -29t49.5 -9q48 0 70.5 23.5t22.5 66.5q0 41 -21.5 67.5t-72.5 26.5q-36 0 -57 -12.5t-29.5 -34t-8.5 -47.5zM225 -133q35 0 63.5 5.5t46 20t17.5 40.5q0 24 -16.5 38t-45.5 19.5t-65 5.5q-35 0 -63.5 -5t-45 -18.5t-16.5 -39.5q0 -27 17.5 -41.5
t46 -19.5t61.5 -5zM219 552q-59 0 -92 26.5t-33 70.5h59q0 -29 19 -38.5t46 -9.5q28 0 46 9t18 39h60q0 -44 -32 -70.5t-91 -26.5z" />
    <glyph glyph-name="uni0123.ss01" 
d="M126 83q0 -20 15.5 -28t38.5 -8.5t45 -0.5q35 0 71.5 -4t68 -16.5t50.5 -36.5t19 -65q0 -43 -29 -69.5t-76.5 -39t-104.5 -12.5q-63 -1 -109.5 11t-72 38t-24.5 67q0 27 12.5 49.5t36.5 36t59 13.5q-28 3 -47 18t-19 40q0 21 15.5 33.5t38 17.5t43.5 5q-58 10 -84.5 46
t-26.5 80q0 70 48 111.5t133 41.5h49t38 5.5t15 23.5q0 21 -23 26.5t-57 -7.5l-12 57q33 11 64.5 6.5t52 -21.5t20.5 -46q0 -18 -8 -30t-19.5 -18.5t-20.5 -9.5l-12 -4q41 -13 67.5 -50.5t26.5 -84.5q0 -37 -19.5 -69t-59.5 -51t-103 -19q-22 0 -45 -0.5t-39 -7.5t-16 -28z
M131 261q0 -32 12.5 -52t34 -29t49.5 -9q48 0 70.5 23.5t22.5 66.5q0 41 -21.5 67.5t-72.5 26.5q-36 0 -57 -12.5t-29.5 -34t-8.5 -47.5zM225 -133q35 0 63.5 5.5t46 20t17.5 40.5q0 24 -16.5 38t-45.5 19.5t-65 5.5q-35 0 -63.5 -5t-45 -18.5t-16.5 -39.5q0 -27 17.5 -41.5
t46 -19.5t61.5 -5zM225 550h-39v11l48 102h73v-17z" />
    <glyph glyph-name="gdotaccent.ss01" 
d="M126 83q0 -20 15.5 -28t38.5 -8.5t45 -0.5q35 0 71.5 -4t68 -16.5t50.5 -36.5t19 -65q0 -43 -29 -69.5t-76.5 -39t-104.5 -12.5q-63 -1 -109.5 11t-72 38t-24.5 67q0 27 12.5 49.5t36.5 36t59 13.5q-28 3 -47 18t-19 40q0 21 15.5 33.5t38 17.5t43.5 5q-58 10 -84.5 46
t-26.5 80q0 70 48 111.5t133 41.5h49t38 5.5t15 23.5q0 21 -23 26.5t-57 -7.5l-12 57q33 11 64.5 6.5t52 -21.5t20.5 -46q0 -18 -8 -30t-19.5 -18.5t-20.5 -9.5l-12 -4q41 -13 67.5 -50.5t26.5 -84.5q0 -37 -19.5 -69t-59.5 -51t-103 -19q-22 0 -45 -0.5t-39 -7.5t-16 -28z
M131 261q0 -32 12.5 -52t34 -29t49.5 -9q48 0 70.5 23.5t22.5 66.5q0 41 -21.5 67.5t-72.5 26.5q-36 0 -57 -12.5t-29.5 -34t-8.5 -47.5zM225 -133q35 0 63.5 5.5t46 20t17.5 40.5q0 24 -16.5 38t-45.5 19.5t-65 5.5q-35 0 -63.5 -5t-45 -18.5t-16.5 -39.5q0 -27 17.5 -41.5
t46 -19.5t61.5 -5zM218 556q-29 0 -39 15t-10 35q0 19 10 33.5t39 14.5q30 0 39 -14.5t9 -33.5q0 -20 -9 -35t-39 -15z" />
    <glyph glyph-name="lcaron.ss01" horiz-adv-x="182" 
d="M50 0v563h82v-563h-82zM179 415l32 154h80l-63 -154h-49z" />
    <glyph glyph-name="x.ss01" horiz-adv-x="366" 
d="M55 348l43 43l212 -212l-43 -43zM56 180l212 211l42 -42l-211 -212z" />
    <glyph glyph-name="f_f.dlig" horiz-adv-x="542" 
d="M75 -2v490q0 44 19.5 66t62.5 22h114v-66h-113v-512h-83zM15 349v60h251v-60h-251zM339 -2v490q0 44 19.5 66t62.5 22h114v-66h-113v-512h-83zM266 349v60h264v-60h-264z" />
    <glyph glyph-name="f_i.dlig" horiz-adv-x="457" 
d="M75 -2v490q0 44 19.5 66t62.5 22h114v-66h-113v-512h-83zM15 349v60h327v-60h-327zM324 0v409h12.5h29h29h12.5v-409h-83z" />
    <glyph glyph-name="f_t.dlig" horiz-adv-x="545" 
d="M75 -2v490q0 44 19.5 66t62.5 22h114v-66h-113v-512h-83zM15 349v60h251v-60h-251zM411 0q-43 0 -62.5 22t-19.5 67v270h78v-293h96v-66h-92zM266 349v60q23 0 37 3t22 12.5t11 31t3 58.5h68v-105h94v-60h-235z" />
    <glyph glyph-name="t_t.dlig" horiz-adv-x="547" 
d="M156 0q-42 0 -62 22t-20 67v270h79v-293h95v-66h-92zM11 349v60q23 0 37.5 3t22 12.5t10.5 31t3 58.5h69v-105h115v-60h-257zM413 0q-43 0 -62.5 22t-19.5 67v270h78v-293h96v-66h-92zM268 349v60q23 0 37 3t22 12.5t11 31t3 58.5h68v-105h94v-60h-235z" />
    <glyph glyph-name="zero.dnom" horiz-adv-x="259" 
d="M130 -12q-58 0 -86.5 38.5t-28.5 106.5q0 67 27.5 105.5t87.5 38.5q59 0 86.5 -38t27.5 -106q0 -66 -27.5 -105.5t-86.5 -39.5zM129 27q38 0 55 26.5t17 79.5t-17 79.5t-55 26.5q-36 0 -53 -25.5t-17 -80.5q0 -53 16.5 -79.5t53.5 -26.5z" />
    <glyph glyph-name="one.dnom" horiz-adv-x="175" 
d="M75 12v215q-5 -23 -18 -34.5t-25.5 -16t-16.5 -4.5v53q5 -1 20 1.5t29.5 13.5t15.5 37h42v-265h-47zM30 0v42h130v-42h-130z" />
    <glyph glyph-name="two.dnom" horiz-adv-x="240" 
d="M15 0v40q6 2 27.5 14t48.5 31.5t49 42t28 46.5q9 28 -5.5 45.5t-43.5 17.5q-26 0 -42 -17.5t-12 -53.5l-44 6q-5 50 25.5 77.5t77.5 27.5q32 0 55 -13.5t33 -36.5t2 -51q-5 -22 -23 -44.5t-42 -42t-47 -32t-39 -16.5h162v-41h-210z" />
    <glyph glyph-name="three.dnom" horiz-adv-x="243" 
d="M126 -12q-48 0 -79.5 24.5t-31.5 73.5l45 7q1 -31 20 -47.5t47 -16.5q24 0 40.5 13.5t16.5 34.5q0 17 -8.5 27t-20.5 15t-24 5h-32v25h33q20 0 34 11.5t14 29.5q0 22 -15.5 35t-41.5 13q-20 0 -33 -8.5t-19.5 -21t-7.5 -23.5l-42 6q0 8 5 22t16.5 29t31 25t48.5 10
q47 0 73.5 -21t26.5 -57q0 -22 -13 -41t-37 -23q24 -3 40 -21.5t16 -44.5q0 -36 -29 -58.5t-73 -22.5z" />
    <glyph glyph-name="four.dnom" horiz-adv-x="254" 
d="M15 55v41q34 15 58 46t37.5 67.5t13.5 67.5h52q0 -48 -30.5 -98t-81.5 -83h175v-41h-224zM156 0v138h48v-138h-48z" />
    <glyph glyph-name="five.dnom" horiz-adv-x="243" 
d="M121 -12q-32 0 -54.5 11t-35 29t-16.5 37l48 7q1 -4 6 -14.5t18 -20t35 -9.5q28 0 43.5 17.5t16.5 37.5q1 21 -13.5 39.5t-44.5 18.5q-19 0 -30.5 -7t-16.5 -13t-5 -7l-49 8l15 143h177v-41h-144l-9 -86l7.5 9t24 17.5t43.5 8.5q49 0 71 -27.5t20 -62.5
q-1 -36 -29.5 -65.5t-77.5 -29.5z" />
    <glyph glyph-name="six.dnom" horiz-adv-x="248" 
d="M127 -12q-38 0 -63 19.5t-37 51.5t-12 71q0 38 13.5 71.5t40.5 54.5t66 21q29 0 46.5 -9t27.5 -20t13.5 -20l3.5 -9l-46 -10l-4 7t-14.5 14t-28.5 7q-19 0 -37.5 -14t-28.5 -41t-6 -69q1 7 9 22t26 27t45 12q47 0 69.5 -26t22.5 -58q0 -38 -26.5 -70t-79.5 -32zM130 27
q30 0 44.5 19.5t14.5 43.5q0 21 -14.5 38.5t-43.5 17.5q-27 0 -45 -20.5t-18 -47.5q5 -24 23 -37.5t39 -13.5z" />
    <glyph glyph-name="seven.dnom" horiz-adv-x="239" 
d="M59 0q0 85 32 139t88 84h-164v42h209v-41q-15 -9 -34.5 -23.5t-38.5 -39.5t-31.5 -64t-12.5 -97h-48z" />
    <glyph glyph-name="eight.dnom" horiz-adv-x="257" 
d="M128 -12q-48 0 -80.5 21.5t-32.5 59.5q0 27 18 47t49 27q-22 3 -33 14t-14.5 24t-3.5 21q0 34 27 54.5t70 20.5q44 0 71 -21t27 -54q0 -8 -3.5 -21t-14.5 -24t-34 -14q31 -7 49.5 -26.5t18.5 -47.5q0 -39 -33 -60t-81 -21zM128 26q32 0 50 14.5t18 36.5q0 26 -18 39
t-50 13q-31 0 -49 -13t-18 -39q0 -22 18 -36.5t49 -14.5zM128 153q26 0 41 10.5t15 30.5q0 22 -15.5 33.5t-40.5 11.5t-40.5 -11.5t-15.5 -33.5q0 -20 16 -30.5t40 -10.5z" />
    <glyph glyph-name="nine.dnom" horiz-adv-x="250" 
d="M113 -12q-29 0 -46.5 9t-27.5 20.5t-13.5 20.5l-3.5 9l46 9l4 -6.5t14.5 -13.5t28.5 -7q20 0 38 13.5t28 41t6 69.5q-1 -7 -9 -22t-25.5 -27.5t-45.5 -12.5q-47 0 -69.5 27t-22.5 58q0 38 27 69.5t79 31.5q38 0 63 -19t37 -51.5t12 -71.5q0 -37 -13.5 -71t-40 -55
t-66.5 -21zM117 120q28 0 45.5 20.5t17.5 46.5q-5 24 -22.5 37.5t-39.5 13.5q-29 0 -44 -19t-15 -43q0 -22 14.5 -39t43.5 -17z" />
    <glyph glyph-name="zero.numr" horiz-adv-x="259" 
d="M130 280q-58 0 -86.5 38.5t-28.5 106.5q0 67 27.5 105.5t87.5 38.5q59 0 86.5 -38t27.5 -106q0 -66 -27.5 -105.5t-86.5 -39.5zM129 319q38 0 55 26.5t17 79.5t-17 79.5t-55 26.5q-36 0 -53 -25.5t-17 -80.5q0 -53 16.5 -79.5t53.5 -26.5z" />
    <glyph glyph-name="one.numr" horiz-adv-x="175" 
d="M75 304v215q-5 -23 -18 -34.5t-25.5 -16t-16.5 -4.5v53q5 -1 20 1.5t29.5 13.5t15.5 37h42v-265h-47zM30 292v42h130v-42h-130z" />
    <glyph glyph-name="two.numr" horiz-adv-x="240" 
d="M15 292v40q6 2 27.5 14t48.5 31.5t49 42t28 46.5q9 28 -5.5 45.5t-43.5 17.5q-26 0 -42 -17.5t-12 -53.5l-44 6q-5 50 25.5 77.5t77.5 27.5q32 0 55 -13.5t33 -36.5t2 -51q-5 -22 -23 -44.5t-42 -42t-47 -32t-39 -16.5h162v-41h-210z" />
    <glyph glyph-name="three.numr" horiz-adv-x="243" 
d="M126 280q-48 0 -79.5 24.5t-31.5 73.5l45 7q1 -31 20 -47.5t47 -16.5q24 0 40.5 13.5t16.5 34.5q0 17 -8.5 27t-20.5 15t-24 5h-32v25h33q20 0 34 11.5t14 29.5q0 22 -15.5 35t-41.5 13q-20 0 -33 -8.5t-19.5 -21t-7.5 -23.5l-42 6q0 8 5 22t16.5 29t31 25t48.5 10
q47 0 73.5 -21t26.5 -57q0 -22 -13 -41t-37 -23q24 -3 40 -21.5t16 -44.5q0 -36 -29 -58.5t-73 -22.5z" />
    <glyph glyph-name="four.numr" horiz-adv-x="254" 
d="M15 347v41q34 15 58 46t37.5 67.5t13.5 67.5h52q0 -48 -30.5 -98t-81.5 -83h175v-41h-224zM156 292v138h48v-138h-48z" />
    <glyph glyph-name="five.numr" horiz-adv-x="243" 
d="M121 280q-32 0 -54.5 11t-35 29t-16.5 37l48 7q1 -4 6 -14.5t18 -20t35 -9.5q28 0 43.5 17.5t16.5 37.5q1 21 -13.5 39.5t-44.5 18.5q-19 0 -30.5 -7t-16.5 -13t-5 -7l-49 8l15 143h177v-41h-144l-9 -86l7.5 9t24 17.5t43.5 8.5q49 0 71 -27.5t20 -62.5
q-1 -36 -29.5 -65.5t-77.5 -29.5z" />
    <glyph glyph-name="six.numr" horiz-adv-x="248" 
d="M127 280q-38 0 -63 19.5t-37 51.5t-12 71q0 38 13.5 71.5t40.5 54.5t66 21q29 0 46.5 -9t27.5 -20t13.5 -20l3.5 -9l-46 -10l-4 7t-14.5 14t-28.5 7q-19 0 -37.5 -14t-28.5 -41t-6 -69q1 7 9 22t26 27t45 12q47 0 69.5 -26t22.5 -58q0 -38 -26.5 -70t-79.5 -32zM130 319
q30 0 44.5 19.5t14.5 43.5q0 21 -14.5 38.5t-43.5 17.5q-27 0 -45 -20.5t-18 -47.5q5 -24 23 -37.5t39 -13.5z" />
    <glyph glyph-name="seven.numr" horiz-adv-x="239" 
d="M59 292q0 85 32 139t88 84h-164v42h209v-41q-15 -9 -34.5 -23.5t-38.5 -39.5t-31.5 -64t-12.5 -97h-48z" />
    <glyph glyph-name="eight.numr" horiz-adv-x="257" 
d="M128 280q-48 0 -80.5 21.5t-32.5 59.5q0 27 18 47t49 27q-22 3 -33 14t-14.5 24t-3.5 21q0 34 27 54.5t70 20.5q44 0 71 -21t27 -54q0 -8 -3.5 -21t-14.5 -24t-34 -14q31 -7 49.5 -26.5t18.5 -47.5q0 -39 -33 -60t-81 -21zM128 318q32 0 50 14.5t18 36.5q0 26 -18 39
t-50 13q-31 0 -49 -13t-18 -39q0 -22 18 -36.5t49 -14.5zM128 445q26 0 41 10.5t15 30.5q0 22 -15.5 33.5t-40.5 11.5t-40.5 -11.5t-15.5 -33.5q0 -20 16 -30.5t40 -10.5z" />
    <glyph glyph-name="nine.numr" horiz-adv-x="250" 
d="M113 280q-29 0 -46.5 9t-27.5 20.5t-13.5 20.5l-3.5 9l46 9l4 -6.5t14.5 -13.5t28.5 -7q20 0 38 13.5t28 41t6 69.5q-1 -7 -9 -22t-25.5 -27.5t-45.5 -12.5q-47 0 -69.5 27t-22.5 58q0 38 27 69.5t79 31.5q38 0 63 -19t37 -51.5t12 -71.5q0 -37 -13.5 -71t-40 -55
t-66.5 -21zM117 412q28 0 45.5 20.5t17.5 46.5q-5 24 -22.5 37.5t-39.5 13.5q-29 0 -44 -19t-15 -43q0 -22 14.5 -39t43.5 -17z" />
    <glyph glyph-name="zero.subs" horiz-adv-x="259" 
d="M130 -150q-58 0 -86.5 38.5t-28.5 106.5q0 67 27.5 105.5t87.5 38.5q59 0 86.5 -38t27.5 -106q0 -66 -27.5 -105.5t-86.5 -39.5zM129 -111q38 0 55 26.5t17 79.5t-17 79.5t-55 26.5q-36 0 -53 -25.5t-17 -80.5q0 -53 16.5 -79.5t53.5 -26.5z" />
    <glyph glyph-name="one.subs" horiz-adv-x="175" 
d="M75 -127v215q-5 -23 -18 -34.5t-25.5 -16t-16.5 -4.5v53q5 -1 20 1.5t29.5 13.5t15.5 37h42v-265h-47zM30 -139v42h130v-42h-130z" />
    <glyph glyph-name="two.subs" horiz-adv-x="240" 
d="M15 -139v40q6 2 27.5 14t48.5 31.5t49 42t28 46.5q9 28 -5.5 45.5t-43.5 17.5q-26 0 -42 -17.5t-12 -53.5l-44 6q-5 50 25.5 77.5t77.5 27.5q32 0 55 -13.5t33 -36.5t2 -51q-5 -22 -23 -44.5t-42 -42t-47 -32t-39 -16.5h162v-41h-210z" />
    <glyph glyph-name="three.subs" horiz-adv-x="243" 
d="M126 -151q-48 0 -79.5 24.5t-31.5 73.5l45 7q1 -31 20 -47.5t47 -16.5q24 0 40.5 13.5t16.5 34.5q0 17 -8.5 27t-20.5 15t-24 5h-32v25h33q20 0 34 11.5t14 29.5q0 22 -15.5 35t-41.5 13q-20 0 -33 -8.5t-19.5 -21t-7.5 -23.5l-42 6q0 8 5 22t16.5 29t31 25t48.5 10
q47 0 73.5 -21t26.5 -57q0 -22 -13 -41t-37 -23q24 -3 40 -21.5t16 -44.5q0 -36 -29 -58.5t-73 -22.5z" />
    <glyph glyph-name="four.subs" horiz-adv-x="254" 
d="M15 -84v41q34 15 58 46t37.5 67.5t13.5 67.5h52q0 -48 -30.5 -98t-81.5 -83h175v-41h-224zM156 -139v138h48v-138h-48z" />
    <glyph glyph-name="five.subs" horiz-adv-x="243" 
d="M121 -150q-32 0 -54.5 11t-35 29t-16.5 37l48 7q1 -4 6 -14.5t18 -20t35 -9.5q28 0 43.5 17.5t16.5 37.5q1 21 -13.5 39.5t-44.5 18.5q-19 0 -30.5 -7t-16.5 -13t-5 -7l-49 8l15 143h177v-41h-144l-9 -86l7.5 9t24 17.5t43.5 8.5q49 0 71 -27.5t20 -62.5
q-1 -36 -29.5 -65.5t-77.5 -29.5z" />
    <glyph glyph-name="six.subs" horiz-adv-x="248" 
d="M127 -151q-38 0 -63 19.5t-37 51.5t-12 71q0 38 13.5 71.5t40.5 54.5t66 21q29 0 46.5 -9t27.5 -20t13.5 -20l3.5 -9l-46 -10l-4 7t-14.5 14t-28.5 7q-19 0 -37.5 -14t-28.5 -41t-6 -69q1 7 9 22t26 27t45 12q47 0 69.5 -26t22.5 -58q0 -38 -26.5 -70t-79.5 -32z
M130 -112q30 0 44.5 19.5t14.5 43.5q0 21 -14.5 38.5t-43.5 17.5q-27 0 -45 -20.5t-18 -47.5q5 -24 23 -37.5t39 -13.5z" />
    <glyph glyph-name="seven.subs" horiz-adv-x="239" 
d="M59 -139q0 85 32 139t88 84h-164v42h209v-41q-15 -9 -34.5 -23.5t-38.5 -39.5t-31.5 -64t-12.5 -97h-48z" />
    <glyph glyph-name="eight.subs" horiz-adv-x="257" 
d="M128 -151q-48 0 -80.5 21.5t-32.5 59.5q0 27 18 47t49 27q-22 3 -33 14t-14.5 24t-3.5 21q0 34 27 54.5t70 20.5q44 0 71 -21t27 -54q0 -8 -3.5 -21t-14.5 -24t-34 -14q31 -7 49.5 -26.5t18.5 -47.5q0 -39 -33 -60t-81 -21zM128 -113q32 0 50 14.5t18 36.5q0 26 -18 39
t-50 13q-31 0 -49 -13t-18 -39q0 -22 18 -36.5t49 -14.5zM128 14q26 0 41 10.5t15 30.5q0 22 -15.5 33.5t-40.5 11.5t-40.5 -11.5t-15.5 -33.5q0 -20 16 -30.5t40 -10.5z" />
    <glyph glyph-name="nine.subs" horiz-adv-x="250" 
d="M113 -151q-29 0 -46.5 9t-27.5 20.5t-13.5 20.5l-3.5 9l46 9l4 -6.5t14.5 -13.5t28.5 -7q20 0 38 13.5t28 41t6 69.5q-1 -7 -9 -22t-25.5 -27.5t-45.5 -12.5q-47 0 -69.5 27t-22.5 58q0 38 27 69.5t79 31.5q38 0 63 -19t37 -51.5t12 -71.5q0 -37 -13.5 -71t-40 -55
t-66.5 -21zM117 -19q28 0 45.5 20.5t17.5 46.5q-5 24 -22.5 37.5t-39.5 13.5q-29 0 -44 -19t-15 -43q0 -22 14.5 -39t43.5 -17z" />
    <glyph glyph-name="zero.sups" horiz-adv-x="259" 
d="M129 402q-57 0 -85.5 37.5t-28.5 101.5q0 62 27.5 100t87.5 38q59 0 86.5 -37.5t27.5 -100.5q0 -61 -27.5 -100t-87.5 -39zM129 441q38 0 55 25.5t17 74.5t-17 74.5t-55 25.5q-36 0 -53 -25t-17 -75q0 -48 16.5 -74t53.5 -26z" />
    <glyph glyph-name="five.sups" horiz-adv-x="243" 
d="M121 399q-32 0 -54.5 11.5t-35 29t-16.5 36.5l48 7q1 -4 6 -14.5t18 -20t35 -9.5q28 0 43 17t17 37q2 21 -13 40t-45 19q-19 0 -30.5 -7t-16.5 -13t-5 -7l-49 8l15 143h177v-41h-144l-9 -86l7.5 9t24 17.5t43.5 8.5q49 0 71.5 -28.5t19.5 -63.5q-2 -35 -30 -64t-77 -29z
" />
    <glyph glyph-name="six.sups" horiz-adv-x="248" 
d="M127 399q-57 0 -84.5 39.5t-27.5 94.5q0 37 13.5 69.5t40.5 53t66 20.5q29 0 46.5 -8.5t27.5 -19.5t13.5 -20l3.5 -9l-46 -9l-4 6.5t-14.5 13t-28.5 6.5q-19 0 -37.5 -13.5t-28.5 -40t-6 -67.5q1 8 9.5 22.5t26.5 27t48 11.5q37 -1 58.5 -18.5t27 -44t-4 -52.5t-34.5 -44
t-65 -18zM130 438q29 0 43.5 16t15.5 37t-12.5 37.5t-41.5 18.5q-31 1 -49 -19t-18 -46q5 -21 23 -32.5t39 -11.5z" />
    <glyph glyph-name="seven.sups" horiz-adv-x="239" 
d="M49 409q0 57 17 102.5t46.5 79t66.5 53.5h-164v42h209v-41q-15 -9 -36 -25.5t-42 -43.5t-35 -68t-14 -99h-48z" />
    <glyph glyph-name="eight.sups" horiz-adv-x="257" 
d="M128 399q-48 0 -80.5 20.5t-32.5 57.5q0 26 18 44.5t49 23.5q-22 4 -33 15t-14.5 23.5t-3.5 20.5q0 32 27 52t70 20q44 0 71 -20.5t27 -51.5q0 -8 -3.5 -20.5t-14.5 -23.5t-34 -15q31 -5 49.5 -23t18.5 -45q0 -39 -33 -58.5t-81 -19.5zM128 435q32 0 50 14t18 35
q0 26 -18 38t-50 12q-31 0 -49 -12t-18 -38q0 -21 18 -35t49 -14zM128 557q26 0 41 9.5t15 28.5q0 22 -15.5 33t-40.5 11t-40.5 -11t-15.5 -33q0 -19 16 -28.5t40 -9.5z" />
    <glyph glyph-name="nine.sups" horiz-adv-x="250" 
d="M121 399q-31 0 -50.5 9t-30.5 21t-15.5 21l-4.5 9l46 11l5 -7.5t17 -14.5t33 -7q20 0 36 12t24.5 38t6.5 68q-1 -7 -9.5 -21.5t-26 -26.5t-45.5 -12q-38 0 -60.5 18t-28.5 44.5t3.5 53t34.5 44t65 17.5q42 0 67 -19.5t36.5 -51t9.5 -68.5q-1 -38 -12 -69.5t-35.5 -50
t-65.5 -18.5zM117 528q29 0 46 17.5t19 43.5q-5 25 -21.5 37t-39.5 12t-37 -11t-19.5 -27t-1.5 -32.5t17.5 -28t36.5 -11.5z" />
    <glyph glyph-name="hyphen_greater.dlig" horiz-adv-x="506" 
d="M471 195q-50 0 -81.5 16t-49.5 40.5t-25.5 48t-9.5 40.5t-2 18h54q0 -1 2 -16t12.5 -34t34 -33t65.5 -14v-66zM35 195v66h436v-66h-436zM303 98l2 16.5t9.5 41t25.5 48.5t49.5 40.5t81.5 16.5v-66q-42 0 -65.5 -14t-34 -33t-12.5 -33.5t-2 -16.5h-54z" />
    <glyph glyph-name="parenleft_greater.dlig" horiz-adv-x="657" 
d="M329 -19q-61 0 -114 23t-93.5 63t-63.5 93t-23 115q0 60 23 113t63.5 93.5t93.5 63.5t114 23t114 -23t93.5 -63.5t63 -93.5t22.5 -113q0 -61 -22.5 -114.5t-63 -94t-93.5 -63t-114 -22.5zM329 25q52 0 97 19.5t79 54t53.5 79.5t19.5 96q0 52 -19.5 97t-53.5 79t-79 53.5
t-97 19.5q-51 0 -96.5 -19.5t-80 -53.5t-53.5 -79t-19 -97q0 -51 19 -96t53.5 -79.5t80 -54t96.5 -19.5zM300 214l91 62l-91 58v-120zM257 138v268l202 -130z" />
    <glyph glyph-name="colon_parenleft.dlig" horiz-adv-x="657" 
d="M329 -14q-61 0 -114.5 23t-93.5 63t-63 93.5t-23 114.5q0 60 23 113t63 93.5t93.5 63.5t114.5 23q60 0 113 -23t93.5 -63.5t63.5 -93.5t23 -113q0 -61 -23 -114.5t-63.5 -93.5t-93.5 -63t-113 -23zM167 126q6 64 49.5 104.5t112.5 40.5q47 0 82.5 -19t57 -52t24.5 -74
h-56q0 10 -4.5 27t-16.5 33.5t-33 28.5t-53 12q-34 0 -55 -12t-32.5 -28.5t-15.5 -33.5t-4 -27h-56zM192 283v123h53v-123h-53zM329 31q51 0 96 19.5t79.5 53.5t54 79.5t19.5 96.5t-20 96t-54 79t-79 53.5t-96 19.5t-96.5 -19.5t-79.5 -53.5t-53.5 -79t-19.5 -96t19.5 -96.5
t53.5 -79.5t79.5 -53.5t96.5 -19.5zM413 283v123h53v-123h-53z" />
    <glyph glyph-name="colon_parenright.dlig" horiz-adv-x="657" 
d="M329 -14q-61 0 -114.5 23t-93.5 63t-63 93.5t-23 114.5q0 60 23 113t63 93.5t93.5 63.5t114.5 23q60 0 113 -23t93.5 -63.5t63.5 -93.5t23 -113q0 -61 -23 -114.5t-63.5 -93.5t-93.5 -63t-113 -23zM330 92q-54 0 -93.5 24t-62 65.5t-25.5 91.5h55q0 -1 1.5 -15.5
t7.5 -34.5t19.5 -40.5t37 -33.5t60.5 -13q39 0 63.5 13.5t37 34t17.5 41.5t6 34.5l1 13.5h55q-2 -53 -25 -93.5t-62.5 -64t-92.5 -23.5zM192 283v123h53v-123h-53zM329 31q51 0 96 19.5t79.5 53.5t54 79.5t19.5 96.5t-20 96t-54 79t-79 53.5t-96 19.5t-96.5 -19.5
t-79.5 -53.5t-53.5 -79t-19.5 -96t19.5 -96.5t53.5 -79.5t79.5 -53.5t96.5 -19.5zM413 283v123h53v-123h-53z" />
    <glyph glyph-name="periodcentered.case" horiz-adv-x="229" 
d="M110 235q-38 0 -51.5 19t-13.5 46q0 25 13.5 44.5t51.5 19.5q39 0 51.5 -19.5t12.5 -44.5q0 -26 -13 -45.5t-51 -19.5z" />
    <glyph glyph-name="bullet.case" horiz-adv-x="244" 
d="M110 235q-38 0 -51.5 19t-13.5 46q0 25 13.5 44.5t51.5 19.5q39 0 51.5 -19.5t12.5 -44.5q0 -26 -13 -45.5t-51 -19.5z" />
    <glyph glyph-name="hyphen.case" horiz-adv-x="317" 
d="M40 242v60h222v-60h-222z" />
    <glyph glyph-name="endash.case" horiz-adv-x="417" 
d="M40 242v60h322v-60h-322z" />
    <glyph glyph-name="emdash.case" horiz-adv-x="557" 
d="M40 242v60h462v-60h-462z" />
    <glyph glyph-name="parenleft.case" horiz-adv-x="309" 
d="M233 -144l-19.5 16t-47.5 47.5t-56.5 79.5t-47.5 112t-19 144q0 81 19 145.5t47.5 113t56.5 80.5t47.5 48l19.5 16l64 -65q-4 -3 -25 -16.5t-50 -39.5t-57 -65.5t-47 -93t-19 -123.5t20 -124.5t49.5 -93.5t59 -64.5t49.5 -37.5l20 -12z" />
    <glyph glyph-name="parenright.case" horiz-adv-x="299" 
d="M67 -144l-64 67l20 12t49.5 37.5t58.5 64.5t49 93.5t20 124.5q0 69 -18.5 123t-47 93.5t-57.5 65.5t-50 39.5t-24 16.5l64 65l19 -16t47.5 -48t56.5 -80.5t47.5 -113t19.5 -145.5q0 -80 -19.5 -144t-47.5 -112t-56.5 -79.5t-47.5 -47.5z" />
    <glyph glyph-name="braceleft.case" horiz-adv-x="320" 
d="M295 -141q-71 -12 -114 -5t-63 35.5t-22.5 79t8.5 124.5q6 47 0 73t-18.5 37t-27 13.5t-25.5 2.5v81q11 0 25.5 2.5t27 13t18.5 36.5t0 73q-10 74 -8 123.5t22 77t63 35t114 -2.5v-77q-55 12 -81.5 6t-34 -28t-3.5 -55.5t9 -76.5q8 -48 5 -82t-24.5 -55t-68.5 -32
q47 -10 68.5 -31t24.5 -54.5t-5 -81.5q-5 -43 -9 -76.5t3.5 -55.5t34 -28.5t81.5 5.5v-77z" />
    </font>
</defs>
</svg>
