<?xml version="1.0" standalone="no"?>
<!DOCTYPE svg PUBLIC "-//W3C//DTD SVG 1.1//EN" "http://www.w3.org/Graphics/SVG/1.1/DTD/svg11.dtd" >
<svg xmlns="http://www.w3.org/2000/svg" xmlns:xlink="http://www.w3.org/1999/xlink" version="1.1">
<metadata>
Created by FontForge 20201107 at Wed Apr 26 11:17:09 2023
 By 
Copyright 2019 The Darker Grotesque Project Authors (https://github.com/bettergui/DarkerGrotesque)
</metadata>
<defs>
<font id="DarkerGrotesque-Medium" horiz-adv-x="0" >
  <font-face 
    font-family="Darker Grotesque Medium"
    font-weight="500"
    font-stretch="normal"
    units-per-em="1000"
    panose-1="0 0 0 0 0 0 0 0 0 0"
    ascent="800"
    descent="-200"
    x-height="407"
    cap-height="563"
    bbox="-130 -221 1694 891"
    underline-thickness="50"
    underline-position="-125"
    unicode-range="U+000D-240D"
  />
<missing-glyph horiz-adv-x="552" 
d="M67 -123v733h418v-733h-418zM131 -68h290v622h-290v-622z" />
    <glyph glyph-name="w_w_w.liga" unicode="www" horiz-adv-x="1714" 
d="M112 0l-109 393v15h62l92 -353h2l105 353h57l108 -353h2l90 353h62v-15l-108 -393h-92l-89 296h-2l-88 -296h-92zM667 0l-109 393v15h62l92 -353h2l105 353h57l108 -353h2l90 353h62v-15l-108 -393h-92l-89 296h-2l-88 -296h-92zM1223 0l-109 393v15h62l92 -353h2
l105 353h57l108 -353h2l90 353h62v-15l-108 -393h-92l-89 296h-2l-88 -296h-92z" />
    <glyph glyph-name=".notdef" horiz-adv-x="552" 
d="M67 -123v733h418v-733h-418zM131 -68h290v622h-290v-622z" />
    <glyph glyph-name=".null" 
 />
    <glyph glyph-name="nonmarkingreturn" horiz-adv-x="333" 
 />
    <glyph glyph-name="CR" unicode="&#xd;" horiz-adv-x="600" 
 />
    <glyph glyph-name="space" unicode=" " horiz-adv-x="237" 
 />
    <glyph glyph-name="exclam" unicode="!" horiz-adv-x="188" 
d="M102 -9q-24 0 -32 12.5t-8 30.5q0 17 8 29.5t32 12.5q23 0 31 -12t8 -30t-8 -30.5t-31 -12.5zM79 138q-4 97 -9.5 168.5t-8.5 121t-1.5 79t11.5 43t30 13.5t29.5 -13.5t11 -43.5t-1 -79.5t-8 -120.5t-9.5 -168l-6.5 1.5t-15.5 1.5q-8 0 -15 -1.5z" />
    <glyph glyph-name="quotedbl" unicode="&#x22;" horiz-adv-x="281" 
d="M35 390v48h18q24 0 31 11t7 28q-27 -3 -39.5 9t-12.5 35q0 17 9 29.5t33 12.5q22 0 31.5 -12.5t9.5 -45.5q0 -35 -6 -61t-20.5 -40t-40.5 -14h-20zM164 390v48h18q24 0 31 11t7 28q-27 -3 -39.5 9t-12.5 35q0 17 9 29.5t33 12.5q22 0 31.5 -12.5t9.5 -45.5q0 -35 -6 -61
t-20.5 -40t-40.5 -14h-20z" />
    <glyph glyph-name="numbersign" unicode="#" horiz-adv-x="691" 
d="M99 0l141 355l70 208h61l-137 -343l-75 -220h-60zM32 163v57h556v-57h-556zM300 0l141 355l70 208h61l-137 -343l-74 -220h-61zM87 354v57h553v-57h-553z" />
    <glyph glyph-name="dollar" unicode="$" horiz-adv-x="536" 
d="M280 -13q-55 0 -107.5 19t-87 61t-39.5 108l63 8q0 -2 2 -16.5t10 -35t26 -40t51 -33t85 -13.5q43 0 70.5 10.5t43 26.5t22 31.5t6.5 25.5q0 35 -19 56.5t-52 34.5t-72 22.5t-77.5 21t-71 30t-50.5 48.5t-17 77q3 44 30.5 76.5t75 50t108.5 17.5q57 0 104.5 -20.5
t75.5 -61t26 -102.5l-62 -7q2 43 -15 69t-42.5 39.5t-51.5 18.5t-44 5q-57 0 -96.5 -25t-41.5 -66q-1 -35 18.5 -56t52 -33.5t72 -22t78 -21t71 -29.5t51 -48.5t16.5 -78.5q-2 -47 -31.5 -79.5t-77 -50t-103.5 -17.5zM253 -109l3 111h57l3 -111h-63zM256 558l-3 114h63
l-3 -114h-57z" />
    <glyph glyph-name="percent" unicode="%" horiz-adv-x="575" 
d="M103 0l-45 32l222 264l190 266l44 -31l-211 -252zM446 -10q-51 0 -75 33t-24 89q0 55 23.5 88.5t75.5 33.5q53 0 76.5 -33.5t23.5 -88.5q0 -54 -23.5 -88t-76.5 -34zM446 32q31 0 44 22.5t13 57.5q0 36 -13 58.5t-44 22.5t-44 -22t-13 -59q0 -35 13 -57.5t44 -22.5z
M128 329q-52 0 -75.5 33t-23.5 89q0 55 23.5 88.5t75.5 33.5t76 -33.5t24 -88.5q0 -54 -24 -88t-76 -34zM127 371q32 0 45 23t13 57q0 36 -13 58.5t-45 22.5q-30 0 -43.5 -22t-13.5 -59q0 -34 13.5 -57t43.5 -23z" />
    <glyph glyph-name="ampersand" unicode="&#x26;" horiz-adv-x="635" 
d="M593 -2q-37 15 -69 33.5t-71 43.5q-40 -41 -92 -62t-106 -22.5t-100 17t-74.5 56t-28.5 92.5q0 37 13.5 63.5t35 45t44.5 31t41 22.5q-11 15 -25 35.5t-24.5 45t-10.5 52.5q0 40 20.5 66.5t52.5 40t68.5 14t69 -12t53 -38t20.5 -63.5q0 -33 -18.5 -59.5t-44 -45.5
t-48 -31t-30.5 -16q15 -19 41.5 -46t59 -55t63.5 -50q11 17 20 40.5t13 49t0 49t-19 41.5l54 37q9 -13 16 -34t10.5 -47.5t1 -56.5t-12 -59.5t-28.5 -55.5q34 -22 63 -39t66 -32zM402 112q-32 24 -65.5 54t-64 61.5t-52.5 58.5q-41 -20 -72.5 -48t-31.5 -74q0 -39 21 -65
t54 -39t72 -12t75.5 17t63.5 47zM234 336l17 8.5t30 16.5t33 23.5t27.5 29.5t11.5 35q1 28 -15.5 45t-42 22.5t-51 -1t-42.5 -24t-17 -46.5q0 -22 13 -50.5t36 -58.5z" />
    <glyph glyph-name="quotesingle" unicode="'" horiz-adv-x="169" 
d="M45 390v48h18q24 0 31 11t7 28q-27 -3 -39.5 9t-12.5 35q0 17 9 29.5t33 12.5q22 0 31.5 -12.5t9.5 -45.5q0 -35 -6 -61t-20.5 -40t-40.5 -14h-20z" />
    <glyph glyph-name="parenleft" unicode="(" horiz-adv-x="291" 
d="M232 -199l-19 15.5t-47 47.5t-56 79.5t-47.5 111.5t-19.5 145t19.5 145.5t47.5 113t56 80.5t47 48l19 16l49 -51q-3 -3 -23.5 -17t-49 -41t-56 -67.5t-46 -97t-18.5 -129.5q0 -74 19.5 -131t48 -97.5t57.5 -67t48.5 -38.5l19.5 -12z" />
    <glyph glyph-name="parenright" unicode=")" horiz-adv-x="281" 
d="M49 -199l-49 53l19.5 12t48.5 38.5t57.5 67t48 97.5t19.5 131q0 73 -18.5 129.5t-46 97t-56 67.5t-49 41t-23.5 17l49 51l19 -16t47.5 -48t56 -80.5t47 -113t19.5 -145.5t-19.5 -145t-47 -111.5t-56 -79.5t-47.5 -47.5z" />
    <glyph glyph-name="asterisk" unicode="*" horiz-adv-x="378" 
d="M351 424l-138 -30l95 -102l-50 -36l-69 120l-70 -120l-49 36l95 102l-138 30l20 57l126 -58l-15 140h62l-15 -140l127 58z" />
    <glyph glyph-name="plus" unicode="+" horiz-adv-x="373" 
d="M162 86v273h49v-273h-49zM50 199v49h273v-49h-273z" />
    <glyph glyph-name="comma" unicode="," horiz-adv-x="187" 
d="M50 -88v48h18q24 0 30.5 11t6.5 28q-26 -2 -38.5 10t-12.5 34q0 17 9 29.5t33 12.5q21 0 31 -12.5t10 -45.5q0 -34 -6.5 -60t-21 -40.5t-39.5 -14.5h-20z" />
    <glyph glyph-name="hyphen" unicode="-" horiz-adv-x="317" 
d="M40 200v49h222v-49h-222z" />
    <glyph glyph-name="period" unicode="." horiz-adv-x="174" 
d="M77 0q-25 0 -33.5 13.5t-8.5 31.5q0 19 9 32t33 13q25 0 33.5 -13t8.5 -32t-8.5 -32t-33.5 -13z" />
    <glyph glyph-name="slash" unicode="/" horiz-adv-x="352" 
d="M25 0l254 563h63l-254 -563h-63z" />
    <glyph glyph-name="zero" unicode="0" horiz-adv-x="513" 
d="M257 -14q-118 0 -174 79.5t-56 214.5q0 89 23.5 154.5t74.5 102t132 36.5q79 0 130 -36t75.5 -102t24.5 -155q0 -87 -24.5 -153.5t-75.5 -103.5t-130 -37zM256 40q88 0 129 63.5t41 176.5q0 75 -17.5 128t-55 82t-97.5 29q-86 0 -127 -61t-41 -178q0 -74 17.5 -128
t54.5 -83t96 -29z" />
    <glyph glyph-name="one" unicode="1" horiz-adv-x="330" 
d="M292 56v-56h-232v56h89v411q-10 -31 -27.5 -48.5t-37 -26t-35.5 -11t-21 -2.5v68q6 -1 25.5 3t42.5 16t40 35.5t18 61.5h58v-507h80z" />
    <glyph glyph-name="two" unicode="2" horiz-adv-x="492" 
d="M38 0v53q1 1 20 13.5t49.5 33.5t67 49t72 59.5t64.5 64.5t45 64q24 50 14.5 90t-43.5 63t-85 23q-59 -1 -95.5 -36.5t-34.5 -105.5l-59 6q-2 60 22 102t69 64.5t104 22.5q54 0 95.5 -19t65.5 -52.5t26.5 -77t-21.5 -90.5q-18 -35 -52 -72t-75 -71.5t-79.5 -62t-66 -45
t-34.5 -20.5h340v-56h-409z" />
    <glyph glyph-name="three" unicode="3" horiz-adv-x="492" 
d="M250 -10q-56 0 -105.5 21.5t-80.5 64.5t-32 109l61 6q3 -48 25.5 -80.5t58 -48t74.5 -15.5q41 0 74.5 14t53 40.5t19.5 61.5q0 32 -12.5 53t-32 33t-40 17t-36.5 5h-80v37h81q33 0 57 11t37.5 31.5t13.5 48.5q0 56 -38 88t-102 32q-39 0 -65.5 -13t-44 -32.5t-25.5 -40.5
t-10 -39l-58 7q1 13 7.5 34t20.5 45t36.5 45t56.5 34.5t81 13.5q92 0 146 -43.5t54 -118.5q0 -49 -26.5 -80t-72.5 -43q47 -10 80 -46t33 -89q0 -50 -27.5 -86.5t-74.5 -56.5t-107 -20z" />
    <glyph glyph-name="four" unicode="4" horiz-adv-x="498" 
d="M25 119v56q48 23 90 65.5t73.5 97t49.5 113t19 112.5h68q0 -72 -30.5 -144.5t-82 -136t-117.5 -107.5h369v-56h-439zM322 0v281h64v-281h-64z" />
    <glyph glyph-name="five" unicode="5" horiz-adv-x="509" 
d="M253 -10q-56 0 -99 18.5t-70.5 52t-39.5 78.5l65 7q0 -4 6.5 -20t22 -34.5t44 -32.5t72.5 -14q49 0 82 19.5t51 50.5t20 64q3 37 -13 70t-49 55t-84 22q-37 0 -63 -9.5t-42 -22t-23 -22.5t-7 -11l-63 13l28 289h351v-57h-302l-22 -202l8.5 10.5t27.5 24t49 24t72 10.5
q69 0 113 -28.5t64 -73t17 -93.5q-3 -47 -29 -90.5t-73 -70.5t-114 -27z" />
    <glyph glyph-name="six" unicode="6" horiz-adv-x="527" 
d="M273 -10q-80 0 -130.5 38t-73.5 100t-23 135q0 58 15 113t45.5 100t77.5 71t110 26q41 0 70.5 -10t49.5 -24.5t31.5 -29.5t16 -24.5l4.5 -9.5l-62 -16l-10.5 14.5t-35 28.5t-66.5 14q-47 0 -84 -23t-62 -64.5t-34 -96.5t-1 -121q2 21 14 47.5t35.5 52t59 41.5t85.5 14
q63 -1 104 -28.5t59.5 -70.5t15.5 -90.5t-27.5 -90t-70.5 -69.5t-113 -27zM276 44q47 0 79.5 19.5t50 50.5t19.5 65.5t-11.5 66t-44 52.5t-78.5 23q-54 2 -92 -22t-57.5 -62t-19.5 -78q9 -36 30.5 -61.5t53 -39.5t70.5 -14z" />
    <glyph glyph-name="seven" unicode="7" horiz-adv-x="476" 
d="M121 0q0 116 31.5 209t89 167t131.5 131h-333v56h397v-54q-23 -18 -55.5 -46t-67 -69t-63.5 -97t-47.5 -129.5t-18.5 -167.5h-64z" />
    <glyph glyph-name="eight" unicode="8" horiz-adv-x="540" 
d="M267 -10q-64 0 -115.5 18.5t-81.5 54.5t-30 89q0 55 37 94.5t99 51.5q-32 7 -52.5 21.5t-31.5 32.5t-15 36.5t-4 33.5q0 45 25 78.5t69 53t100 19.5q59 0 103 -19.5t68.5 -53.5t24.5 -78q0 -15 -4 -33.5t-15 -36.5t-31.5 -32.5t-52.5 -21.5q63 -13 99.5 -51.5t36.5 -94.5
q0 -54 -30 -90t-82 -54t-117 -18zM267 43q77 0 121.5 33.5t44.5 86.5q0 59 -44.5 88.5t-121.5 29.5q-76 0 -120 -29.5t-44 -88.5q0 -53 44 -86.5t120 -33.5zM267 315q62 0 99.5 22.5t37.5 72.5q0 52 -38.5 81.5t-98.5 29.5q-61 0 -99 -30t-38 -81q0 -34 18.5 -55t50 -30.5
t68.5 -9.5z" />
    <glyph glyph-name="nine" unicode="9" horiz-adv-x="529" 
d="M257 -10q-47 0 -81 11t-56.5 27t-36.5 32.5t-19.5 27.5t-6.5 12l61 16q0 -1 7.5 -11t23.5 -23.5t42.5 -24t65.5 -10.5q48 0 80.5 21t51.5 60t26.5 93t5.5 120q-3 -20 -15.5 -45t-35 -48t-55.5 -38.5t-76 -15.5q-67 0 -110.5 27t-64.5 69.5t-19 90t26.5 90t71.5 69
t116 26.5q61 0 105.5 -23t71.5 -64t38.5 -94.5t7.5 -114.5q-3 -59 -15.5 -110t-38.5 -89.5t-68 -59.5t-103 -21zM251 237q71 0 111 43t49 107q-15 62 -54.5 94t-98.5 32q-49 0 -82 -20t-50 -51t-18 -66.5t14.5 -67t47.5 -51.5t81 -20z" />
    <glyph glyph-name="colon" unicode=":" horiz-adv-x="194" 
d="M97 44q-25 0 -33.5 13t-8.5 32q0 18 8.5 31t33.5 13q24 0 32.5 -13t8.5 -31q0 -19 -8.5 -32t-32.5 -13zM97 276q-24 0 -33 13t-9 32q0 17 9 30.5t33 13.5t32.5 -13.5t8.5 -30.5q0 -19 -8.5 -32t-32.5 -13z" />
    <glyph glyph-name="semicolon" unicode=";" horiz-adv-x="188" 
d="M97 318q-24 0 -33 13t-9 32q0 17 9 30.5t33 13.5t32.5 -13.5t8.5 -30.5q0 -19 -8.5 -32t-32.5 -13zM52 -88v48h18q24 0 30.5 11t6.5 28q-26 -2 -38.5 10t-12.5 34q0 17 9 29.5t33 12.5q21 0 31 -12.5t10 -45.5q0 -34 -6.5 -60t-21 -40.5t-39.5 -14.5h-20z" />
    <glyph glyph-name="less" unicode="&#x3c;" horiz-adv-x="373" 
d="M343 384v-55l-255 -101l255 -101v-57l-312 158z" />
    <glyph glyph-name="equal" unicode="=" horiz-adv-x="373" 
d="M41 262v46h291v-46h-291zM41 138v46h291v-46h-291z" />
    <glyph glyph-name="greater" unicode="&#x3e;" horiz-adv-x="373" 
d="M31 384l312 -156l-312 -158v57l255 101l-255 101v55z" />
    <glyph glyph-name="question" unicode="?" horiz-adv-x="436" 
d="M239 141h-57q1 38 17 65.5t39.5 50t46.5 43.5t39.5 46t16.5 58q1 48 -30.5 77t-83.5 29q-34 0 -57 -11.5t-37 -31t-20 -43.5t-6 -48h-62q-3 37 6.5 71.5t31.5 61.5t57 42.5t84 15.5q50 0 91 -19t65 -54t24 -83q0 -42 -16.5 -70.5t-40.5 -50t-48.5 -42t-41 -45.5
t-18.5 -62zM212 -9q-24 0 -32 12.5t-8 30.5q0 17 8 29.5t32 12.5q23 0 30.5 -12.5t7.5 -29.5q0 -18 -7.5 -30.5t-30.5 -12.5z" />
    <glyph glyph-name="at" unicode="@" horiz-adv-x="747" 
d="M373 -142q-66 0 -125 19t-104.5 57t-71.5 96t-26 135q0 78 26.5 141t73.5 108.5t109 69.5t133 24q62 0 118 -18t99 -52t67.5 -82t24.5 -108q0 -55 -21 -105t-60.5 -81.5t-93.5 -31.5q-35 0 -50.5 18t-15.5 44q-1 24 5.5 49t10.5 47l17 136h50l-33 -193q-6 -31 1 -50.5
t32 -19.5q36 0 62 24.5t40 63t14 80.5q0 70 -35.5 121.5t-95 79.5t-131.5 28q-81 0 -144.5 -38t-100 -102.5t-36.5 -145.5q0 -83 35 -138.5t95 -83.5t135 -28q49 0 100.5 13t100.5 39l33 -54q-55 -30 -116.5 -46t-121.5 -16zM340 36q-54 0 -82.5 34t-28.5 87q0 45 19 86
t53.5 67.5t78.5 26.5q54 0 83 -33t29 -84q0 -45 -18 -87.5t-52.5 -69.5t-81.5 -27zM353 74q43 0 67.5 23t35 57t10.5 67q0 36 -17.5 56.5t-58.5 20.5q-35 0 -61 -19.5t-40 -51t-14 -66.5q0 -39 19.5 -63t58.5 -24z" />
    <glyph glyph-name="A" unicode="A" horiz-adv-x="541" 
d="M19 0l198 563h106l201 -563h-68l-184 535l-185 -535h-68zM128 176l5 54h275l6 -54h-286z" />
    <glyph glyph-name="B" unicode="B" horiz-adv-x="537" 
d="M60 0v563h203q29 0 59.5 -3t58 -11.5t49.5 -25t34.5 -43t12.5 -66.5q0 -32 -12.5 -60t-45 -44.5t-93.5 -18.5v-4q71 0 109 -19.5t52.5 -50.5t14.5 -69q0 -40 -14 -67t-37.5 -43t-53 -24t-62 -11t-61.5 -3h-214zM124 54h145q46 0 83.5 6.5t60 28t22.5 66.5q0 47 -24 70
t-64 31t-89 8h-134v-210zM124 316h132q47 0 82 6t54.5 25.5t19.5 60.5q0 47 -21.5 68t-57 26.5t-76.5 5.5h-133v-192z" />
    <glyph glyph-name="C" unicode="C" horiz-adv-x="596" 
d="M299 -10q-77 0 -139.5 32.5t-99 97.5t-35.5 160q0 97 35.5 162t98.5 98t144 33q69 0 122 -25t86.5 -71.5t45.5 -111.5h-67q-9 51 -36 83.5t-66 48.5t-85 16q-100 0 -157 -59t-57 -170q0 -115 56 -174.5t155 -59.5q50 0 90.5 16.5t67.5 49.5t35 82h68q-11 -64 -45 -110.5
t-88.5 -72t-128.5 -25.5z" />
    <glyph glyph-name="D" unicode="D" horiz-adv-x="588" 
d="M131 55v451h99q78 0 135.5 -24t89 -73.5t31.5 -126.5q0 -70 -18 -114.5t-51.5 -69.5t-81 -34t-105.5 -9h-33.5h-65.5zM554 282q0 94 -42 156t-118 93.5t-178 31.5h-47.5h-101.5v-563h98.5h50.5q102 0 178 24t118 85.5t42 172.5z" />
    <glyph glyph-name="E" unicode="E" horiz-adv-x="479" 
d="M57 0v563h377v-57h-314v-194h249v-54h-249v-204h324v-54h-387z" />
    <glyph glyph-name="F" unicode="F" horiz-adv-x="479" 
d="M134 0h-64v563h389v-57h-325v-180h256v-54h-256v-272z" />
    <glyph glyph-name="G" unicode="G" horiz-adv-x="609" 
d="M291 -13q-81 0 -141 34.5t-92.5 99.5t-32.5 158q1 93 35.5 159t96.5 100.5t145 34.5q107 0 171.5 -49.5t82.5 -144.5l-62 -7q-10 50 -37 80.5t-66 45.5t-89 15q-106 0 -160.5 -62.5t-54.5 -168.5q0 -111 57.5 -172t160.5 -61q53 0 94.5 18.5t68 55.5t32.5 92h-155v50h223
v-265h-46l-15 124h-2q-6 -20 -21.5 -44t-41.5 -45t-63.5 -34.5t-87.5 -13.5z" />
    <glyph glyph-name="H" unicode="H" horiz-adv-x="581" 
d="M131 0h-64v563h64v-563zM451 563h63v-563h-63v563zM485 264h-384v52h384v-52z" />
    <glyph glyph-name="I" unicode="I" horiz-adv-x="342" 
d="M135 18v527h64v-527h-64zM58 0v56h218v-56h-218zM58 507v56h218v-56h-218z" />
    <glyph glyph-name="J" unicode="J" horiz-adv-x="432" 
d="M206 -10q-28 0 -57 8t-53 26t-39 48.5t-15 75.5h60q0 -23 8 -46.5t30.5 -39.5t63.5 -16q51 0 76 28t25 95v376h64v-368q0 -44 -8.5 -79t-28 -59t-50.5 -36.5t-76 -12.5zM194 511v51h175v-51h-175z" />
    <glyph glyph-name="K" unicode="K" horiz-adv-x="553" 
d="M130 189v76l301 298h84v-10zM70 -1v564h65v-564h-65zM452 0l-236 298l46 45l265 -333v-10h-75z" />
    <glyph glyph-name="L" unicode="L" horiz-adv-x="468" 
d="M67 10v553h64v-553h-64zM67 0v56h376v-56h-376z" />
    <glyph glyph-name="M" unicode="M" horiz-adv-x="703" 
d="M57 0v563h111l183 -534h2l180 534h111v-563h-65l3 530h-2l-182 -530h-95l-182 530h-2l3 -530h-65z" />
    <glyph glyph-name="N" unicode="N" horiz-adv-x="581" 
d="M458 563h65v-563h-121l-280 534h-2v-534h-65v563h113l288 -534h2v534z" />
    <glyph glyph-name="O" unicode="O" horiz-adv-x="604" 
d="M295 -14q-134 0 -204 79.5t-70 214.5q0 89 30.5 154.5t91 102t152.5 36.5q134 0 203 -79.5t69 -213.5q0 -87 -30.5 -153.5t-91 -103.5t-150.5 -37zM294 48q70 0 116.5 29t70 81.5t23.5 121.5t-22.5 121.5t-69.5 82t-118 29.5q-103 0 -156.5 -62t-53.5 -171
q0 -68 23 -120.5t69.5 -82t117.5 -29.5z" />
    <glyph glyph-name="P" unicode="P" horiz-adv-x="489" 
d="M127 0h-64v563h64v-563zM117 563h160q93 0 142 -45t49 -134q0 -83 -50.5 -128t-140.5 -45h-160v50h153q66 0 102.5 30.5t36.5 92.5q0 64 -35.5 94t-103.5 30h-153v55z" />
    <glyph glyph-name="Q" unicode="Q" horiz-adv-x="613" 
d="M309 -14q-134 0 -204 79.5t-70 214.5q0 89 30.5 154.5t91.5 102t152 36.5q90 0 150.5 -36t91.5 -101.5t31 -154.5q0 -87 -31 -153.5t-91.5 -104t-150.5 -37.5zM372 -115q-16 0 -32 3.5t-29 15t-20.5 34t-7.5 59.5v31h60v-27q0 -15 1.5 -30t10.5 -24.5t32 -9.5q13 0 27 8
t20 8l5 -50q-1 0 -8.5 -2.5t-18.5 -6.5t-21.5 -6.5t-18.5 -2.5zM308 49q104 0 156.5 63t52.5 170q0 105 -51.5 168.5t-157.5 63.5q-102 0 -155 -60.5t-53 -171.5q0 -106 51.5 -169.5t156.5 -63.5z" />
    <glyph glyph-name="R" unicode="R" horiz-adv-x="531" 
d="M62 0v563h186q72 0 121.5 -14.5t76 -49.5t26.5 -97q0 -40 -14.5 -73.5t-44 -53.5t-73.5 -20q36 0 56 -13.5t29 -35.5t12 -47t4 -49t4.5 -42t15.5 -25t36 2v-42q-9 -8 -27.5 -11.5t-38.5 2.5t-33.5 27t-13.5 62q0 50 -4 81.5t-17.5 48.5t-41.5 24t-75 7t-119 -1v-243h-65z
M127 292h131q53 0 87.5 9t51.5 31.5t17 65.5q0 51 -21 74t-60.5 29.5t-97.5 6.5h-108v-216z" />
    <glyph glyph-name="S" unicode="S" horiz-adv-x="525" 
d="M269 -13q-44 0 -86.5 11t-77 33.5t-55 58.5t-20.5 85h64q0 -3 2 -17t10.5 -33t27.5 -37t53 -30t87 -12q44 0 72.5 10.5t44 26t21.5 31t6 25.5q1 35 -19 56.5t-53.5 34t-73.5 22.5t-79.5 21.5t-72.5 29.5t-52 48.5t-17 77.5q2 45 31 77t78 49.5t110 17.5q58 0 106 -20.5
t77 -61.5t27 -102h-63q2 38 -14 62t-41 37.5t-51.5 19t-46.5 5.5q-63 0 -103.5 -25t-42.5 -65q0 -35 20 -56t53 -33.5t73.5 -21.5t80 -20.5t72.5 -29.5t52 -49t17 -79q-2 -47 -31 -79.5t-77 -50t-109 -17.5z" />
    <glyph glyph-name="T" unicode="T" horiz-adv-x="449" 
d="M255 545v-545h-64v545h64zM10 507v56h425v-56h-425z" />
    <glyph glyph-name="U" unicode="U" horiz-adv-x="577" 
d="M286 -14q-113 0 -173.5 66.5t-60.5 187.5v323h66v-323q0 -50 13 -86.5t35.5 -60.5t53 -35t66.5 -11q52 0 89.5 19.5t58.5 62.5t21 111v323h66v-323q0 -123 -59.5 -188.5t-175.5 -65.5z" />
    <glyph glyph-name="V" unicode="V" horiz-adv-x="516" 
d="M433 563h70l-199 -563h-108l-198 563h70l182 -533z" />
    <glyph glyph-name="W" unicode="W" horiz-adv-x="839" 
d="M378 563h69l-35 -85l-140 -478h-105l-160 563h68l145 -533zM749 563h70l-166 -563h-105l-136 478l-34 85h69l153 -533z" />
    <glyph glyph-name="X" unicode="X" horiz-adv-x="549" 
d="M25 0l207 298l-187 265h78l151 -223l150 223h78l-186 -265l208 -298h-77l-173 255l-174 -255h-75z" />
    <glyph glyph-name="Y" unicode="Y" horiz-adv-x="430" 
d="M180 203l-193 360h72l153 -298l153 298h71l-195 -360h-61zM178 0v216h65v-216h-65z" />
    <glyph glyph-name="Z" unicode="Z" horiz-adv-x="544" 
d="M37 0v54l380 452h-349v57h431v-55l-378 -451h376v-57h-460z" />
    <glyph glyph-name="bracketleft" unicode="[" horiz-adv-x="251" 
d="M35 -199v802h203v-60h-142v-683h142v-59h-203z" />
    <glyph glyph-name="backslash" unicode="\" horiz-adv-x="332" 
d="M274 0l-254 563h63l254 -563h-63z" />
    <glyph glyph-name="bracketright" unicode="]" horiz-adv-x="264" 
d="M35 -199v59h148v683h-142v60h203v-802h-209z" />
    <glyph glyph-name="asciicircum" unicode="^" horiz-adv-x="403" 
d="M27 320v20l174 222l176 -222v-20h-65l-110 179h-2l-109 -179h-64z" />
    <glyph glyph-name="underscore" unicode="_" horiz-adv-x="524" 
d="M27 0v49h442v-49h-442z" />
    <glyph glyph-name="grave" unicode="`" horiz-adv-x="177" 
d="M114 450l-78 98v14h59l51 -103v-9h-32z" />
    <glyph glyph-name="a" unicode="a" horiz-adv-x="427" 
d="M181 -9q-56 0 -92 27.5t-53.5 74.5t-17.5 107q0 62 18 109t54.5 74.5t90.5 27.5q32 0 55.5 -8.5t40.5 -22.5t28.5 -29.5t17.5 -29.5h1v86h66v-407h-55l-10 79h-2q-7 -15 -18 -30.5t-28.5 -28.5t-41 -21t-54.5 -8zM206 48q42 0 67.5 18.5t37.5 52.5t12 80q0 49 -12.5 83
t-38.5 51.5t-66 17.5q-44 0 -71.5 -20t-39.5 -54t-12 -77q0 -44 12.5 -78.5t40 -54t70.5 -19.5z" />
    <glyph glyph-name="b" unicode="b" horiz-adv-x="476" 
d="M264 -10q-40 0 -67.5 13.5t-45 31.5t-26.5 34t-11 21h-2l-10 -90h-56v563h67v-258h2q2 5 10 21t24.5 35t44.5 32.5t69 13.5q59 0 98.5 -27t59.5 -74.5t20 -107.5t-20 -107t-59 -74t-98 -27zM248 47q48 0 76.5 22t41 56.5t12.5 72.5q0 39 -14 73t-44 55.5t-77 21.5
q-39 0 -68 -18t-45 -52t-16 -80t17 -80.5t47.5 -52.5t69.5 -18z" />
    <glyph glyph-name="c" unicode="c" horiz-adv-x="452" 
d="M225 -10q-57 0 -102 24t-71 70t-26 111q2 64 27.5 112t70.5 74.5t103 26.5q54 0 94 -20.5t64 -54t30 -74.5h-59q-9 43 -43 67.5t-84 24.5q-43 0 -74 -19.5t-48 -54t-18 -79.5q0 -68 37 -109t102 -41q48 0 83.5 24t44.5 69h59q-6 -41 -30.5 -75.5t-65 -55t-94.5 -20.5z
" />
    <glyph glyph-name="d" unicode="d" horiz-adv-x="487" 
d="M223 -10q-58 0 -97.5 27.5t-59.5 74.5t-20 106q0 61 20.5 108.5t60 74t97.5 26.5q41 0 69 -13.5t44.5 -32.5t24.5 -35t10 -21h2v258h66v-563h-55l-10 90h-2q-2 -5 -11 -21t-26.5 -34t-45 -31.5t-67.5 -13.5zM239 47q40 0 70 18t47 52.5t17 80.5t-16 80t-45 52t-68 18
q-47 0 -77 -21.5t-44 -55.5t-14 -73q0 -38 12.5 -72.5t41.5 -56.5t76 -22z" />
    <glyph glyph-name="e" unicode="e" horiz-adv-x="451" 
d="M223 -10q-67 0 -110.5 30.5t-64 79t-20.5 100.5q0 57 22.5 104.5t66 75.5t104.5 28q53 0 93.5 -22.5t65 -64.5t27.5 -99q1 -4 1 -11.5v-13.5h-318q0 -71 34.5 -111.5t97.5 -40.5q47 0 80.5 24t41.5 65h63q-7 -41 -31 -74t-63 -51.5t-90 -18.5zM92 232h250q0 16 -6.5 36.5
t-20.5 40t-37 32.5t-58 13q-31 0 -54 -10.5t-38.5 -28t-24 -39.5t-11.5 -44z" />
    <glyph glyph-name="f" unicode="f" horiz-adv-x="268" 
d="M76 -3v500q0 35 15 55t51 20h121v-53h-122v-522h-65zM13 359v48h243v-48h-243z" />
    <glyph glyph-name="g" unicode="g" horiz-adv-x="454" 
d="M138 -168v61h203v197h-2q-2 -5 -10.5 -21t-26 -34t-45 -31.5t-66.5 -13.5q-59 0 -98.5 27.5t-59.5 74.5t-20 106q0 61 20 108.5t60 74t99 26.5q40 0 68 -13.5t44.5 -32.5t24.5 -35t10 -21h2v102h66v-477q0 -32 -7.5 -54t-26 -33t-49.5 -11h-186zM205 47q40 0 70.5 18
t47 52.5t16.5 80.5t-15.5 80t-44.5 52t-68 18q-47 0 -77 -21.5t-44 -55.5t-14 -73q0 -38 12.5 -72.5t41 -56.5t75.5 -22z" />
    <glyph glyph-name="h" unicode="h" horiz-adv-x="453" 
d="M42 0v563h65v-257h2q2 5 9.5 21.5t23.5 34.5t43 31.5t68 13.5q42 0 70 -12.5t45 -34.5t25.5 -49.5t11.5 -55.5t3 -54v-201h-63v201q0 44 -9.5 77.5t-33 52t-67.5 18.5q-46 0 -74 -21.5t-41 -57t-13 -77.5v-193h-65z" />
    <glyph glyph-name="i" unicode="i" horiz-adv-x="169" 
d="M52 0v407h65v-407h-65zM85 468q-25 0 -34 13t-9 30q0 16 9 28.5t34 12.5t33 -12.5t8 -28.5q0 -17 -8 -30t-33 -13z" />
    <glyph glyph-name="j" unicode="j" horiz-adv-x="211" 
d="M92 468q-24 0 -33 13t-9 30q0 16 9 28.5t33 12.5q26 0 33.5 -12.5t7.5 -28.5q0 -17 -7.5 -30t-33.5 -13zM60 407h65v-500q0 -35 -14.5 -55t-51.5 -20h-68v53h69v522z" />
    <glyph glyph-name="k" unicode="k" horiz-adv-x="429" 
d="M113 -1h-65v564h65v-564zM220 257l201 -258h-79l-169 213zM108 103v75l227 230h82z" />
    <glyph glyph-name="l" unicode="l" horiz-adv-x="167" 
d="M52 0v563h63v-563h-63z" />
    <glyph glyph-name="m" unicode="m" horiz-adv-x="671" 
d="M38 0v407h60l3 -101h2q2 7 9.5 23.5t22 34.5t38.5 30.5t61 12.5q38 0 62 -14.5t37 -37.5t20 -49h2q2 8 10 24t24 34t41.5 30.5t62.5 12.5q39 0 64.5 -15.5t40.5 -41t21.5 -53.5t8.5 -54t2 -42v-201h-63v201q0 17 -1.5 41.5t-10 49t-27.5 41t-54 16.5q-38 0 -62.5 -22
t-35.5 -57.5t-11 -76.5v-193h-62v201q0 17 -2 41.5t-10 49t-27 41t-54 16.5q-39 0 -63 -22t-35 -57.5t-11 -76.5v-193h-63z" />
    <glyph glyph-name="n" unicode="n" horiz-adv-x="446" 
d="M38 0v407h55l11 -101h2q2 5 9.5 21.5t23.5 34.5t43.5 31.5t69.5 13.5t70 -12.5t44.5 -34t24.5 -48.5t10.5 -55.5t2.5 -55.5v-201h-62v201q0 44 -9.5 77.5t-33.5 52t-68 18.5q-45 0 -73 -21.5t-41 -57t-13 -77.5v-193h-66z" />
    <glyph glyph-name="o" unicode="o" horiz-adv-x="457" 
d="M222 -10q-65 0 -108.5 27t-65 74t-21.5 107q0 61 21.5 108.5t65 74.5t108.5 27q95 0 145 -57.5t50 -152.5q0 -59 -21 -106t-64 -74.5t-110 -27.5zM222 46q53 0 81 23t39.5 58.5t11.5 72.5t-11.5 73t-39.5 59t-81 23q-51 0 -80.5 -23t-40.5 -59t-11 -73t11 -72.5
t40.5 -58.5t80.5 -23z" />
    <glyph glyph-name="p" unicode="p" horiz-adv-x="475" 
d="M265 -10q-39 0 -66 13.5t-44.5 31.5t-26 34t-10.5 21h-2v-258h-66v575h55l11 -102h2q2 5 10 21t24.5 35t44 32.5t68.5 13.5q59 0 99 -27t60 -74.5t20 -108.5q0 -60 -20.5 -107t-60.5 -73.5t-98 -26.5zM252 47q47 0 75.5 22t41 56.5t12.5 72.5q0 39 -14 73t-43.5 55.5
t-77.5 21.5q-39 0 -68 -18t-44.5 -52t-15.5 -80t16.5 -80.5t47 -52.5t70.5 -18z" />
    <glyph glyph-name="q" unicode="q" horiz-adv-x="475" 
d="M209 -10q-58 0 -98 27t-60 74t-20 106q0 61 20.5 108.5t60.5 74.5t98 27q41 0 68.5 -13.5t44 -32.5t24 -35t9.5 -21h2l12 102h55v-575h-66v258h-2q-2 -5 -10.5 -21t-26 -34t-44.5 -31.5t-67 -13.5zM223 47q40 0 70 18t47 52.5t17 80.5t-16 80t-44.5 52t-68.5 18
q-47 0 -77 -21.5t-43.5 -55.5t-13.5 -73q0 -38 12.5 -72.5t41 -56.5t75.5 -22z" />
    <glyph glyph-name="r" unicode="r" horiz-adv-x="302" 
d="M48 0v407h58l7 -117l-1 -88v-202h-64zM112 190l-3 89q2 23 12 46t28.5 41.5t47.5 29.5t68 11h19v-71h-20q-48 0 -78 -10.5t-46 -30t-22 -46.5t-6 -59z" />
    <glyph glyph-name="s" unicode="s" horiz-adv-x="402" 
d="M204 -10q-34 0 -62 9.5t-48.5 25.5t-35 34.5t-21.5 37.5t-7 34h62q0 -1 2 -15t12 -32t33 -31.5t65 -13.5q30 0 54 7t37.5 22t12.5 37q0 29 -19.5 44.5t-50.5 24t-65 16.5t-65 20.5t-50 35.5t-18 64q1 50 45.5 79.5t114.5 29.5q29 0 59.5 -7t56 -22.5t40.5 -43t13 -68.5
h-60q1 28 -9.5 45.5t-28 27t-37 13t-36.5 3.5q-43 0 -70.5 -16t-27.5 -45q0 -27 19.5 -42t50 -23.5t65 -16t65.5 -20.5t50.5 -37t19.5 -66q0 -39 -21.5 -63.5t-59 -36t-85.5 -11.5z" />
    <glyph glyph-name="t" unicode="t" horiz-adv-x="276" 
d="M140 0q-36 0 -51 20t-15 55v293h62v-316h95v-52h-91zM10 359v48q24 0 38.5 2.5t21.5 12t9 31.5t2 59h55v-105h94v-48h-220z" />
    <glyph glyph-name="u" unicode="u" horiz-adv-x="445" 
d="M189 -10q-39 0 -66.5 12t-45 32.5t-26.5 47t-12.5 56t-3.5 59.5v210h64v-211q0 -40 8.5 -74t32.5 -54t71 -20q45 0 70.5 21t37.5 53.5t14 68.5v216h66v-407h-55l-11 91h-2q-4 -13 -13.5 -30t-26.5 -33t-42.5 -27t-59.5 -11z" />
    <glyph glyph-name="v" unicode="v" horiz-adv-x="413" 
d="M329 407h64v-14l-154 -393h-91l-155 393v14h64l136 -354h2z" />
    <glyph glyph-name="w" unicode="w" horiz-adv-x="604" 
d="M112 0l-109 393v15h62l92 -353h2l105 353h57l108 -353h2l90 353h62v-15l-108 -393h-92l-89 296h-2l-88 -296h-92z" />
    <glyph glyph-name="x" unicode="x" horiz-adv-x="418" 
d="M10 0l149 210l-142 197h73l110 -156l110 156h73l-142 -197l151 -210h-74l-118 168l-118 -168h-72z" />
    <glyph glyph-name="y" unicode="y" horiz-adv-x="407" 
d="M-3 -182v52h56q13 0 23 4t20 17t22 40l43 93l-160 383h67l125 -315l133 315h68l-218 -485q-15 -34 -27 -54.5t-25 -31.5t-28.5 -14.5t-37.5 -3.5h-61z" />
    <glyph glyph-name="z" unicode="z" horiz-adv-x="430" 
d="M35 0v47l277 312h-264v49h344v-48l-276 -310h276v-50h-357z" />
    <glyph glyph-name="braceleft" unicode="{" horiz-adv-x="296" 
d="M273 -196q-66 -10 -105 -2.5t-56.5 35t-19 77.5t7.5 124q6 50 1 78t-16.5 39.5t-26 14t-25.5 2.5v64q11 0 25.5 2.5t26 14t16.5 39.5t-1 78q-8 74 -7 123t18.5 76t56.5 35t105 -1v-59q-55 12 -82 5.5t-34.5 -30t-4 -61t10.5 -86.5q8 -48 6 -81.5t-21.5 -54t-63.5 -33.5
q44 -12 63.5 -32.5t21.5 -53.5t-6 -81q-7 -50 -10.5 -87t4 -60.5t34.5 -30.5t82 5v-59z" />
    <glyph glyph-name="bar" unicode="|" horiz-adv-x="185" 
d="M60 -151v752h65v-752h-65z" />
    <glyph glyph-name="braceright" unicode="}" horiz-adv-x="309" 
d="M37 -196v59q55 -12 81.5 -5t34.5 30.5t4 60.5t-10 87q-8 48 -6.5 81t21 53.5t64.5 32.5q-45 13 -64.5 33.5t-20.5 54t6 81.5q6 49 10 86.5t-4 61t-34.5 30t-81.5 -5.5v59q70 6 109 -2t55.5 -34.5t16.5 -74.5t-9 -122q-6 -50 -1 -78t17 -39.5t26 -14t25 -2.5v-64
q-11 0 -25 -2.5t-26 -14t-17 -39.5t1 -78q9 -74 9.5 -122.5t-16 -75t-56 -34.5t-109.5 -2z" />
    <glyph glyph-name="asciitilde" unicode="~" horiz-adv-x="373" 
d="M241 193q-24 0 -38 10.5t-23.5 24t-18.5 23.5t-25 10q-20 0 -24.5 -17t-3.5 -42h-43q-1 14 1 31.5t8.5 32.5t20.5 25t38 10q25 0 39 -10.5t23 -23.5t18.5 -23.5t25.5 -10.5q20 0 24 18.5t4 42.5h42q1 -16 -1 -33.5t-8.5 -33t-20.5 -25t-38 -9.5z" />
    <glyph glyph-name="uni00A0" unicode="&#xa0;" horiz-adv-x="237" 
 />
    <glyph glyph-name="exclamdown" unicode="&#xa1;" horiz-adv-x="179" 
d="M93 373q23 0 30.5 -12t7.5 -30q0 -16 -7.5 -28t-30.5 -12q-22 0 -30 12t-8 28q0 18 7.5 30t30.5 12zM69 225l7.5 -1.5t16.5 -1.5q11 0 17 1.5l6 1.5q4 -104 8.5 -177.5t6.5 -121.5t0 -75.5t-11 -38.5t-27 -11t-27 11t-11.5 38t-0.5 75.5t6.5 121.5t8.5 178z" />
    <glyph glyph-name="cent" unicode="&#xa2;" horiz-adv-x="450" 
d="M223 -10q-58 0 -102.5 24t-70.5 70t-26 111q2 64 27.5 112t70.5 74.5t103 26.5q54 0 93 -19.5t63 -52t32 -73.5l-60 -8q-10 46 -42.5 71t-85.5 25q-43 0 -73.5 -19.5t-47 -54t-17.5 -79.5q0 -68 36 -109t101 -41q51 0 85.5 25.5t43.5 71.5l60 -7q-8 -42 -32.5 -75.5
t-64 -53t-93.5 -19.5zM192 -89l3 94h57l3 -94h-63zM195 392l-3 95h63l-3 -95h-57z" />
    <glyph glyph-name="sterling" unicode="&#xa3;" horiz-adv-x="614" 
d="M92 -13l-31 49q28 21 48 45.5t29 53t4.5 62.5t-25.5 74q-28 55 -30 109t21 97.5t68 69t111 25.5q67 0 112.5 -24.5t69.5 -67.5t25 -100l-62 -7q-2 10 -6.5 28t-14 39t-26.5 39t-43.5 29.5t-65.5 10.5q-42 -1 -72.5 -20t-45.5 -51.5t-12.5 -75t26.5 -90.5q27 -55 29 -94.5
t-11.5 -68.5t-35.5 -57q35 17 69.5 15.5t67.5 -10.5t64 -17t59 -6t54 24q22 19 26.5 49t-7.5 64l61 12q15 -51 8.5 -87t-25.5 -57.5t-45 -29.5q-33 -21 -64.5 -24.5t-62 3t-61 15.5t-62.5 13.5t-66.5 -2t-71.5 -32.5q-1 -1 -2.5 -2t-3.5 -3zM38 219v50h366v-50h-366z" />
    <glyph glyph-name="currency" unicode="&#xa4;" horiz-adv-x="533" 
d="M435 2h-34l-41 59q-38 -27 -93 -27q-57 0 -96 28l-42 -60h-31l54 77q-41 46 -41 126q0 90 50 135l-47 65h34l35 -50q34 20 84 20q48 0 82 -19l34 49h35l-47 -65q51 -46 51 -135q0 -79 -41 -126zM267 55q25 0 45 6.5t36 16.5q4 3 7 6l6 6q-9 -10 -9.5 -10t3.5 4l8.5 8.5
l4.5 4.5q32 40 32 108q0 78 -41 118q-8 8 -22 15q-30 16 -70 16q-42 0 -72 -16q-1 -1 -11 -8t-10 -8q-41 -38 -41 -117q0 -33 12.5 -67.5t38.5 -58.5q16 -11 36.5 -17.5t46.5 -6.5z" />
    <glyph glyph-name="yen" unicode="&#xa5;" horiz-adv-x="467" 
d="M200 203l-193 360h71l153 -298l153 298h71l-195 -360h-60zM81 106v41h301v-41h-301zM81 194v41h301v-40zM198 0v216h64v-216h-64z" />
    <glyph glyph-name="brokenbar" unicode="&#xa6;" horiz-adv-x="185" 
d="M60 290v311h65v-311h-65zM60 -151v311h65v-311h-65z" />
    <glyph glyph-name="section" unicode="&#xa7;" horiz-adv-x="600" 
d="M418 223v-2q23 -15 39 -40t15 -60q-3 -56 -51.5 -88t-116.5 -32q-47 0 -90.5 16t-71.5 50t-30 86h31q0 -2 1.5 -15t9 -31t24.5 -35.5t48 -29t80 -11.5q45 0 72 11t40.5 27t18 31t4.5 22q1 38 -21 59.5t-58 33.5t-76.5 21.5t-76.5 24t-58 40t-20 70.5q1 28 20.5 48.5
t47.5 31.5v1q-31 17 -50 42.5t-18 61.5q2 36 25 61.5t61.5 39.5t84.5 14q47 0 84.5 -16.5t59.5 -48.5t20 -81h-30q1 36 -13 59t-36 35.5t-45.5 17.5t-41.5 5q-59 0 -97.5 -25t-40.5 -63q0 -37 22.5 -58t58 -32.5t76 -20.5t76 -23.5t57.5 -41t20 -72.5q-1 -28 -16 -48
t-38 -35zM162 369q0 -35 17.5 -55.5t47.5 -32t65.5 -19.5t69.5 -18q11 -2 15 -3t6 -2q8 -2 12 -0.5t6 2.5q26 17 33 37t7 29q1 33 -16.5 54t-47 34t-64.5 21.5t-69 17.5q-14 3 -21.5 4.5t-20.5 -6.5q-39 -26 -40 -63z" />
    <glyph glyph-name="dieresis" unicode="&#xa8;" horiz-adv-x="341" 
d="M93 462q-28 0 -38 14.5t-10 33.5q0 18 10 32t38 14t37.5 -14t9.5 -32q0 -19 -9.5 -33.5t-37.5 -14.5zM250 462q-29 0 -38.5 14.5t-9.5 33.5q0 18 9.5 32t38.5 14q28 0 37 -14t9 -32q0 -19 -9 -33.5t-37 -14.5z" />
    <glyph glyph-name="copyright" unicode="&#xa9;" horiz-adv-x="635" 
d="M328 -10q-61 0 -114 22.5t-93.5 63t-63 93.5t-22.5 114q0 59 22.5 111.5t63 92.5t93.5 63t114 23q59 0 111.5 -23t92.5 -63t63 -92.5t23 -111.5q0 -61 -23 -114t-63 -93.5t-92.5 -63t-111.5 -22.5zM328 30q53 0 98.5 19t79.5 53t53 80.5t19 99.5t-19 98.5t-53 80
t-79.5 53.5t-98.5 19q-54 0 -100 -19t-80 -53.5t-53 -80t-19 -98.5t19 -99.5t53 -80.5t80 -53t100 -19zM328 115q-45 0 -81 18.5t-57 56t-21 92.5q0 80 46 123.5t116 43.5q41 0 72 -15.5t50.5 -43t25.5 -64.5l-45 -6q-9 42 -33.5 64.5t-69.5 22.5q-55 0 -85.5 -32.5
t-30.5 -90.5q0 -61 30 -94t84 -33q46 0 72 24t35 66l46 -10q-7 -36 -26.5 -63.5t-51 -43t-76.5 -15.5z" />
    <glyph glyph-name="ordfeminine" unicode="&#xaa;" horiz-adv-x="279" 
d="M125 403q-53 0 -77.5 37t-24.5 94q0 59 25 96.5t77 37.5q27 0 45 -9t29 -22.5t15 -25.5v55h45v-258h-36l-7 49h-2q-4 -12 -15 -24.5t-29 -21t-45 -8.5zM142 440q39 0 56 25.5t17 68.5q0 46 -17.5 70.5t-55.5 24.5q-41 0 -59 -27.5t-18 -67.5q0 -41 18.5 -67.5t58.5 -26.5
z" />
    <glyph glyph-name="guillemotleft" unicode="&#xab;" horiz-adv-x="507" 
d="M309 511v-59l-227 -157l227 -160v-59l-290 219zM473 511v-62l-228 -154l228 -157v-62l-290 219z" />
    <glyph glyph-name="logicalnot" unicode="&#xac;" horiz-adv-x="373" 
d="M76 201v46h222v-46h-222zM251 116v131h47v-131h-47z" />
    <glyph glyph-name="registered" unicode="&#xae;" horiz-adv-x="408" 
d="M203 229q-48 0 -87 23t-62.5 62t-23.5 86q0 48 23.5 87t62.5 62t87 23q47 0 85.5 -23t61.5 -62t23 -87q0 -47 -23 -86t-61.5 -62t-85.5 -23zM203 257q41 0 73 19.5t50.5 52t18.5 71.5q0 40 -18.5 72.5t-50.5 52t-73 19.5q-42 0 -74 -19.5t-51 -52t-19 -72.5
q0 -39 19 -71.5t51 -52t74 -19.5zM137 315v179h63q36 0 55 -11.5t19 -40.5q0 -21 -11 -35.5t-36 -14.5q20 0 26.5 -10.5t7.5 -23.5t4.5 -20.5t17.5 -2.5v-17q-7 -6 -18 -7t-20 7t-9 28q0 21 -3.5 30.5t-18.5 12t-48 0.5v-74h-29zM166 411h35q24 0 35.5 5t11.5 23
q0 22 -14 26.5t-40 4.5h-28v-59z" />
    <glyph glyph-name="macron" unicode="&#xaf;" horiz-adv-x="329" 
d="M40 472v48h249v-48h-249z" />
    <glyph glyph-name="degree" unicode="&#xb0;" horiz-adv-x="296" 
d="M131 371q-53 0 -77 27.5t-24 72.5q0 46 23.5 74t77.5 28q52 0 77.5 -28t25.5 -74q0 -43 -25.5 -71.5t-77.5 -28.5zM130 414q34 0 47 17t13 41q0 26 -13 43.5t-47 17.5q-33 0 -46 -18t-13 -43t14.5 -41.5t44.5 -16.5z" />
    <glyph glyph-name="plusminus" unicode="&#xb1;" horiz-adv-x="373" 
d="M76 49v43h222v-43h-222zM168 139v201h43v-201h-43zM76 217v42h222v-42h-222z" />
    <glyph glyph-name="uni00B2" unicode="&#xb2;" horiz-adv-x="236" 
d="M15 407v34l19 11.5t45.5 30.5t51 41.5t36.5 45.5q17 33 0.5 56.5t-50.5 23.5q-27 0 -44 -17.5t-14 -52.5l-37 4q-4 47 25 73.5t74 26.5q36 0 60.5 -16.5t32 -44t-8.5 -59.5q-11 -22 -33.5 -43t-47 -38t-43.5 -28t-24 -12h164v-36h-206z" />
    <glyph glyph-name="uni00B3" unicode="&#xb3;" horiz-adv-x="239" 
d="M123 397q-44 0 -76 24t-32 72l39 5q1 -32 21.5 -49t48.5 -17q26 0 44 14t18 37q0 17 -9 27t-22 14t-24 4h-34v22h35q21 0 35 10t14 29q0 24 -16.5 38t-44.5 14q-21 0 -35 -9.5t-20.5 -22.5t-7.5 -24l-36 5q0 8 5 21.5t16 28t30 24.5t48 10q45 0 71.5 -20.5t26.5 -55.5
q0 -23 -13 -39t-36 -21q23 -3 39 -20.5t16 -42.5q0 -36 -28.5 -57t-72.5 -21z" />
    <glyph glyph-name="acute" unicode="&#xb4;" horiz-adv-x="195" 
d="M68 450h-32v9l51 103h59v-14z" />
    <glyph glyph-name="uni00B5" unicode="&#xb5;" horiz-adv-x="487" 
d="M58 -154v561h64v-211q0 -40 8.5 -73.5t32.5 -53.5t71 -20q44 0 70 20.5t37.5 53t13.5 68.5v216h66v-406h-55l-7 79h-3q-8 -21 -23 -41.5t-39 -34.5t-59 -14q-43 0 -69.5 14.5t-41.5 39.5h-2v-198h-64z" />
    <glyph glyph-name="paragraph" unicode="&#xb6;" horiz-adv-x="506" 
d="M231 -92v403h-15q-55 2 -100.5 20t-72.5 59.5t-27 113.5q0 70 26.5 111.5t71.5 61t99 20.5h30h54v-789h-66zM357 -92v789h66v-789h-66zM227 634l-4 63h267v-63h-263z" />
    <glyph glyph-name="periodcentered" unicode="&#xb7;" horiz-adv-x="211" 
d="M101 195q-33 0 -44.5 17t-11.5 40q0 21 11.5 38t44.5 17q34 0 44.5 -17t10.5 -38q0 -23 -10.5 -40t-44.5 -17z" />
    <glyph glyph-name="cedilla" unicode="&#xb8;" horiz-adv-x="267" 
d="M33 -117l23 33q13 -13 36 -22t45 -9t36.5 9t14.5 28q0 14 -11.5 20.5t-27.5 6.5q-13 0 -27.5 -4.5t-25.5 -14.5l-29 19l40 83l34 -14l-40 -62q11 11 28 17.5t35 6.5q26 0 48 -14t22 -45q0 -37 -30 -56t-71 -19q-25 0 -51.5 9.5t-48.5 27.5z" />
    <glyph glyph-name="uni00B9" unicode="&#xb9;" horiz-adv-x="169" 
d="M75 417v218q-6 -21 -19 -32.5t-25 -15.5t-16 -4v45q4 0 19.5 2.5t29.5 14.5t15 37h36v-265h-40zM30 405v37h124v-37h-124z" />
    <glyph glyph-name="ordmasculine" unicode="&#xba;" horiz-adv-x="297" 
d="M149 408q-67 0 -100.5 40t-33.5 102q0 63 33.5 103t100.5 40q65 0 99 -39t34 -104q0 -61 -32.5 -101.5t-100.5 -40.5zM149 446q36 0 55.5 15.5t27 40t7.5 49.5q0 26 -7.5 50.5t-27 40.5t-55.5 16t-55.5 -16t-27.5 -40.5t-8 -50.5q0 -25 8 -49.5t27.5 -40t55.5 -15.5z" />
    <glyph glyph-name="guillemotright" unicode="&#xbb;" horiz-adv-x="483" 
d="M178 511l290 -216l-290 -219v59l228 160l-228 157v59zM15 511l290 -216l-290 -219v62l228 157l-228 154v62z" />
    <glyph glyph-name="onequarter" unicode="&#xbc;" horiz-adv-x="605" 
d="M75 302v218q-6 -22 -19 -33t-25 -15t-16 -4v45q4 -1 19.5 2t29.5 14.5t15 37.5h36v-265h-40zM30 290v36h124v-36h-124zM73 2l-34 27l217 267l195 265l34 -26l-206 -256zM370 56v36q33 15 57.5 46t39 68.5t14.5 70.5h45q0 -51 -31.5 -101.5t-81.5 -83.5h178v-36h-221z
M513 0v138h41v-138h-41z" />
    <glyph glyph-name="onehalf" unicode="&#xbd;" horiz-adv-x="590" 
d="M75 302v218q-6 -22 -19 -33t-25 -15t-16 -4v45q4 -1 19.5 2t29.5 14.5t15 37.5h36v-265h-40zM30 290v36h124v-36h-124zM73 2l-34 27l217 267l195 265l34 -26l-206 -256zM370 0v34q4 1 25 14t48 33t50 43.5t31 46.5q12 30 -3.5 51t-48.5 21q-27 0 -44 -17.5t-14 -53.5
l-37 5q-4 47 25 73.5t74 26.5q33 0 56.5 -14.5t32.5 -38.5t-2 -53q-7 -22 -26.5 -44.5t-44 -42.5t-46.5 -33t-34 -16h164v-35h-206z" />
    <glyph glyph-name="threequarters" unicode="&#xbe;" horiz-adv-x="675" 
d="M123 279q-45 0 -76.5 23.5t-31.5 71.5l39 6q1 -33 21.5 -49.5t48.5 -16.5q26 0 44 14.5t18 36.5q0 19 -9 30t-22 15.5t-24 4.5h-34v22h35q21 0 35 13t14 31q0 25 -16.5 38.5t-44.5 13.5q-21 0 -35 -9t-20.5 -22t-7.5 -24l-36 5q0 8 5 21.5t16 28t30 24.5t48 10
q45 0 71.5 -21t26.5 -57q0 -22 -13 -40.5t-36 -22.5q23 -4 39 -22.5t16 -44.5q0 -36 -28.5 -58t-72.5 -22zM143 2l-34 27l217 267l195 265l34 -26l-206 -256zM440 56v36q33 15 57.5 46t39 68.5t14.5 70.5h45q0 -51 -31.5 -101.5t-81.5 -83.5h178v-36h-221zM583 0v138h41
v-138h-41z" />
    <glyph glyph-name="questiondown" unicode="&#xbf;" horiz-adv-x="434" 
d="M206 227h57q-1 -38 -17 -65.5t-39.5 -50t-46.5 -43.5t-39.5 -46t-16.5 -58q-1 -47 30.5 -76.5t83.5 -29.5q34 0 57 11.5t37 31t20 43.5t6 48h62q3 -37 -6.5 -71.5t-31.5 -61.5t-57 -42.5t-84 -15.5t-90.5 19t-65.5 54t-24 83q0 42 16.5 70.5t40.5 50t48.5 42t41.5 45.5
t18 62zM233 377q24 0 32 -12.5t8 -30.5q0 -17 -8 -29.5t-32 -12.5q-23 0 -30.5 12.5t-7.5 29.5q0 18 7.5 30.5t30.5 12.5z" />
    <glyph glyph-name="Agrave" unicode="&#xc0;" horiz-adv-x="541" 
d="M19 0l198 563h106l201 -563h-68l-184 535l-185 -535h-68zM128 176l5 54h275l6 -54h-286zM261 606l-78 98v14h59l51 -103v-9h-32z" />
    <glyph glyph-name="Aacute" unicode="&#xc1;" horiz-adv-x="541" 
d="M19 0l198 563h106l201 -563h-68l-184 535l-185 -535h-68zM128 176l5 54h275l6 -54h-286zM286 606h-32v9l51 103h59v-14z" />
    <glyph glyph-name="Acircumflex" unicode="&#xc2;" horiz-adv-x="541" 
d="M19 0l198 563h106l201 -563h-68l-184 535l-185 -535h-68zM128 176l5 54h275l6 -54h-286zM146 619v8l109 103h29l109 -103v-8h-60l-62 67h-3l-60 -67h-62z" />
    <glyph glyph-name="Atilde" unicode="&#xc3;" horiz-adv-x="541" 
d="M19 0l198 563h106l201 -563h-68l-184 535l-185 -535h-68zM128 176l5 54h275l6 -54h-286zM155 628q-1 15 0.5 31t8 30t19.5 23t35 9q23 0 37 -8.5t23 -19t18.5 -19t23.5 -8.5q17 0 20 14t3 40h43q0 -17 -1.5 -34t-8.5 -30t-19.5 -21.5t-34.5 -8.5t-36 8.5t-23.5 19
t-18.5 19t-23 8.5q-17 0 -20.5 -14t-3.5 -39h-42z" />
    <glyph glyph-name="Adieresis" unicode="&#xc4;" horiz-adv-x="541" 
d="M19 0l198 563h106l201 -563h-68l-184 535l-185 -535h-68zM128 176l5 54h275l6 -54h-286zM193 618q-28 0 -38 14.5t-10 33.5q0 18 10 32t38 14t37.5 -14t9.5 -32q0 -19 -9.5 -33.5t-37.5 -14.5zM350 618q-29 0 -38.5 14.5t-9.5 33.5q0 18 9.5 32t38.5 14q28 0 37 -14
t9 -32q0 -19 -9 -33.5t-37 -14.5z" />
    <glyph glyph-name="Aring" unicode="&#xc5;" horiz-adv-x="541" 
d="M19 0l198 563h106l201 -563h-68l-184 535l-185 -535h-68zM128 176l5 54h275l6 -54h-286zM270 623q-44 0 -67.5 24.5t-23.5 65.5q0 42 23 66.5t67 24.5q45 0 69 -24.5t24 -66.5q0 -39 -24 -64.5t-68 -25.5zM269 663q25 0 38.5 15t13.5 36q0 22 -13.5 37.5t-38.5 15.5
t-38.5 -15.5t-13.5 -37.5t14.5 -36.5t37.5 -14.5z" />
    <glyph glyph-name="AE" unicode="&#xc6;" horiz-adv-x="836" 
d="M414 0v563h377v-57h-313v-194h248v-54h-248v-204h323v-54h-387zM172 176l6 54h256l-1 -54h-261zM19 0l352 563h64l-347 -563h-69z" />
    <glyph glyph-name="Ccedilla" unicode="&#xc7;" horiz-adv-x="596" 
d="M299 -10q-77 0 -139.5 32.5t-99 97.5t-35.5 160q0 97 35.5 162t98.5 98t144 33q69 0 122 -25t86.5 -71.5t45.5 -111.5h-67q-9 51 -36 83.5t-66 48.5t-85 16q-100 0 -157 -59t-57 -170q0 -115 56 -174.5t155 -59.5q50 0 90.5 16.5t67.5 49.5t35 82h68q-11 -64 -45 -110.5
t-88.5 -72t-128.5 -25.5zM208 -127l23 33q13 -13 36 -22t45 -9t36.5 9t14.5 28q0 14 -11.5 20.5t-27.5 6.5q-13 0 -27.5 -4.5t-25.5 -14.5l-29 19l40 83l34 -14l-40 -62q11 11 28 17.5t35 6.5q26 0 48 -14t22 -45q0 -37 -30 -56t-71 -19q-25 0 -51.5 9.5t-48.5 27.5z" />
    <glyph glyph-name="Egrave" unicode="&#xc8;" horiz-adv-x="479" 
d="M57 0v563h377v-57h-314v-194h249v-54h-249v-204h324v-54h-387zM230 606l-78 98v14h59l51 -103v-9h-32z" />
    <glyph glyph-name="Eacute" unicode="&#xc9;" horiz-adv-x="479" 
d="M57 0v563h377v-57h-314v-194h249v-54h-249v-204h324v-54h-387zM256 606h-32v9l51 103h59v-14z" />
    <glyph glyph-name="Ecircumflex" unicode="&#xca;" horiz-adv-x="479" 
d="M57 0v563h377v-57h-314v-194h249v-54h-249v-204h324v-54h-387zM116 619v8l109 103h29l109 -103v-8h-60l-62 67h-3l-60 -67h-62z" />
    <glyph glyph-name="Edieresis" unicode="&#xcb;" horiz-adv-x="479" 
d="M57 0v563h377v-57h-314v-194h249v-54h-249v-204h324v-54h-387zM162 618q-28 0 -38 14.5t-10 33.5q0 18 10 32t38 14t37.5 -14t9.5 -32q0 -19 -9.5 -33.5t-37.5 -14.5zM319 618q-29 0 -38.5 14.5t-9.5 33.5q0 18 9.5 32t38.5 14q28 0 37 -14t9 -32q0 -19 -9 -33.5
t-37 -14.5z" />
    <glyph glyph-name="Igrave" unicode="&#xcc;" horiz-adv-x="342" 
d="M135 18v527h64v-527h-64zM58 0v56h218v-56h-218zM58 507v56h218v-56h-218zM158 606l-78 98v14h59l51 -103v-9h-32z" />
    <glyph glyph-name="Iacute" unicode="&#xcd;" horiz-adv-x="342" 
d="M135 18v527h64v-527h-64zM58 0v56h218v-56h-218zM58 507v56h218v-56h-218zM183 606h-32v9l51 103h59v-14z" />
    <glyph glyph-name="Icircumflex" unicode="&#xce;" horiz-adv-x="342" 
d="M135 18v527h64v-527h-64zM58 0v56h218v-56h-218zM58 507v56h218v-56h-218zM43 619v8l109 103h29l109 -103v-8h-60l-62 67h-3l-60 -67h-62z" />
    <glyph glyph-name="Idieresis" unicode="&#xcf;" horiz-adv-x="342" 
d="M135 18v527h64v-527h-64zM58 0v56h218v-56h-218zM58 507v56h218v-56h-218zM89 618q-28 0 -38 14.5t-10 33.5q0 18 10 32t38 14t37.5 -14t9.5 -32q0 -19 -9.5 -33.5t-37.5 -14.5zM246 618q-29 0 -38.5 14.5t-9.5 33.5q0 18 9.5 32t38.5 14q28 0 37 -14t9 -32
q0 -19 -9 -33.5t-37 -14.5z" />
    <glyph glyph-name="Eth" unicode="&#xd0;" horiz-adv-x="600" 
d="M67 0v563h101.5h47.5q102 0 178 -31.5t118 -93.5t42 -156q0 -111 -42 -172.5t-118 -85.5t-178 -24h-50.5h-98.5zM0 263v47h300v-47h-300zM131 55h65.5h33.5q58 0 105.5 9t81 34t51.5 69.5t18 114.5q0 77 -31.5 126.5t-89 73.5t-135.5 24h-99v-451z" />
    <glyph glyph-name="Ntilde" unicode="&#xd1;" horiz-adv-x="581" 
d="M458 563h65v-563h-121l-280 534h-2v-534h-65v563h113l288 -534h2v534zM176 628q-1 15 0.5 31t8 30t19.5 23t35 9q23 0 37 -8.5t23 -19t18.5 -19t23.5 -8.5q17 0 20 14t3 40h43q0 -17 -1.5 -34t-8.5 -30t-19.5 -21.5t-34.5 -8.5t-36 8.5t-23.5 19t-18.5 19t-23 8.5
q-17 0 -20.5 -14t-3.5 -39h-42z" />
    <glyph glyph-name="Ograve" unicode="&#xd2;" horiz-adv-x="604" 
d="M295 -14q-134 0 -204 79.5t-70 214.5q0 89 30.5 154.5t91 102t152.5 36.5q134 0 203 -79.5t69 -213.5q0 -87 -30.5 -153.5t-91 -103.5t-150.5 -37zM294 48q70 0 116.5 29t70 81.5t23.5 121.5t-22.5 121.5t-69.5 82t-118 29.5q-103 0 -156.5 -62t-53.5 -171
q0 -68 23 -120.5t69.5 -82t117.5 -29.5zM293 606l-78 98v14h59l51 -103v-9h-32z" />
    <glyph glyph-name="Oacute" unicode="&#xd3;" horiz-adv-x="604" 
d="M295 -14q-134 0 -204 79.5t-70 214.5q0 89 30.5 154.5t91 102t152.5 36.5q134 0 203 -79.5t69 -213.5q0 -87 -30.5 -153.5t-91 -103.5t-150.5 -37zM294 48q70 0 116.5 29t70 81.5t23.5 121.5t-22.5 121.5t-69.5 82t-118 29.5q-103 0 -156.5 -62t-53.5 -171
q0 -68 23 -120.5t69.5 -82t117.5 -29.5zM318 606h-32v9l51 103h59v-14z" />
    <glyph glyph-name="Ocircumflex" unicode="&#xd4;" horiz-adv-x="604" 
d="M295 -14q-134 0 -204 79.5t-70 214.5q0 89 30.5 154.5t91 102t152.5 36.5q134 0 203 -79.5t69 -213.5q0 -87 -30.5 -153.5t-91 -103.5t-150.5 -37zM294 48q70 0 116.5 29t70 81.5t23.5 121.5t-22.5 121.5t-69.5 82t-118 29.5q-103 0 -156.5 -62t-53.5 -171
q0 -68 23 -120.5t69.5 -82t117.5 -29.5zM178 619v8l109 103h29l109 -103v-8h-60l-62 67h-3l-60 -67h-62z" />
    <glyph glyph-name="Otilde" unicode="&#xd5;" horiz-adv-x="604" 
d="M295 -14q-134 0 -204 79.5t-70 214.5q0 89 30.5 154.5t91 102t152.5 36.5q134 0 203 -79.5t69 -213.5q0 -87 -30.5 -153.5t-91 -103.5t-150.5 -37zM294 48q70 0 116.5 29t70 81.5t23.5 121.5t-22.5 121.5t-69.5 82t-118 29.5q-103 0 -156.5 -62t-53.5 -171
q0 -68 23 -120.5t69.5 -82t117.5 -29.5zM187 628q-1 15 0.5 31t8 30t19.5 23t35 9q23 0 37 -8.5t23 -19t18.5 -19t23.5 -8.5q17 0 20 14t3 40h43q0 -17 -1.5 -34t-8.5 -30t-19.5 -21.5t-34.5 -8.5t-36 8.5t-23.5 19t-18.5 19t-23 8.5q-17 0 -20.5 -14t-3.5 -39h-42z" />
    <glyph glyph-name="Odieresis" unicode="&#xd6;" horiz-adv-x="604" 
d="M295 -14q-134 0 -204 79.5t-70 214.5q0 89 30.5 154.5t91 102t152.5 36.5q134 0 203 -79.5t69 -213.5q0 -87 -30.5 -153.5t-91 -103.5t-150.5 -37zM294 48q70 0 116.5 29t70 81.5t23.5 121.5t-22.5 121.5t-69.5 82t-118 29.5q-103 0 -156.5 -62t-53.5 -171
q0 -68 23 -120.5t69.5 -82t117.5 -29.5zM225 618q-28 0 -38 14.5t-10 33.5q0 18 10 32t38 14t37.5 -14t9.5 -32q0 -19 -9.5 -33.5t-37.5 -14.5zM382 618q-29 0 -38.5 14.5t-9.5 33.5q0 18 9.5 32t38.5 14q28 0 37 -14t9 -32q0 -19 -9 -33.5t-37 -14.5z" />
    <glyph glyph-name="multiply" unicode="&#xd7;" horiz-adv-x="373" 
d="M274 96l-88 88l-86 -86l-35 35l87 86l-86 86l35 35l85 -86l87 87l35 -35l-87 -87l87 -88z" />
    <glyph glyph-name="Oslash" unicode="&#xd8;" horiz-adv-x="600" 
d="M87 -24l425 615l23 -14l-425 -614zM295 -14q-134 0 -204 79.5t-70 214.5q0 89 30.5 154.5t91 102t152.5 36.5q134 0 203 -79.5t69 -213.5q0 -87 -30.5 -153.5t-91 -103.5t-150.5 -37zM294 48q70 0 116.5 29t70 81.5t23.5 121.5t-22.5 121.5t-69.5 82t-118 29.5
q-103 0 -156.5 -62t-53.5 -171q0 -68 23 -120.5t69.5 -82t117.5 -29.5z" />
    <glyph glyph-name="Ugrave" unicode="&#xd9;" horiz-adv-x="577" 
d="M286 -14q-113 0 -173.5 66.5t-60.5 187.5v323h66v-323q0 -50 13 -86.5t35.5 -60.5t53 -35t66.5 -11q52 0 89.5 19.5t58.5 62.5t21 111v323h66v-323q0 -123 -59.5 -188.5t-175.5 -65.5zM279 606l-78 98v14h59l51 -103v-9h-32z" />
    <glyph glyph-name="Uacute" unicode="&#xda;" horiz-adv-x="577" 
d="M286 -14q-113 0 -173.5 66.5t-60.5 187.5v323h66v-323q0 -50 13 -86.5t35.5 -60.5t53 -35t66.5 -11q52 0 89.5 19.5t58.5 62.5t21 111v323h66v-323q0 -123 -59.5 -188.5t-175.5 -65.5zM304 606h-32v9l51 103h59v-14z" />
    <glyph glyph-name="Ucircumflex" unicode="&#xdb;" horiz-adv-x="577" 
d="M286 -14q-113 0 -173.5 66.5t-60.5 187.5v323h66v-323q0 -50 13 -86.5t35.5 -60.5t53 -35t66.5 -11q52 0 89.5 19.5t58.5 62.5t21 111v323h66v-323q0 -123 -59.5 -188.5t-175.5 -65.5zM164 619v8l109 103h29l109 -103v-8h-60l-62 67h-3l-60 -67h-62z" />
    <glyph glyph-name="Udieresis" unicode="&#xdc;" horiz-adv-x="577" 
d="M286 -14q-113 0 -173.5 66.5t-60.5 187.5v323h66v-323q0 -50 13 -86.5t35.5 -60.5t53 -35t66.5 -11q52 0 89.5 19.5t58.5 62.5t21 111v323h66v-323q0 -123 -59.5 -188.5t-175.5 -65.5zM210 618q-28 0 -38 14.5t-10 33.5q0 18 10 32t38 14t37.5 -14t9.5 -32
q0 -19 -9.5 -33.5t-37.5 -14.5zM367 618q-29 0 -38.5 14.5t-9.5 33.5q0 18 9.5 32t38.5 14q28 0 37 -14t9 -32q0 -19 -9 -33.5t-37 -14.5z" />
    <glyph glyph-name="Yacute" unicode="&#xdd;" horiz-adv-x="430" 
d="M180 203l-193 360h72l153 -298l153 298h71l-195 -360h-61zM178 0v216h65v-216h-65zM231 606h-32v9l51 103h59v-14z" />
    <glyph glyph-name="Thorn" unicode="&#xde;" horiz-adv-x="483" 
d="M127 0h-64v563h64v-563zM117 458h154q93 0 142 -45t49 -135q0 -82 -50.5 -127.5t-140.5 -45.5h-154v51h147q66 0 102.5 30.5t36.5 92.5q0 64 -35.5 94t-103.5 30h-147v55z" />
    <glyph glyph-name="germandbls" unicode="&#xdf;" horiz-adv-x="528" 
d="M326 -10q-39 0 -68.5 10t-50 27.5t-33 40t-17.5 48.5h56l4.5 -11t16 -24t32 -23.5t53.5 -10.5q38 0 66 14t43.5 38t15.5 53q0 35 -20.5 57t-50 36t-59 25.5t-49.5 26t-20 37.5q0 19 12 30.5t30.5 19.5t36.5 17t30.5 23.5t12.5 39.5q0 15 -10 23.5t-27.5 13.5t-39 6.5
t-44.5 1.5h-128v-509h-63v563h191q24 0 55 -1t60 -8t48 -24.5t19 -51.5q0 -31 -13.5 -50t-33 -31t-39 -20t-33 -17.5t-13.5 -24.5q0 -17 21.5 -28t52.5 -21.5t62.5 -27t52.5 -44t21 -72.5q0 -44 -24.5 -78.5t-65.5 -54t-90 -19.5z" />
    <glyph glyph-name="agrave" unicode="&#xe0;" horiz-adv-x="427" 
d="M181 -9q-56 0 -92 27.5t-53.5 74.5t-17.5 107q0 62 18 109t54.5 74.5t90.5 27.5q32 0 55.5 -8.5t40.5 -22.5t28.5 -29.5t17.5 -29.5h1v86h66v-407h-55l-10 79h-2q-7 -15 -18 -30.5t-28.5 -28.5t-41 -21t-54.5 -8zM206 48q42 0 67.5 18.5t37.5 52.5t12 80q0 49 -12.5 83
t-38.5 51.5t-66 17.5q-44 0 -71.5 -20t-39.5 -54t-12 -77q0 -44 12.5 -78.5t40 -54t70.5 -19.5zM204 450l-78 98v14h59l51 -103v-9h-32z" />
    <glyph glyph-name="aacute" unicode="&#xe1;" horiz-adv-x="427" 
d="M181 -9q-56 0 -92 27.5t-53.5 74.5t-17.5 107q0 62 18 109t54.5 74.5t90.5 27.5q32 0 55.5 -8.5t40.5 -22.5t28.5 -29.5t17.5 -29.5h1v86h66v-407h-55l-10 79h-2q-7 -15 -18 -30.5t-28.5 -28.5t-41 -21t-54.5 -8zM206 48q42 0 67.5 18.5t37.5 52.5t12 80q0 49 -12.5 83
t-38.5 51.5t-66 17.5q-44 0 -71.5 -20t-39.5 -54t-12 -77q0 -44 12.5 -78.5t40 -54t70.5 -19.5zM229 450h-32v9l51 103h59v-14z" />
    <glyph glyph-name="acircumflex" unicode="&#xe2;" horiz-adv-x="427" 
d="M181 -9q-56 0 -92 27.5t-53.5 74.5t-17.5 107q0 62 18 109t54.5 74.5t90.5 27.5q32 0 55.5 -8.5t40.5 -22.5t28.5 -29.5t17.5 -29.5h1v86h66v-407h-55l-10 79h-2q-7 -15 -18 -30.5t-28.5 -28.5t-41 -21t-54.5 -8zM206 48q42 0 67.5 18.5t37.5 52.5t12 80q0 49 -12.5 83
t-38.5 51.5t-66 17.5q-44 0 -71.5 -20t-39.5 -54t-12 -77q0 -44 12.5 -78.5t40 -54t70.5 -19.5zM89 463v8l109 103h29l109 -103v-8h-60l-62 67h-3l-60 -67h-62z" />
    <glyph glyph-name="atilde" unicode="&#xe3;" horiz-adv-x="427" 
d="M181 -9q-56 0 -92 27.5t-53.5 74.5t-17.5 107q0 62 18 109t54.5 74.5t90.5 27.5q32 0 55.5 -8.5t40.5 -22.5t28.5 -29.5t17.5 -29.5h1v86h66v-407h-55l-10 79h-2q-7 -15 -18 -30.5t-28.5 -28.5t-41 -21t-54.5 -8zM206 48q42 0 67.5 18.5t37.5 52.5t12 80q0 49 -12.5 83
t-38.5 51.5t-66 17.5q-44 0 -71.5 -20t-39.5 -54t-12 -77q0 -44 12.5 -78.5t40 -54t70.5 -19.5zM98 472q-1 15 0.5 31t8 30t19.5 23t35 9q23 0 37 -8.5t23 -19t18.5 -19t23.5 -8.5q17 0 20 14t3 40h43q0 -17 -1.5 -34t-8.5 -30t-19.5 -21.5t-34.5 -8.5t-36 8.5t-23.5 19
t-18.5 19t-23 8.5q-17 0 -20.5 -14t-3.5 -39h-42z" />
    <glyph glyph-name="adieresis" unicode="&#xe4;" horiz-adv-x="427" 
d="M181 -9q-56 0 -92 27.5t-53.5 74.5t-17.5 107q0 62 18 109t54.5 74.5t90.5 27.5q32 0 55.5 -8.5t40.5 -22.5t28.5 -29.5t17.5 -29.5h1v86h66v-407h-55l-10 79h-2q-7 -15 -18 -30.5t-28.5 -28.5t-41 -21t-54.5 -8zM206 48q42 0 67.5 18.5t37.5 52.5t12 80q0 49 -12.5 83
t-38.5 51.5t-66 17.5q-44 0 -71.5 -20t-39.5 -54t-12 -77q0 -44 12.5 -78.5t40 -54t70.5 -19.5zM135 462q-28 0 -38 14.5t-10 33.5q0 18 10 32t38 14t37.5 -14t9.5 -32q0 -19 -9.5 -33.5t-37.5 -14.5zM292 462q-29 0 -38.5 14.5t-9.5 33.5q0 18 9.5 32t38.5 14q28 0 37 -14
t9 -32q0 -19 -9 -33.5t-37 -14.5z" />
    <glyph glyph-name="aring" unicode="&#xe5;" horiz-adv-x="427" 
d="M181 -9q-56 0 -92 27.5t-53.5 74.5t-17.5 107q0 62 18 109t54.5 74.5t90.5 27.5q32 0 55.5 -8.5t40.5 -22.5t28.5 -29.5t17.5 -29.5h1v86h66v-407h-55l-10 79h-2q-7 -15 -18 -30.5t-28.5 -28.5t-41 -21t-54.5 -8zM206 48q42 0 67.5 18.5t37.5 52.5t12 80q0 49 -12.5 83
t-38.5 51.5t-66 17.5q-44 0 -71.5 -20t-39.5 -54t-12 -77q0 -44 12.5 -78.5t40 -54t70.5 -19.5zM212 467q-44 0 -67.5 24.5t-23.5 65.5q0 42 23 66.5t67 24.5q45 0 69 -24.5t24 -66.5q0 -39 -24 -64.5t-68 -25.5zM211 507q25 0 38.5 15t13.5 36q0 22 -13.5 37.5t-38.5 15.5
t-38.5 -15.5t-13.5 -37.5t14.5 -36.5t37.5 -14.5z" />
    <glyph glyph-name="ae" unicode="&#xe6;" horiz-adv-x="731" 
d="M148 0q-55 0 -88 29t-33 76q0 34 15.5 56t42 36t59 22.5t63.5 15.5q45 10 67.5 17t30.5 16t8 22q0 25 -14 42t-36 26.5t-48 9.5q-24 0 -48 -9.5t-40 -28.5t-18 -50h-61q5 49 30 79t62.5 44t76.5 14q45 0 85 -19t55 -58q23 35 61 56.5t93 21.5q50 0 90 -23.5t64.5 -65
t27.5 -97.5v-25h-317q0 -69 35 -109.5t99 -40.5q48 0 80.5 24t41.5 66l62 -9q-9 -39 -34 -70.5t-63 -49.5t-87 -18q-55 0 -94 21t-63 55.5t-33 75.5q-3 -27 -16 -54t-35 -49t-52.5 -35.5t-68.5 -13.5zM168 50q47 1 78.5 27t48 68.5t16.5 91.5q-11 -9 -35 -15t-50 -13
q-36 -9 -67 -20t-49.5 -29t-17.5 -49q0 -29 22 -45.5t54 -15.5zM378 246h250q-1 16 -6.5 36.5t-19 40.5t-36.5 33.5t-57 13.5q-32 0 -55.5 -11t-39 -29t-24.5 -40t-12 -44z" />
    <glyph glyph-name="ccedilla" unicode="&#xe7;" horiz-adv-x="452" 
d="M225 -10q-57 0 -102 24t-71 70t-26 111q2 64 27.5 112t70.5 74.5t103 26.5q54 0 94 -20.5t64 -54t30 -74.5h-59q-9 43 -43 67.5t-84 24.5q-43 0 -74 -19.5t-48 -54t-18 -79.5q0 -68 37 -109t102 -41q48 0 83.5 24t44.5 69h59q-6 -41 -30.5 -75.5t-65 -55t-94.5 -20.5z
M136 -127l23 33q13 -13 36 -22t45 -9t36.5 9t14.5 28q0 14 -11.5 20.5t-27.5 6.5q-13 0 -27.5 -4.5t-25.5 -14.5l-29 19l40 83l34 -14l-40 -62q11 11 28 17.5t35 6.5q26 0 48 -14t22 -45q0 -37 -30 -56t-71 -19q-25 0 -51.5 9.5t-48.5 27.5z" />
    <glyph glyph-name="egrave" unicode="&#xe8;" horiz-adv-x="451" 
d="M223 -10q-67 0 -110.5 30.5t-64 79t-20.5 100.5q0 57 22.5 104.5t66 75.5t104.5 28q53 0 93.5 -22.5t65 -64.5t27.5 -99q1 -4 1 -11.5v-13.5h-318q0 -71 34.5 -111.5t97.5 -40.5q47 0 80.5 24t41.5 65h63q-7 -41 -31 -74t-63 -51.5t-90 -18.5zM92 232h250q0 16 -6.5 36.5
t-20.5 40t-37 32.5t-58 13q-31 0 -54 -10.5t-38.5 -28t-24 -39.5t-11.5 -44zM216 450l-78 98v14h59l51 -103v-9h-32z" />
    <glyph glyph-name="eacute" unicode="&#xe9;" horiz-adv-x="451" 
d="M223 -10q-67 0 -110.5 30.5t-64 79t-20.5 100.5q0 57 22.5 104.5t66 75.5t104.5 28q53 0 93.5 -22.5t65 -64.5t27.5 -99q1 -4 1 -11.5v-13.5h-318q0 -71 34.5 -111.5t97.5 -40.5q47 0 80.5 24t41.5 65h63q-7 -41 -31 -74t-63 -51.5t-90 -18.5zM92 232h250q0 16 -6.5 36.5
t-20.5 40t-37 32.5t-58 13q-31 0 -54 -10.5t-38.5 -28t-24 -39.5t-11.5 -44zM241 450h-32v9l51 103h59v-14z" />
    <glyph glyph-name="ecircumflex" unicode="&#xea;" horiz-adv-x="451" 
d="M223 -10q-67 0 -110.5 30.5t-64 79t-20.5 100.5q0 57 22.5 104.5t66 75.5t104.5 28q53 0 93.5 -22.5t65 -64.5t27.5 -99q1 -4 1 -11.5v-13.5h-318q0 -71 34.5 -111.5t97.5 -40.5q47 0 80.5 24t41.5 65h63q-7 -41 -31 -74t-63 -51.5t-90 -18.5zM92 232h250q0 16 -6.5 36.5
t-20.5 40t-37 32.5t-58 13q-31 0 -54 -10.5t-38.5 -28t-24 -39.5t-11.5 -44zM101 463v8l109 103h29l109 -103v-8h-60l-62 67h-3l-60 -67h-62z" />
    <glyph glyph-name="edieresis" unicode="&#xeb;" horiz-adv-x="451" 
d="M223 -10q-67 0 -110.5 30.5t-64 79t-20.5 100.5q0 57 22.5 104.5t66 75.5t104.5 28q53 0 93.5 -22.5t65 -64.5t27.5 -99q1 -4 1 -11.5v-13.5h-318q0 -71 34.5 -111.5t97.5 -40.5q47 0 80.5 24t41.5 65h63q-7 -41 -31 -74t-63 -51.5t-90 -18.5zM92 232h250q0 16 -6.5 36.5
t-20.5 40t-37 32.5t-58 13q-31 0 -54 -10.5t-38.5 -28t-24 -39.5t-11.5 -44zM148 462q-28 0 -38 14.5t-10 33.5q0 18 10 32t38 14t37.5 -14t9.5 -32q0 -19 -9.5 -33.5t-37.5 -14.5zM305 462q-29 0 -38.5 14.5t-9.5 33.5q0 18 9.5 32t38.5 14q28 0 37 -14t9 -32
q0 -19 -9 -33.5t-37 -14.5z" />
    <glyph glyph-name="igrave" unicode="&#xec;" horiz-adv-x="169" 
d="M52 0v407h64v-407h-64zM74 450l-78 98v14h59l51 -103v-9h-32z" />
    <glyph glyph-name="iacute" unicode="&#xed;" horiz-adv-x="169" 
d="M52 0v407h64v-407h-64zM99 450h-32v9l51 103h59v-14z" />
    <glyph glyph-name="icircumflex" unicode="&#xee;" horiz-adv-x="169" 
d="M52 0v407h64v-407h-64zM-41 463v8l109 103h29l109 -103v-8h-60l-62 67h-3l-60 -67h-62z" />
    <glyph glyph-name="idieresis" unicode="&#xef;" horiz-adv-x="169" 
d="M52 0v407h64v-407h-64zM6 462q-28 0 -38 14.5t-10 33.5q0 18 10 32t38 14t37.5 -14t9.5 -32q0 -19 -9.5 -33.5t-37.5 -14.5zM163 462q-29 0 -38.5 14.5t-9.5 33.5q0 18 9.5 32t38.5 14q28 0 37 -14t9 -32q0 -19 -9 -33.5t-37 -14.5z" />
    <glyph glyph-name="eth" unicode="&#xf0;" horiz-adv-x="494" 
d="M249 -10q-70 0 -116.5 31.5t-70 80t-23.5 100.5q0 48 20 90.5t59 69.5t96 27q41 0 71.5 -14t52 -34.5t35 -41t19.5 -35l6 -14.5h1q-5 38 -21.5 76.5t-40.5 73.5t-52 64.5t-56 50t-53 29.5l41 55q57 -24 101 -65t74.5 -93t46 -108t15.5 -111q0 -63 -22 -115.5t-67.5 -84.5
t-115.5 -32zM397 164q-1 57 -26 95.5t-63 58t-78 19.5q-35 0 -64 -14.5t-47 -45t-18 -77.5q0 -50 23.5 -85t59 -53.5t72.5 -18.5q47 0 88.5 29.5t52.5 91.5zM230 423l-25 27l195 118l25 -27z" />
    <glyph glyph-name="ntilde" unicode="&#xf1;" horiz-adv-x="446" 
d="M38 0v407h55l11 -101h2q2 5 9.5 21.5t23.5 34.5t43.5 31.5t69.5 13.5t70 -12.5t44.5 -34t24.5 -48.5t10.5 -55.5t2.5 -55.5v-201h-62v201q0 44 -9.5 77.5t-33.5 52t-68 18.5q-45 0 -73 -21.5t-41 -57t-13 -77.5v-193h-66zM108 472q-1 15 0.5 31t8 30t19.5 23t35 9
q23 0 37 -8.5t23 -19t18.5 -19t23.5 -8.5q17 0 20 14t3 40h43q0 -17 -1.5 -34t-8.5 -30t-19.5 -21.5t-34.5 -8.5t-36 8.5t-23.5 19t-18.5 19t-23 8.5q-17 0 -20.5 -14t-3.5 -39h-42z" />
    <glyph glyph-name="ograve" unicode="&#xf2;" horiz-adv-x="457" 
d="M222 -10q-65 0 -108.5 27t-65 74t-21.5 107q0 61 21.5 108.5t65 74.5t108.5 27q95 0 145 -57.5t50 -152.5q0 -59 -21 -106t-64 -74.5t-110 -27.5zM222 46q53 0 81 23t39.5 58.5t11.5 72.5t-11.5 73t-39.5 59t-81 23q-51 0 -80.5 -23t-40.5 -59t-11 -73t11 -72.5
t40.5 -58.5t80.5 -23zM219 450l-78 98v14h59l51 -103v-9h-32z" />
    <glyph glyph-name="oacute" unicode="&#xf3;" horiz-adv-x="457" 
d="M222 -10q-65 0 -108.5 27t-65 74t-21.5 107q0 61 21.5 108.5t65 74.5t108.5 27q95 0 145 -57.5t50 -152.5q0 -59 -21 -106t-64 -74.5t-110 -27.5zM222 46q53 0 81 23t39.5 58.5t11.5 72.5t-11.5 73t-39.5 59t-81 23q-51 0 -80.5 -23t-40.5 -59t-11 -73t11 -72.5
t40.5 -58.5t80.5 -23zM244 450h-32v9l51 103h59v-14z" />
    <glyph glyph-name="ocircumflex" unicode="&#xf4;" horiz-adv-x="457" 
d="M222 -10q-65 0 -108.5 27t-65 74t-21.5 107q0 61 21.5 108.5t65 74.5t108.5 27q95 0 145 -57.5t50 -152.5q0 -59 -21 -106t-64 -74.5t-110 -27.5zM222 46q53 0 81 23t39.5 58.5t11.5 72.5t-11.5 73t-39.5 59t-81 23q-51 0 -80.5 -23t-40.5 -59t-11 -73t11 -72.5
t40.5 -58.5t80.5 -23zM104 463v8l109 103h29l109 -103v-8h-60l-62 67h-3l-60 -67h-62z" />
    <glyph glyph-name="otilde" unicode="&#xf5;" horiz-adv-x="457" 
d="M222 -10q-65 0 -108.5 27t-65 74t-21.5 107q0 61 21.5 108.5t65 74.5t108.5 27q95 0 145 -57.5t50 -152.5q0 -59 -21 -106t-64 -74.5t-110 -27.5zM222 46q53 0 81 23t39.5 58.5t11.5 72.5t-11.5 73t-39.5 59t-81 23q-51 0 -80.5 -23t-40.5 -59t-11 -73t11 -72.5
t40.5 -58.5t80.5 -23zM113 472q-1 15 0.5 31t8 30t19.5 23t35 9q23 0 37 -8.5t23 -19t18.5 -19t23.5 -8.5q17 0 20 14t3 40h43q0 -17 -1.5 -34t-8.5 -30t-19.5 -21.5t-34.5 -8.5t-36 8.5t-23.5 19t-18.5 19t-23 8.5q-17 0 -20.5 -14t-3.5 -39h-42z" />
    <glyph glyph-name="odieresis" unicode="&#xf6;" horiz-adv-x="457" 
d="M222 -10q-65 0 -108.5 27t-65 74t-21.5 107q0 61 21.5 108.5t65 74.5t108.5 27q95 0 145 -57.5t50 -152.5q0 -59 -21 -106t-64 -74.5t-110 -27.5zM222 46q53 0 81 23t39.5 58.5t11.5 72.5t-11.5 73t-39.5 59t-81 23q-51 0 -80.5 -23t-40.5 -59t-11 -73t11 -72.5
t40.5 -58.5t80.5 -23zM151 462q-28 0 -38 14.5t-10 33.5q0 18 10 32t38 14t37.5 -14t9.5 -32q0 -19 -9.5 -33.5t-37.5 -14.5zM308 462q-29 0 -38.5 14.5t-9.5 33.5q0 18 9.5 32t38.5 14q28 0 37 -14t9 -32q0 -19 -9 -33.5t-37 -14.5z" />
    <glyph glyph-name="divide" unicode="&#xf7;" horiz-adv-x="373" 
d="M76 200v49h222v-49h-222zM187 285q-16 0 -25 10t-9 26t9 26t25 10q17 0 25.5 -10t8.5 -26q0 -15 -8 -25.5t-26 -10.5zM187 91q-16 0 -25 10t-9 26t9 26t25 10q17 0 25.5 -10t8.5 -26q0 -15 -8 -25.5t-26 -10.5z" />
    <glyph glyph-name="oslash" unicode="&#xf8;" horiz-adv-x="451" 
d="M59 -24l293 467l24 -14l-293 -466zM222 -10q-65 0 -108.5 27t-65 74t-21.5 107q0 61 21.5 108.5t65 74.5t108.5 27q95 0 145 -57.5t50 -152.5q0 -59 -21 -106t-64 -74.5t-110 -27.5zM222 46q53 0 81 23t39.5 58.5t11.5 72.5t-11.5 73t-39.5 59t-81 23q-51 0 -80.5 -23
t-40.5 -59t-11 -73t11 -72.5t40.5 -58.5t80.5 -23z" />
    <glyph glyph-name="ugrave" unicode="&#xf9;" horiz-adv-x="445" 
d="M189 -10q-39 0 -66.5 12t-45 32.5t-26.5 47t-12.5 56t-3.5 59.5v210h64v-211q0 -40 8.5 -74t32.5 -54t71 -20q45 0 70.5 21t37.5 53.5t14 68.5v216h66v-407h-55l-11 91h-2q-4 -13 -13.5 -30t-26.5 -33t-42.5 -27t-59.5 -11zM213 450l-78 98v14h59l51 -103v-9h-32z" />
    <glyph glyph-name="uacute" unicode="&#xfa;" horiz-adv-x="445" 
d="M189 -10q-39 0 -66.5 12t-45 32.5t-26.5 47t-12.5 56t-3.5 59.5v210h64v-211q0 -40 8.5 -74t32.5 -54t71 -20q45 0 70.5 21t37.5 53.5t14 68.5v216h66v-407h-55l-11 91h-2q-4 -13 -13.5 -30t-26.5 -33t-42.5 -27t-59.5 -11zM238 450h-32v9l51 103h59v-14z" />
    <glyph glyph-name="ucircumflex" unicode="&#xfb;" horiz-adv-x="445" 
d="M189 -10q-39 0 -66.5 12t-45 32.5t-26.5 47t-12.5 56t-3.5 59.5v210h64v-211q0 -40 8.5 -74t32.5 -54t71 -20q45 0 70.5 21t37.5 53.5t14 68.5v216h66v-407h-55l-11 91h-2q-4 -13 -13.5 -30t-26.5 -33t-42.5 -27t-59.5 -11zM98 463v8l109 103h29l109 -103v-8h-60l-62 67
h-3l-60 -67h-62z" />
    <glyph glyph-name="udieresis" unicode="&#xfc;" horiz-adv-x="445" 
d="M189 -10q-39 0 -66.5 12t-45 32.5t-26.5 47t-12.5 56t-3.5 59.5v210h64v-211q0 -40 8.5 -74t32.5 -54t71 -20q45 0 70.5 21t37.5 53.5t14 68.5v216h66v-407h-55l-11 91h-2q-4 -13 -13.5 -30t-26.5 -33t-42.5 -27t-59.5 -11zM145 462q-28 0 -38 14.5t-10 33.5q0 18 10 32
t38 14t37.5 -14t9.5 -32q0 -19 -9.5 -33.5t-37.5 -14.5zM302 462q-29 0 -38.5 14.5t-9.5 33.5q0 18 9.5 32t38.5 14q28 0 37 -14t9 -32q0 -19 -9 -33.5t-37 -14.5z" />
    <glyph glyph-name="yacute" unicode="&#xfd;" horiz-adv-x="407" 
d="M-3 -182v52h56q13 0 23 4t20 17t22 40l43 93l-160 383h67l125 -315l133 315h68l-218 -485q-15 -34 -27 -54.5t-25 -31.5t-28.5 -14.5t-37.5 -3.5h-61zM219 450h-32v9l51 103h59v-14z" />
    <glyph glyph-name="thorn" unicode="&#xfe;" horiz-adv-x="475" 
d="M270 -10q-36 0 -62 12t-44 29.5t-29 33.5t-15.5 26t-3.5 6v195q-1 -2 6 15.5t24 40.5t47.5 41t75.5 18q59 0 97 -30t57 -77t19 -99t-18 -100.5t-56 -79.5t-98 -31zM50 -199v762h67v-453v-309h-67zM246 45q46 0 74 22.5t40 57.5t12 73t-13.5 72.5t-42.5 57t-74 22.5
q-39 0 -67.5 -20t-44 -54t-15.5 -78q0 -43 16 -78t45.5 -55t69.5 -20z" />
    <glyph glyph-name="ydieresis" unicode="&#xff;" horiz-adv-x="407" 
d="M-3 -182v52h56q13 0 23 4t20 17t22 40l43 93l-160 383h67l125 -315l133 315h68l-218 -485q-15 -34 -27 -54.5t-25 -31.5t-28.5 -14.5t-37.5 -3.5h-61zM126 462q-28 0 -38 14.5t-10 33.5q0 18 10 32t38 14t37.5 -14t9.5 -32q0 -19 -9.5 -33.5t-37.5 -14.5zM283 462
q-29 0 -38.5 14.5t-9.5 33.5q0 18 9.5 32t38.5 14q28 0 37 -14t9 -32q0 -19 -9 -33.5t-37 -14.5z" />
    <glyph glyph-name="Amacron" unicode="&#x100;" horiz-adv-x="541" 
d="M19 0l198 563h106l201 -563h-68l-184 535l-185 -535h-68zM128 176l5 54h275l6 -54h-286zM146 628v48h249v-48h-249z" />
    <glyph glyph-name="amacron" unicode="&#x101;" horiz-adv-x="427" 
d="M181 -9q-56 0 -92 27.5t-53.5 74.5t-17.5 107q0 62 18 109t54.5 74.5t90.5 27.5q32 0 55.5 -8.5t40.5 -22.5t28.5 -29.5t17.5 -29.5h1v86h66v-407h-55l-10 79h-2q-7 -15 -18 -30.5t-28.5 -28.5t-41 -21t-54.5 -8zM206 48q42 0 67.5 18.5t37.5 52.5t12 80q0 49 -12.5 83
t-38.5 51.5t-66 17.5q-44 0 -71.5 -20t-39.5 -54t-12 -77q0 -44 12.5 -78.5t40 -54t70.5 -19.5zM89 472v48h249v-48h-249z" />
    <glyph glyph-name="Abreve" unicode="&#x102;" horiz-adv-x="541" 
d="M19 0l198 563h106l201 -563h-68l-184 535l-185 -535h-68zM128 176l5 54h275l6 -54h-286zM271 617q-55 0 -86.5 24.5t-31.5 65.5h47q0 -31 21 -40t49 -9q29 0 49 9t20 40h48q0 -41 -30.5 -65.5t-85.5 -24.5z" />
    <glyph glyph-name="abreve" unicode="&#x103;" horiz-adv-x="427" 
d="M181 -9q-56 0 -92 27.5t-53.5 74.5t-17.5 107q0 62 18 109t54.5 74.5t90.5 27.5q32 0 55.5 -8.5t40.5 -22.5t28.5 -29.5t17.5 -29.5h1v86h66v-407h-55l-10 79h-2q-7 -15 -18 -30.5t-28.5 -28.5t-41 -21t-54.5 -8zM206 48q42 0 67.5 18.5t37.5 52.5t12 80q0 49 -12.5 83
t-38.5 51.5t-66 17.5q-44 0 -71.5 -20t-39.5 -54t-12 -77q0 -44 12.5 -78.5t40 -54t70.5 -19.5zM214 461q-55 0 -86.5 24.5t-31.5 65.5h47q0 -31 21 -40t49 -9q29 0 49 9t20 40h48q0 -41 -30.5 -65.5t-85.5 -24.5z" />
    <glyph glyph-name="Aogonek" unicode="&#x104;" horiz-adv-x="541" 
d="M464 -192q-24 0 -44 9.5t-32 28t-12 44.5q0 27 13.5 49.5t34 39.5t41 28t34 16.5l13.5 5.5l12 -29l-15 -7t-34.5 -20.5t-34.5 -32t-15 -42.5q0 -18 11.5 -29.5t31.5 -11.5q18 0 28 7.5t14.5 15.5l4.5 8l38 -31l-9.5 -12t-29 -24.5t-50.5 -12.5zM19 0l198 563h106
l201 -563h-68l-184 535l-185 -535h-68zM128 176l5 54h275l6 -54h-286z" />
    <glyph glyph-name="aogonek" unicode="&#x105;" horiz-adv-x="427" 
d="M181 -9q-56 0 -92 27.5t-53.5 74.5t-17.5 107q0 62 18 109t54.5 74.5t90.5 27.5q32 0 55.5 -8.5t40.5 -22.5t28.5 -29.5t17.5 -29.5h1v86h66v-407h-55l-10 79h-2q-7 -15 -18 -30.5t-28.5 -28.5t-41 -21t-54.5 -8zM206 48q42 0 67.5 18.5t37.5 52.5t12 80q0 49 -12.5 83
t-38.5 51.5t-66 17.5q-44 0 -71.5 -20t-39.5 -54t-12 -77q0 -44 12.5 -78.5t40 -54t70.5 -19.5zM342 -199q-24 0 -44 9.5t-32 28t-12 44.5q0 27 14 49.5t34 39.5t40.5 28t34 16.5l13.5 5.5v-29l-13 -7t-30 -20.5t-30 -32t-13 -42.5q0 -18 11 -29.5t32 -11.5q18 0 28 7.5
t14 15.5l4 8l39 -31l-9.5 -12t-29.5 -24.5t-51 -12.5z" />
    <glyph glyph-name="Cacute" unicode="&#x106;" horiz-adv-x="596" 
d="M299 -10q-77 0 -139.5 32.5t-99 97.5t-35.5 160q0 97 35.5 162t98.5 98t144 33q69 0 122 -25t86.5 -71.5t45.5 -111.5h-67q-9 51 -36 83.5t-66 48.5t-85 16q-100 0 -157 -59t-57 -170q0 -115 56 -174.5t155 -59.5q50 0 90.5 16.5t67.5 49.5t35 82h68q-11 -64 -45 -110.5
t-88.5 -72t-128.5 -25.5zM314 606h-32v9l51 103h59v-14z" />
    <glyph glyph-name="cacute" unicode="&#x107;" horiz-adv-x="452" 
d="M225 -10q-57 0 -102 24t-71 70t-26 111q2 64 27.5 112t70.5 74.5t103 26.5q54 0 94 -20.5t64 -54t30 -74.5h-59q-9 43 -43 67.5t-84 24.5q-43 0 -74 -19.5t-48 -54t-18 -79.5q0 -68 37 -109t102 -41q48 0 83.5 24t44.5 69h59q-6 -41 -30.5 -75.5t-65 -55t-94.5 -20.5z
M242 450h-32v9l51 103h59v-14z" />
    <glyph glyph-name="Cdotaccent" unicode="&#x10a;" horiz-adv-x="596" 
d="M299 -10q-77 0 -139.5 32.5t-99 97.5t-35.5 160q0 97 35.5 162t98.5 98t144 33q69 0 122 -25t86.5 -71.5t45.5 -111.5h-67q-9 51 -36 83.5t-66 48.5t-85 16q-100 0 -157 -59t-57 -170q0 -115 56 -174.5t155 -59.5q50 0 90.5 16.5t67.5 49.5t35 82h68q-11 -64 -45 -110.5
t-88.5 -72t-128.5 -25.5zM298 624q-25 0 -33.5 13t-8.5 30q0 16 8.5 28.5t33.5 12.5t33 -12.5t8 -28.5q0 -17 -8 -30t-33 -13z" />
    <glyph glyph-name="cdotaccent" unicode="&#x10b;" horiz-adv-x="452" 
d="M225 -10q-57 0 -102 24t-71 70t-26 111q2 64 27.5 112t70.5 74.5t103 26.5q54 0 94 -20.5t64 -54t30 -74.5h-59q-9 43 -43 67.5t-84 24.5q-43 0 -74 -19.5t-48 -54t-18 -79.5q0 -68 37 -109t102 -41q48 0 83.5 24t44.5 69h59q-6 -41 -30.5 -75.5t-65 -55t-94.5 -20.5z
M227 468q-25 0 -33.5 13t-8.5 30q0 16 8.5 28.5t33.5 12.5t33 -12.5t8 -28.5q0 -17 -8 -30t-33 -13z" />
    <glyph glyph-name="Ccaron" unicode="&#x10c;" horiz-adv-x="596" 
d="M299 -10q-77 0 -139.5 32.5t-99 97.5t-35.5 160q0 97 35.5 162t98.5 98t144 33q69 0 122 -25t86.5 -71.5t45.5 -111.5h-67q-9 51 -36 83.5t-66 48.5t-85 16q-100 0 -157 -59t-57 -170q0 -115 56 -174.5t155 -59.5q50 0 90.5 16.5t67.5 49.5t35 82h68q-11 -64 -45 -110.5
t-88.5 -72t-128.5 -25.5zM283 606l-109 108v8h62l59 -72h4l61 72h61v-8l-110 -108h-28z" />
    <glyph glyph-name="ccaron" unicode="&#x10d;" horiz-adv-x="452" 
d="M225 -10q-57 0 -102 24t-71 70t-26 111q2 64 27.5 112t70.5 74.5t103 26.5q54 0 94 -20.5t64 -54t30 -74.5h-59q-9 43 -43 67.5t-84 24.5q-43 0 -74 -19.5t-48 -54t-18 -79.5q0 -68 37 -109t102 -41q48 0 83.5 24t44.5 69h59q-6 -41 -30.5 -75.5t-65 -55t-94.5 -20.5z
M212 450l-109 108v8h62l59 -72h4l61 72h61v-8l-110 -108h-28z" />
    <glyph glyph-name="Dcaron" unicode="&#x10e;" horiz-adv-x="588" 
d="M131 55v451h99q78 0 135.5 -24t89 -73.5t31.5 -126.5q0 -70 -18 -114.5t-51.5 -69.5t-81 -34t-105.5 -9h-33.5h-65.5zM554 282q0 94 -42 156t-118 93.5t-178 31.5h-47.5h-101.5v-563h98.5h50.5q102 0 178 24t118 85.5t42 172.5zM251 606l-109 108v8h62l59 -72h4l61 72h61
v-8l-110 -108h-28z" />
    <glyph glyph-name="dcaron" unicode="&#x10f;" horiz-adv-x="564" 
d="M223 -10q-58 0 -97.5 27.5t-59.5 74.5t-20 106q0 61 20.5 108.5t60 74t97.5 26.5q41 0 69 -13.5t44.5 -32.5t24.5 -35t10 -21h2v258h66v-563h-55l-10 90h-2q-2 -5 -11 -21t-26.5 -34t-45 -31.5t-67.5 -13.5zM239 47q40 0 70 18t47 52.5t17 80.5t-16 80t-45 52t-68 18
q-47 0 -77 -21.5t-44 -55.5t-14 -73q0 -38 12.5 -72.5t41.5 -56.5t76 -22zM481 424l34 147h63l-59 -147h-38z" />
    <glyph glyph-name="Dcroat" unicode="&#x110;" horiz-adv-x="600" 
d="M67 0v563h101.5h47.5q102 0 178 -31.5t118 -93.5t42 -156q0 -111 -42 -172.5t-118 -85.5t-178 -24h-50.5h-98.5zM0 263v47h300v-47h-300zM131 55h65.5h33.5q58 0 105.5 9t81 34t51.5 69.5t18 114.5q0 77 -31.5 126.5t-89 73.5t-135.5 24h-99v-451z" />
    <glyph glyph-name="dcroat" unicode="&#x111;" horiz-adv-x="489" 
d="M222 -10q-59 0 -98.5 27.5t-59.5 74.5t-20 106q0 61 20.5 108.5t60 74t97.5 26.5q41 0 69 -13.5t44.5 -32.5t24.5 -35t10 -21h2v258h67v-563h-55l-11 90h-2q-2 -5 -11 -21t-26.5 -34t-45 -31.5t-66.5 -13.5zM237 47q40 0 70 18t47 52.5t17 80.5t-16 80t-44.5 52t-68.5 18
q-47 0 -77 -21.5t-43.5 -55.5t-13.5 -73q0 -38 12.5 -72.5t41 -56.5t75.5 -22zM236 465v44h249v-44h-249z" />
    <glyph glyph-name="Emacron" unicode="&#x112;" horiz-adv-x="479" 
d="M57 0v563h377v-57h-314v-194h249v-54h-249v-204h324v-54h-387zM116 628v48h249v-48h-249z" />
    <glyph glyph-name="emacron" unicode="&#x113;" horiz-adv-x="451" 
d="M223 -10q-67 0 -110.5 30.5t-64 79t-20.5 100.5q0 57 22.5 104.5t66 75.5t104.5 28q53 0 93.5 -22.5t65 -64.5t27.5 -99q1 -4 1 -11.5v-13.5h-318q0 -71 34.5 -111.5t97.5 -40.5q47 0 80.5 24t41.5 65h63q-7 -41 -31 -74t-63 -51.5t-90 -18.5zM92 232h250q0 16 -6.5 36.5
t-20.5 40t-37 32.5t-58 13q-31 0 -54 -10.5t-38.5 -28t-24 -39.5t-11.5 -44zM101 472v48h249v-48h-249z" />
    <glyph glyph-name="Edotaccent" unicode="&#x116;" horiz-adv-x="479" 
d="M57 0v563h377v-57h-314v-194h249v-54h-249v-204h324v-54h-387zM240 624q-25 0 -33.5 13t-8.5 30q0 16 8.5 28.5t33.5 12.5t33 -12.5t8 -28.5q0 -17 -8 -30t-33 -13z" />
    <glyph glyph-name="edotaccent" unicode="&#x117;" horiz-adv-x="451" 
d="M223 -10q-67 0 -110.5 30.5t-64 79t-20.5 100.5q0 57 22.5 104.5t66 75.5t104.5 28q53 0 93.5 -22.5t65 -64.5t27.5 -99q1 -4 1 -11.5v-13.5h-318q0 -71 34.5 -111.5t97.5 -40.5q47 0 80.5 24t41.5 65h63q-7 -41 -31 -74t-63 -51.5t-90 -18.5zM92 232h250q0 16 -6.5 36.5
t-20.5 40t-37 32.5t-58 13q-31 0 -54 -10.5t-38.5 -28t-24 -39.5t-11.5 -44zM226 468q-25 0 -33.5 13t-8.5 30q0 16 8.5 28.5t33.5 12.5t33 -12.5t8 -28.5q0 -17 -8 -30t-33 -13z" />
    <glyph glyph-name="Eogonek" unicode="&#x118;" horiz-adv-x="479" 
d="M57 0v563h377v-57h-314v-194h249v-54h-249v-204h324v-54h-387zM391 -191q-24 0 -44 9.5t-32 28t-12 44.5q0 27 14 49.5t34 39.5t40.5 28t34 16.5l13.5 5.5v-29l-13 -7t-30 -20.5t-30 -32t-13 -42.5q0 -18 11 -29.5t32 -11.5q18 0 28 7.5t14 15.5l4 8l39 -31l-9.5 -12
t-29.5 -24.5t-51 -12.5z" />
    <glyph glyph-name="eogonek" unicode="&#x119;" horiz-adv-x="451" 
d="M237 -193q-24 0 -44 9.5t-32 28t-12 44.5q0 27 13.5 49.5t33.5 39.5t40.5 28t34.5 16.5l14 5.5v-29l-13 -7t-30.5 -20.5t-30.5 -32t-13 -42.5q0 -18 11.5 -29.5t31.5 -11.5q18 0 28 7.5t14.5 15.5l4.5 8l38 -31l-9.5 -12t-29 -24.5t-50.5 -12.5zM223 -10
q-67 0 -110.5 30.5t-64 79t-20.5 100.5q0 57 22.5 104.5t66 75.5t104.5 28q53 0 93.5 -22.5t65 -64.5t27.5 -99q1 -4 1 -11.5v-13.5h-318q0 -71 34.5 -111.5t97.5 -40.5q47 0 80.5 24t41.5 65h63q-7 -41 -31 -74t-63 -51.5t-90 -18.5zM92 232h250q0 16 -6.5 36.5t-20.5 40
t-37 32.5t-58 13q-31 0 -54 -10.5t-38.5 -28t-24 -39.5t-11.5 -44z" />
    <glyph glyph-name="Ecaron" unicode="&#x11a;" horiz-adv-x="479" 
d="M57 0v563h377v-57h-314v-194h249v-54h-249v-204h324v-54h-387zM225 606l-109 108v8h62l59 -72h4l61 72h61v-8l-110 -108h-28z" />
    <glyph glyph-name="ecaron" unicode="&#x11b;" horiz-adv-x="451" 
d="M223 -10q-67 0 -110.5 30.5t-64 79t-20.5 100.5q0 57 22.5 104.5t66 75.5t104.5 28q53 0 93.5 -22.5t65 -64.5t27.5 -99q1 -4 1 -11.5v-13.5h-318q0 -71 34.5 -111.5t97.5 -40.5q47 0 80.5 24t41.5 65h63q-7 -41 -31 -74t-63 -51.5t-90 -18.5zM92 232h250q0 16 -6.5 36.5
t-20.5 40t-37 32.5t-58 13q-31 0 -54 -10.5t-38.5 -28t-24 -39.5t-11.5 -44zM211 450l-109 108v8h62l59 -72h4l61 72h61v-8l-110 -108h-28z" />
    <glyph glyph-name="Gbreve" unicode="&#x11e;" horiz-adv-x="609" 
d="M291 -13q-81 0 -141 34.5t-92.5 99.5t-32.5 158q1 93 35.5 159t96.5 100.5t145 34.5q107 0 171.5 -49.5t82.5 -144.5l-62 -7q-10 50 -37 80.5t-66 45.5t-89 15q-106 0 -160.5 -62.5t-54.5 -168.5q0 -111 57.5 -172t160.5 -61q53 0 94.5 18.5t68 55.5t32.5 92h-155v50h223
v-265h-46l-15 124h-2q-6 -20 -21.5 -44t-41.5 -45t-63.5 -34.5t-87.5 -13.5zM305 617q-55 0 -86.5 24.5t-31.5 65.5h47q0 -31 21 -40t49 -9q29 0 49 9t20 40h48q0 -41 -30.5 -65.5t-85.5 -24.5z" />
    <glyph glyph-name="gbreve" unicode="&#x11f;" horiz-adv-x="454" 
d="M138 -168v61h203v197h-2q-2 -5 -10.5 -21t-26 -34t-45 -31.5t-66.5 -13.5q-59 0 -98.5 27.5t-59.5 74.5t-20 106q0 61 20 108.5t60 74t99 26.5q40 0 68 -13.5t44.5 -32.5t24.5 -35t10 -21h2v102h66v-477q0 -32 -7.5 -54t-26 -33t-49.5 -11h-186zM205 47q40 0 70.5 18
t47 52.5t16.5 80.5t-15.5 80t-44.5 52t-68 18q-47 0 -77 -21.5t-44 -55.5t-14 -73q0 -38 12.5 -72.5t41 -56.5t75.5 -22zM228 461q-55 0 -86.5 24.5t-31.5 65.5h47q0 -31 21 -40t49 -9q29 0 49 9t20 40h48q0 -41 -30.5 -65.5t-85.5 -24.5z" />
    <glyph glyph-name="Gdotaccent" unicode="&#x120;" horiz-adv-x="609" 
d="M291 -13q-81 0 -141 34.5t-92.5 99.5t-32.5 158q1 93 35.5 159t96.5 100.5t145 34.5q107 0 171.5 -49.5t82.5 -144.5l-62 -7q-10 50 -37 80.5t-66 45.5t-89 15q-106 0 -160.5 -62.5t-54.5 -168.5q0 -111 57.5 -172t160.5 -61q53 0 94.5 18.5t68 55.5t32.5 92h-155v50h223
v-265h-46l-15 124h-2q-6 -20 -21.5 -44t-41.5 -45t-63.5 -34.5t-87.5 -13.5zM305 624q-25 0 -33.5 13t-8.5 30q0 16 8.5 28.5t33.5 12.5t33 -12.5t8 -28.5q0 -17 -8 -30t-33 -13z" />
    <glyph glyph-name="gdotaccent" unicode="&#x121;" horiz-adv-x="454" 
d="M138 -168v61h203v197h-2q-2 -5 -10.5 -21t-26 -34t-45 -31.5t-66.5 -13.5q-59 0 -98.5 27.5t-59.5 74.5t-20 106q0 61 20 108.5t60 74t99 26.5q40 0 68 -13.5t44.5 -32.5t24.5 -35t10 -21h2v102h66v-477q0 -32 -7.5 -54t-26 -33t-49.5 -11h-186zM205 47q40 0 70.5 18
t47 52.5t16.5 80.5t-15.5 80t-44.5 52t-68 18q-47 0 -77 -21.5t-44 -55.5t-14 -73q0 -38 12.5 -72.5t41 -56.5t75.5 -22zM228 468q-25 0 -33.5 13t-8.5 30q0 16 8.5 28.5t33.5 12.5t33 -12.5t8 -28.5q0 -17 -8 -30t-33 -13z" />
    <glyph glyph-name="uni0122" unicode="&#x122;" horiz-adv-x="609" 
d="M291 -13q-81 0 -141 34.5t-92.5 99.5t-32.5 158q1 93 35.5 159t96.5 100.5t145 34.5q107 0 171.5 -49.5t82.5 -144.5l-62 -7q-10 50 -37 80.5t-66 45.5t-89 15q-106 0 -160.5 -62.5t-54.5 -168.5q0 -111 57.5 -172t160.5 -61q53 0 94.5 18.5t68 55.5t32.5 92h-155v50h223
v-265h-46l-15 124h-2q-6 -20 -21.5 -44t-41.5 -45t-63.5 -34.5t-87.5 -13.5zM262 -221v48h17q25 0 31.5 11t6.5 28q-27 -2 -39 10t-12 34q0 17 9 29.5t33 12.5q21 0 30.5 -12.5t9.5 -45.5q0 -34 -6 -60t-20.5 -40.5t-40.5 -14.5h-19z" />
    <glyph glyph-name="uni0123" unicode="&#x123;" horiz-adv-x="454" 
d="M138 -168v61h203v197h-2q-2 -5 -10.5 -21t-26 -34t-45 -31.5t-66.5 -13.5q-59 0 -98.5 27.5t-59.5 74.5t-20 106q0 61 20 108.5t60 74t99 26.5q40 0 68 -13.5t44.5 -32.5t24.5 -35t10 -21h2v102h66v-477q0 -32 -7.5 -54t-26 -33t-49.5 -11h-186zM205 47q40 0 70.5 18
t47 52.5t16.5 80.5t-15.5 80t-44.5 52t-68 18q-47 0 -77 -21.5t-44 -55.5t-14 -73q0 -38 12.5 -72.5t41 -56.5t75.5 -22zM229 459h-32v9l51 103h59v-14z" />
    <glyph glyph-name="Hbar" unicode="&#x126;" horiz-adv-x="586" 
d="M18 424v49h545v-49h-545zM131 0h-64v563h64v-563zM451 563h63v-563h-63v563zM485 264h-384v52h384v-52z" />
    <glyph glyph-name="hbar" unicode="&#x127;" horiz-adv-x="468" 
d="M352 0v178q0 52 -8.5 90.5t-32 60t-68.5 21.5q-42 0 -69.5 -22t-41 -61t-13.5 -91v116q-1 -7 1.5 3t11 28.5t25 38t43 33t63.5 13.5q44 0 72 -14t44.5 -37.5t24.5 -53t10 -60.5t2 -60v-183h-64zM55 0v563h64v-563h-64zM251 465h-249v44h249v-44z" />
    <glyph glyph-name="Itilde" unicode="&#x128;" horiz-adv-x="342" 
d="M135 18v527h64v-527h-64zM58 0v56h218v-56h-218zM58 507v56h218v-56h-218zM52 628q-1 15 0.5 31t8 30t19.5 23t35 9q23 0 37 -8.5t23 -19t18.5 -19t23.5 -8.5q17 0 20 14t3 40h43q0 -17 -1.5 -34t-8.5 -30t-19.5 -21.5t-34.5 -8.5t-36 8.5t-23.5 19t-18.5 19t-23 8.5
q-17 0 -20.5 -14t-3.5 -39h-42z" />
    <glyph glyph-name="itilde" unicode="&#x129;" horiz-adv-x="169" 
d="M52 0v407h64v-407h-64zM-32 472q-1 15 0.5 31t8 30t19.5 23t35 9q23 0 37 -8.5t23 -19t18.5 -19t23.5 -8.5q17 0 20 14t3 40h43q0 -17 -1.5 -34t-8.5 -30t-19.5 -21.5t-34.5 -8.5t-36 8.5t-23.5 19t-18.5 19t-23 8.5q-17 0 -20.5 -14t-3.5 -39h-42z" />
    <glyph glyph-name="Imacron" unicode="&#x12a;" horiz-adv-x="342" 
d="M135 18v527h64v-527h-64zM58 0v56h218v-56h-218zM58 507v56h218v-56h-218zM43 628v48h249v-48h-249z" />
    <glyph glyph-name="imacron" unicode="&#x12b;" horiz-adv-x="169" 
d="M52 0v407h64v-407h-64zM1 472v48h164v-48h-164z" />
    <glyph glyph-name="Iogonek" unicode="&#x12e;" horiz-adv-x="342" 
d="M135 18v527h64v-527h-64zM58 0v56h218v-56h-218zM58 507v56h218v-56h-218zM168 -192q-24 0 -44 9.5t-32 28t-12 44.5q0 27 14 49.5t34 39.5t40.5 28t34 16.5l13.5 5.5v-29l-13 -7t-30 -20.5t-30 -32t-13 -42.5q0 -18 11 -29.5t32 -11.5q18 0 28 7.5t14 15.5l4 8l39 -31
l-9.5 -12t-29.5 -24.5t-51 -12.5z" />
    <glyph glyph-name="iogonek" unicode="&#x12f;" horiz-adv-x="169" 
d="M52 0v407h64v-407h-64zM84 468q-25 0 -33.5 13t-8.5 30q0 16 8.5 28.5t33.5 12.5t33 -12.5t8 -28.5q0 -17 -8 -30t-33 -13zM64 -192q-24 0 -44 9.5t-32 28t-12 44.5q0 27 14 49.5t34 39.5t40.5 28t34 16.5l13.5 5.5v-29l-13 -7t-30 -20.5t-30 -32t-13 -42.5
q0 -18 11 -29.5t32 -11.5q18 0 28 7.5t14 15.5l4 8l39 -31l-9.5 -12t-29.5 -24.5t-51 -12.5z" />
    <glyph glyph-name="Idotaccent" unicode="&#x130;" horiz-adv-x="342" 
d="M135 18v527h64v-527h-64zM58 0v56h218v-56h-218zM58 507v56h218v-56h-218zM168 624q-25 0 -33.5 13t-8.5 30q0 16 8.5 28.5t33.5 12.5t33 -12.5t8 -28.5q0 -17 -8 -30t-33 -13z" />
    <glyph glyph-name="dotlessi" unicode="&#x131;" horiz-adv-x="169" 
d="M52 0v407h64v-407h-64z" />
    <glyph glyph-name="IJ" unicode="&#x132;" horiz-adv-x="774" 
d="M135 18v527h64v-527h-64zM58 0v56h218v-56h-218zM58 507v56h218v-56h-218zM548 -10q-28 0 -57 8t-53 26t-39 48.5t-15 75.5h60q0 -23 8 -46.5t30.5 -39.5t63.5 -16q51 0 76 28t25 95v376h64v-368q0 -44 -8.5 -79t-28 -59t-50.5 -36.5t-76 -12.5zM536 511v51h175v-51h-175
z" />
    <glyph glyph-name="ij" unicode="&#x133;" horiz-adv-x="380" 
d="M52 0v407h65v-407h-65zM85 468q-25 0 -34 13t-9 30q0 16 9 28.5t34 12.5t33 -12.5t8 -28.5q0 -17 -8 -30t-33 -13zM261 468q-24 0 -33 13t-9 30q0 16 9 28.5t33 12.5q26 0 33.5 -12.5t7.5 -28.5q0 -17 -7.5 -30t-33.5 -13zM229 407h65v-500q0 -35 -14.5 -55t-51.5 -20
h-68v53h69v522z" />
    <glyph glyph-name="uni0136" unicode="&#x136;" horiz-adv-x="553" 
d="M130 189v76l301 298h84v-10zM70 -1v564h65v-564h-65zM452 0l-236 298l46 45l265 -333v-10h-75zM234 -221v48h17q25 0 31.5 11t6.5 28q-27 -2 -39 10t-12 34q0 17 9 29.5t33 12.5q21 0 30.5 -12.5t9.5 -45.5q0 -34 -6 -60t-20.5 -40.5t-40.5 -14.5h-19z" />
    <glyph glyph-name="uni0137" unicode="&#x137;" horiz-adv-x="429" 
d="M113 -1h-65v564h65v-564zM220 257l201 -258h-79l-169 213zM108 103v75l227 230h82zM172 -221v48h17q25 0 31.5 11t6.5 28q-27 -2 -39 10t-12 34q0 17 9 29.5t33 12.5q21 0 30.5 -12.5t9.5 -45.5q0 -34 -6 -60t-20.5 -40.5t-40.5 -14.5h-19z" />
    <glyph glyph-name="Lacute" unicode="&#x139;" horiz-adv-x="468" 
d="M67 10v553h64v-553h-64zM67 0v56h376v-56h-376zM116 610h-32v9l51 103h59v-14z" />
    <glyph glyph-name="lacute" unicode="&#x13a;" horiz-adv-x="167" 
d="M52 0v563h63v-563h-63zM99 606h-32v9l51 103h59v-14z" />
    <glyph glyph-name="uni013B" unicode="&#x13b;" horiz-adv-x="468" 
d="M67 10v553h64v-553h-64zM67 0v56h376v-56h-376zM191 -221v48h17q25 0 31.5 11t6.5 28q-27 -2 -39 10t-12 34q0 17 9 29.5t33 12.5q21 0 30.5 -12.5t9.5 -45.5q0 -34 -6 -60t-20.5 -40.5t-40.5 -14.5h-19z" />
    <glyph glyph-name="uni013C" unicode="&#x13c;" horiz-adv-x="167" 
d="M52 0v563h63v-563h-63zM41 -221v48h17q25 0 31.5 11t6.5 28q-27 -2 -39 10t-12 34q0 17 9 29.5t33 12.5q21 0 30.5 -12.5t9.5 -45.5q0 -34 -6 -60t-20.5 -40.5t-40.5 -14.5h-19z" />
    <glyph glyph-name="Lcaron" unicode="&#x13d;" horiz-adv-x="468" 
d="M67 10v553h64v-553h-64zM67 0v56h376v-56h-376zM301 416l34 147h63l-59 -147h-38z" />
    <glyph glyph-name="lcaron" unicode="&#x13e;" horiz-adv-x="257" 
d="M52 0v563h63v-563h-63zM160 424l34 147h63l-59 -147h-38z" />
    <glyph glyph-name="Lslash" unicode="&#x141;" horiz-adv-x="468" 
d="M-4 213v58l269 134v-58zM67 10v553h64v-553h-64zM67 0v56h376v-56h-376z" />
    <glyph glyph-name="lslash" unicode="&#x142;" horiz-adv-x="223" 
d="M-7 213v60l195 134v-60zM52 0v563h63v-563h-63z" />
    <glyph glyph-name="Nacute" unicode="&#x143;" horiz-adv-x="581" 
d="M458 563h65v-563h-121l-280 534h-2v-534h-65v563h113l288 -534h2v534zM307 606h-32v9l51 103h59v-14z" />
    <glyph glyph-name="nacute" unicode="&#x144;" horiz-adv-x="446" 
d="M38 0v407h55l11 -101h2q2 5 9.5 21.5t23.5 34.5t43.5 31.5t69.5 13.5t70 -12.5t44.5 -34t24.5 -48.5t10.5 -55.5t2.5 -55.5v-201h-62v201q0 44 -9.5 77.5t-33.5 52t-68 18.5q-45 0 -73 -21.5t-41 -57t-13 -77.5v-193h-66zM239 450h-32v9l51 103h59v-14z" />
    <glyph glyph-name="uni0145" unicode="&#x145;" horiz-adv-x="581" 
d="M458 563h65v-563h-121l-280 534h-2v-534h-65v563h113l288 -534h2v534zM248 -221v48h17q25 0 31.5 11t6.5 28q-27 -2 -39 10t-12 34q0 17 9 29.5t33 12.5q21 0 30.5 -12.5t9.5 -45.5q0 -34 -6 -60t-20.5 -40.5t-40.5 -14.5h-19z" />
    <glyph glyph-name="uni0146" unicode="&#x146;" horiz-adv-x="446" 
d="M38 0v407h55l11 -101h2q2 5 9.5 21.5t23.5 34.5t43.5 31.5t69.5 13.5t70 -12.5t44.5 -34t24.5 -48.5t10.5 -55.5t2.5 -55.5v-201h-62v201q0 44 -9.5 77.5t-33.5 52t-68 18.5q-45 0 -73 -21.5t-41 -57t-13 -77.5v-193h-66zM180 -221v48h17q25 0 31.5 11t6.5 28
q-27 -2 -39 10t-12 34q0 17 9 29.5t33 12.5q21 0 30.5 -12.5t9.5 -45.5q0 -34 -6 -60t-20.5 -40.5t-40.5 -14.5h-19z" />
    <glyph glyph-name="Ncaron" unicode="&#x147;" horiz-adv-x="581" 
d="M458 563h65v-563h-121l-280 534h-2v-534h-65v563h113l288 -534h2v534zM276 606l-109 108v8h62l59 -72h4l61 72h61v-8l-110 -108h-28z" />
    <glyph glyph-name="ncaron" unicode="&#x148;" horiz-adv-x="446" 
d="M38 0v407h55l11 -101h2q2 5 9.5 21.5t23.5 34.5t43.5 31.5t69.5 13.5t70 -12.5t44.5 -34t24.5 -48.5t10.5 -55.5t2.5 -55.5v-201h-62v201q0 44 -9.5 77.5t-33.5 52t-68 18.5q-45 0 -73 -21.5t-41 -57t-13 -77.5v-193h-66zM208 450l-109 108v8h62l59 -72h4l61 72h61v-8
l-110 -108h-28z" />
    <glyph glyph-name="Eng" unicode="&#x14a;" horiz-adv-x="600" 
d="M409 -202q-23 0 -40 6t-28.5 14t-17.5 13l38 44q5 -6 16 -12.5t27 -6.5q27 0 41.5 15.5t14.5 52.5v98h63v-102q1 -34 -11 -61.5t-37 -44t-66 -16.5zM458 563h65v-563h-121l-280 534h-2v-534h-65v563h113l288 -534h2v534z" />
    <glyph glyph-name="eng" unicode="&#x14b;" horiz-adv-x="482" 
d="M291 -199q-23 0 -40.5 6t-28.5 14t-17 13l38 44q5 -6 16 -12.5t27 -6.5q27 0 41.5 15.5t14.5 52.5v98h62v-102q1 -34 -10.5 -61.5t-36 -44t-66.5 -16.5zM38 0v407h55l11 -101h2q2 5 9.5 21.5t23.5 34.5t43.5 31.5t69.5 13.5t70 -12.5t44.5 -34t24.5 -48.5t10.5 -55.5
t2.5 -55.5v-201h-62v201q0 44 -9.5 77.5t-33.5 52t-68 18.5q-45 0 -73 -21.5t-41 -57t-13 -77.5v-193h-66z" />
    <glyph glyph-name="Omacron" unicode="&#x14c;" horiz-adv-x="604" 
d="M295 -14q-134 0 -204 79.5t-70 214.5q0 89 30.5 154.5t91 102t152.5 36.5q134 0 203 -79.5t69 -213.5q0 -87 -30.5 -153.5t-91 -103.5t-150.5 -37zM294 48q70 0 116.5 29t70 81.5t23.5 121.5t-22.5 121.5t-69.5 82t-118 29.5q-103 0 -156.5 -62t-53.5 -171
q0 -68 23 -120.5t69.5 -82t117.5 -29.5zM178 628v48h249v-48h-249z" />
    <glyph glyph-name="omacron" unicode="&#x14d;" horiz-adv-x="457" 
d="M222 -10q-65 0 -108.5 27t-65 74t-21.5 107q0 61 21.5 108.5t65 74.5t108.5 27q95 0 145 -57.5t50 -152.5q0 -59 -21 -106t-64 -74.5t-110 -27.5zM222 46q53 0 81 23t39.5 58.5t11.5 72.5t-11.5 73t-39.5 59t-81 23q-51 0 -80.5 -23t-40.5 -59t-11 -73t11 -72.5
t40.5 -58.5t80.5 -23zM104 472v48h249v-48h-249z" />
    <glyph glyph-name="Ohungarumlaut" unicode="&#x150;" horiz-adv-x="604" 
d="M295 -14q-134 0 -204 79.5t-70 214.5q0 89 30.5 154.5t91 102t152.5 36.5q134 0 203 -79.5t69 -213.5q0 -87 -30.5 -153.5t-91 -103.5t-150.5 -37zM294 48q70 0 116.5 29t70 81.5t23.5 121.5t-22.5 121.5t-69.5 82t-118 29.5q-103 0 -156.5 -62t-53.5 -171
q0 -68 23 -120.5t69.5 -82t117.5 -29.5zM199 627l77 138l56 -27l-102 -125zM339 627l77 138l56 -27l-101 -125z" />
    <glyph glyph-name="ohungarumlaut" unicode="&#x151;" horiz-adv-x="457" 
d="M222 -10q-65 0 -108.5 27t-65 74t-21.5 107q0 61 21.5 108.5t65 74.5t108.5 27q95 0 145 -57.5t50 -152.5q0 -59 -21 -106t-64 -74.5t-110 -27.5zM222 46q53 0 81 23t39.5 58.5t11.5 72.5t-11.5 73t-39.5 59t-81 23q-51 0 -80.5 -23t-40.5 -59t-11 -73t11 -72.5
t40.5 -58.5t80.5 -23zM125 471l77 138l56 -27l-102 -125zM265 471l77 138l56 -27l-101 -125z" />
    <glyph glyph-name="OE" unicode="&#x152;" horiz-adv-x="836" 
d="M369 0q-102 0 -177.5 24t-117 85.5t-41.5 172.5q0 94 41.5 156t117 93.5t177.5 31.5h17.5h27h64.5v-563h-62h-27.5h-19.5zM358 55h8.5h10h37.5v451h-56q-78 0 -135.5 -24t-89 -73.5t-31.5 -126.5q0 -70 17.5 -114.5t51.5 -69.5t81.5 -34t105.5 -9zM414 0v563h377v-57
h-314v-194h249v-54h-249v-204h324v-54h-387z" />
    <glyph glyph-name="oe" unicode="&#x153;" horiz-adv-x="767" 
d="M220 -10q-65 0 -109 27t-65.5 74t-21.5 107q0 61 21.5 108.5t65.5 74.5t109 27q95 0 144.5 -57.5t49.5 -152.5q0 -59 -21 -106t-63.5 -74.5t-109.5 -27.5zM220 46q52 0 80.5 23t40 58.5t11.5 72.5t-11.5 73t-40 59t-80.5 23t-81 -23t-40.5 -59t-11.5 -73t11.5 -72.5
t40.5 -58.5t81 -23zM549 -10q-68 0 -111.5 30.5t-64.5 79t-21 100.5q0 39 11.5 76t35.5 67t61.5 47.5t88.5 17.5t90.5 -23.5t64 -65t27.5 -97.5q1 -4 1 -11.5v-13.5h-318q0 -69 35.5 -109.5t99.5 -40.5q48 0 80.5 24t40.5 66l63 -9q-10 -39 -34.5 -70.5t-62.5 -49.5t-87 -18
zM416 236h251q-1 16 -7 36.5t-19 40.5t-36 33.5t-58 13.5q-32 0 -55.5 -11t-39.5 -29t-24.5 -40t-11.5 -44z" />
    <glyph glyph-name="Racute" unicode="&#x154;" horiz-adv-x="531" 
d="M62 0v563h186q72 0 121.5 -14.5t76 -49.5t26.5 -97q0 -40 -14.5 -73.5t-44 -53.5t-73.5 -20q36 0 56 -13.5t29 -35.5t12 -47t4 -49t4.5 -42t15.5 -25t36 2v-42q-9 -8 -27.5 -11.5t-38.5 2.5t-33.5 27t-13.5 62q0 50 -4 81.5t-17.5 48.5t-41.5 24t-75 7t-119 -1v-243h-65z
M127 292h131q53 0 87.5 9t51.5 31.5t17 65.5q0 51 -21 74t-60.5 29.5t-97.5 6.5h-108v-216zM264 606h-32v9l51 103h59v-14z" />
    <glyph glyph-name="racute" unicode="&#x155;" horiz-adv-x="302" 
d="M48 0v407h58l7 -117l-1 -88v-202h-64zM112 190l-3 89q2 23 12 46t28.5 41.5t47.5 29.5t68 11h19v-71h-20q-48 0 -78 -10.5t-46 -30t-22 -46.5t-6 -59zM167 450h-32v9l51 103h59v-14z" />
    <glyph glyph-name="uni0156" unicode="&#x156;" horiz-adv-x="531" 
d="M62 0v563h186q72 0 121.5 -14.5t76 -49.5t26.5 -97q0 -40 -14.5 -73.5t-44 -53.5t-73.5 -20q36 0 56 -13.5t29 -35.5t12 -47t4 -49t4.5 -42t15.5 -25t36 2v-42q-9 -8 -27.5 -11.5t-38.5 2.5t-33.5 27t-13.5 62q0 50 -4 81.5t-17.5 48.5t-41.5 24t-75 7t-119 -1v-243h-65z
M127 292h131q53 0 87.5 9t51.5 31.5t17 65.5q0 51 -21 74t-60.5 29.5t-97.5 6.5h-108v-216zM223 -221v48h17q25 0 31.5 11t6.5 28q-27 -2 -39 10t-12 34q0 17 9 29.5t33 12.5q21 0 30.5 -12.5t9.5 -45.5q0 -34 -6 -60t-20.5 -40.5t-40.5 -14.5h-19z" />
    <glyph glyph-name="uni0157" unicode="&#x157;" horiz-adv-x="302" 
d="M48 0v407h58l7 -117l-1 -88v-202h-64zM112 190l-3 89q2 23 12 46t28.5 41.5t47.5 29.5t68 11h19v-71h-20q-48 0 -78 -10.5t-46 -30t-22 -46.5t-6 -59zM37 -221v48h17q25 0 31.5 11t6.5 28q-27 -2 -39 10t-12 34q0 17 9 29.5t33 12.5q21 0 30.5 -12.5t9.5 -45.5
q0 -34 -6 -60t-20.5 -40.5t-40.5 -14.5h-19z" />
    <glyph glyph-name="Rcaron" unicode="&#x158;" horiz-adv-x="531" 
d="M62 0v563h186q72 0 121.5 -14.5t76 -49.5t26.5 -97q0 -40 -14.5 -73.5t-44 -53.5t-73.5 -20q36 0 56 -13.5t29 -35.5t12 -47t4 -49t4.5 -42t15.5 -25t36 2v-42q-9 -8 -27.5 -11.5t-38.5 2.5t-33.5 27t-13.5 62q0 50 -4 81.5t-17.5 48.5t-41.5 24t-75 7t-119 -1v-243h-65z
M127 292h131q53 0 87.5 9t51.5 31.5t17 65.5q0 51 -21 74t-60.5 29.5t-97.5 6.5h-108v-216zM233 606l-109 108v8h62l59 -72h4l61 72h61v-8l-110 -108h-28z" />
    <glyph glyph-name="rcaron" unicode="&#x159;" horiz-adv-x="302" 
d="M48 0v407h58l7 -117l-1 -88v-202h-64zM112 190l-3 89q2 23 12 46t28.5 41.5t47.5 29.5t68 11h19v-71h-20q-48 0 -78 -10.5t-46 -30t-22 -46.5t-6 -59zM136 450l-109 108v8h62l59 -72h4l61 72h61v-8l-110 -108h-28z" />
    <glyph glyph-name="Sacute" unicode="&#x15a;" horiz-adv-x="525" 
d="M269 -13q-44 0 -86.5 11t-77 33.5t-55 58.5t-20.5 85h64q0 -3 2 -17t10.5 -33t27.5 -37t53 -30t87 -12q44 0 72.5 10.5t44 26t21.5 31t6 25.5q1 35 -19 56.5t-53.5 34t-73.5 22.5t-79.5 21.5t-72.5 29.5t-52 48.5t-17 77.5q2 45 31 77t78 49.5t110 17.5q58 0 106 -20.5
t77 -61.5t27 -102h-63q2 38 -14 62t-41 37.5t-51.5 19t-46.5 5.5q-63 0 -103.5 -25t-42.5 -65q0 -35 20 -56t53 -33.5t73.5 -21.5t80 -20.5t72.5 -29.5t52 -49t17 -79q-2 -47 -31 -79.5t-77 -50t-109 -17.5zM278 606h-32v9l51 103h59v-14z" />
    <glyph glyph-name="sacute" unicode="&#x15b;" horiz-adv-x="402" 
d="M204 -10q-34 0 -62 9.5t-48.5 25.5t-35 34.5t-21.5 37.5t-7 34h62q0 -1 2 -15t12 -32t33 -31.5t65 -13.5q30 0 54 7t37.5 22t12.5 37q0 29 -19.5 44.5t-50.5 24t-65 16.5t-65 20.5t-50 35.5t-18 64q1 50 45.5 79.5t114.5 29.5q29 0 59.5 -7t56 -22.5t40.5 -43t13 -68.5
h-60q1 28 -9.5 45.5t-28 27t-37 13t-36.5 3.5q-43 0 -70.5 -16t-27.5 -45q0 -27 19.5 -42t50 -23.5t65 -16t65.5 -20.5t50.5 -37t19.5 -66q0 -39 -21.5 -63.5t-59 -36t-85.5 -11.5zM217 450h-32v9l51 103h59v-14z" />
    <glyph glyph-name="Scedilla" unicode="&#x15e;" horiz-adv-x="525" 
d="M269 -13q-44 0 -86.5 11t-77 33.5t-55 58.5t-20.5 85h64q0 -3 2 -17t10.5 -33t27.5 -37t53 -30t87 -12q44 0 72.5 10.5t44 26t21.5 31t6 25.5q1 35 -19 56.5t-53.5 34t-73.5 22.5t-79.5 21.5t-72.5 29.5t-52 48.5t-17 77.5q2 45 31 77t78 49.5t110 17.5q58 0 106 -20.5
t77 -61.5t27 -102h-63q2 38 -14 62t-41 37.5t-51.5 19t-46.5 5.5q-63 0 -103.5 -25t-42.5 -65q0 -35 20 -56t53 -33.5t73.5 -21.5t80 -20.5t72.5 -29.5t52 -49t17 -79q-2 -47 -31 -79.5t-77 -50t-109 -17.5zM173 -127l23 33q13 -13 36 -22t45 -9t36.5 9t14.5 28
q0 14 -11.5 20.5t-27.5 6.5q-13 0 -27.5 -4.5t-25.5 -14.5l-29 19l40 83l34 -14l-40 -62q11 11 28 17.5t35 6.5q26 0 48 -14t22 -45q0 -37 -30 -56t-71 -19q-25 0 -51.5 9.5t-48.5 27.5z" />
    <glyph glyph-name="scedilla" unicode="&#x15f;" horiz-adv-x="402" 
d="M204 -10q-34 0 -62 9.5t-48.5 25.5t-35 34.5t-21.5 37.5t-7 34h62q0 -1 2 -15t12 -32t33 -31.5t65 -13.5q30 0 54 7t37.5 22t12.5 37q0 29 -19.5 44.5t-50.5 24t-65 16.5t-65 20.5t-50 35.5t-18 64q1 50 45.5 79.5t114.5 29.5q29 0 59.5 -7t56 -22.5t40.5 -43t13 -68.5
h-60q1 28 -9.5 45.5t-28 27t-37 13t-36.5 3.5q-43 0 -70.5 -16t-27.5 -45q0 -27 19.5 -42t50 -23.5t65 -16t65.5 -20.5t50.5 -37t19.5 -66q0 -39 -21.5 -63.5t-59 -36t-85.5 -11.5zM111 -127l23 33q13 -13 36 -22t45 -9t36.5 9t14.5 28q0 14 -11.5 20.5t-27.5 6.5
q-13 0 -27.5 -4.5t-25.5 -14.5l-29 19l40 83l34 -14l-40 -62q11 11 28 17.5t35 6.5q26 0 48 -14t22 -45q0 -37 -30 -56t-71 -19q-25 0 -51.5 9.5t-48.5 27.5z" />
    <glyph glyph-name="Scaron" unicode="&#x160;" horiz-adv-x="525" 
d="M269 -13q-44 0 -86.5 11t-77 33.5t-55 58.5t-20.5 85h64q0 -3 2 -17t10.5 -33t27.5 -37t53 -30t87 -12q44 0 72.5 10.5t44 26t21.5 31t6 25.5q1 35 -19 56.5t-53.5 34t-73.5 22.5t-79.5 21.5t-72.5 29.5t-52 48.5t-17 77.5q2 45 31 77t78 49.5t110 17.5q58 0 106 -20.5
t77 -61.5t27 -102h-63q2 38 -14 62t-41 37.5t-51.5 19t-46.5 5.5q-63 0 -103.5 -25t-42.5 -65q0 -35 20 -56t53 -33.5t73.5 -21.5t80 -20.5t72.5 -29.5t52 -49t17 -79q-2 -47 -31 -79.5t-77 -50t-109 -17.5zM248 606l-109 108v8h62l59 -72h4l61 72h61v-8l-110 -108h-28z" />
    <glyph glyph-name="scaron" unicode="&#x161;" horiz-adv-x="402" 
d="M204 -10q-34 0 -62 9.5t-48.5 25.5t-35 34.5t-21.5 37.5t-7 34h62q0 -1 2 -15t12 -32t33 -31.5t65 -13.5q30 0 54 7t37.5 22t12.5 37q0 29 -19.5 44.5t-50.5 24t-65 16.5t-65 20.5t-50 35.5t-18 64q1 50 45.5 79.5t114.5 29.5q29 0 59.5 -7t56 -22.5t40.5 -43t13 -68.5
h-60q1 28 -9.5 45.5t-28 27t-37 13t-36.5 3.5q-43 0 -70.5 -16t-27.5 -45q0 -27 19.5 -42t50 -23.5t65 -16t65.5 -20.5t50.5 -37t19.5 -66q0 -39 -21.5 -63.5t-59 -36t-85.5 -11.5zM187 450l-109 108v8h62l59 -72h4l61 72h61v-8l-110 -108h-28z" />
    <glyph glyph-name="uni0162" unicode="&#x162;" horiz-adv-x="449" 
d="M255 545v-545h-64v545h64zM10 507v56h425v-56h-425zM135 -127l23 33q13 -13 36 -22t45 -9t36.5 9t14.5 28q0 14 -11.5 20.5t-27.5 6.5q-13 0 -27.5 -4.5t-25.5 -14.5l-29 19l40 83l34 -14l-40 -62q11 11 28 17.5t35 6.5q26 0 48 -14t22 -45q0 -37 -30 -56t-71 -19
q-25 0 -51.5 9.5t-48.5 27.5z" />
    <glyph glyph-name="uni0163" unicode="&#x163;" horiz-adv-x="276" 
d="M140 0q-36 0 -51 20t-15 55v293h62v-316h95v-52h-91zM10 359v48q24 0 38.5 2.5t21.5 12t9 31.5t2 59h55v-105h94v-48h-220zM48 -127l23 33q13 -13 36 -22t45 -9t36.5 9t14.5 28q0 14 -11.5 20.5t-27.5 6.5q-13 0 -27.5 -4.5t-25.5 -14.5l-29 19l40 83l34 -14l-40 -62
q11 11 28 17.5t35 6.5q26 0 48 -14t22 -45q0 -37 -30 -56t-71 -19q-25 0 -51.5 9.5t-48.5 27.5z" />
    <glyph glyph-name="Tcaron" unicode="&#x164;" horiz-adv-x="449" 
d="M255 545v-545h-64v545h64zM10 507v56h425v-56h-425zM210 606l-109 108v8h62l59 -72h4l61 72h61v-8l-110 -108h-28z" />
    <glyph glyph-name="tcaron" unicode="&#x165;" horiz-adv-x="276" 
d="M140 0q-36 0 -51 20t-15 55v293h62v-316h95v-52h-91zM10 359v48q24 0 38.5 2.5t21.5 12t9 31.5t2 59h55v-105h94v-48h-220zM177 450l34 147h63l-59 -147h-38z" />
    <glyph glyph-name="Tbar" unicode="&#x166;" horiz-adv-x="449" 
d="M10 507v56h425v-56h-425zM56 280v49h333v-49h-333zM255 545v-545h-64v545h64z" />
    <glyph glyph-name="tbar" unicode="&#x167;" horiz-adv-x="276" 
d="M230 17q-26 -21 -53.5 -25.5t-50.5 5.5t-37.5 34.5t-14.5 61.5v276h62v-262q0 -29 8.5 -44.5t22.5 -20.5t29 -1t28 14zM17 193v49h200v-49h-200zM10 356v52q24 0 38.5 2.5t21.5 12t9 31.5t2 59h55v-105h94v-52h-220z" />
    <glyph glyph-name="Utilde" unicode="&#x168;" horiz-adv-x="577" 
d="M286 -14q-113 0 -173.5 66.5t-60.5 187.5v323h66v-323q0 -50 13 -86.5t35.5 -60.5t53 -35t66.5 -11q52 0 89.5 19.5t58.5 62.5t21 111v323h66v-323q0 -123 -59.5 -188.5t-175.5 -65.5zM173 628q-1 15 0.5 31t8 30t19.5 23t35 9q23 0 37 -8.5t23 -19t18.5 -19t23.5 -8.5
q17 0 20 14t3 40h43q0 -17 -1.5 -34t-8.5 -30t-19.5 -21.5t-34.5 -8.5t-36 8.5t-23.5 19t-18.5 19t-23 8.5q-17 0 -20.5 -14t-3.5 -39h-42z" />
    <glyph glyph-name="utilde" unicode="&#x169;" horiz-adv-x="445" 
d="M189 -10q-39 0 -66.5 12t-45 32.5t-26.5 47t-12.5 56t-3.5 59.5v210h64v-211q0 -40 8.5 -74t32.5 -54t71 -20q45 0 70.5 21t37.5 53.5t14 68.5v216h66v-407h-55l-11 91h-2q-4 -13 -13.5 -30t-26.5 -33t-42.5 -27t-59.5 -11zM107 472q-1 15 0.5 31t8 30t19.5 23t35 9
q23 0 37 -8.5t23 -19t18.5 -19t23.5 -8.5q17 0 20 14t3 40h43q0 -17 -1.5 -34t-8.5 -30t-19.5 -21.5t-34.5 -8.5t-36 8.5t-23.5 19t-18.5 19t-23 8.5q-17 0 -20.5 -14t-3.5 -39h-42z" />
    <glyph glyph-name="Umacron" unicode="&#x16a;" horiz-adv-x="577" 
d="M286 -14q-113 0 -173.5 66.5t-60.5 187.5v323h66v-323q0 -50 13 -86.5t35.5 -60.5t53 -35t66.5 -11q52 0 89.5 19.5t58.5 62.5t21 111v323h66v-323q0 -123 -59.5 -188.5t-175.5 -65.5zM164 628v48h249v-48h-249z" />
    <glyph glyph-name="umacron" unicode="&#x16b;" horiz-adv-x="445" 
d="M189 -10q-39 0 -66.5 12t-45 32.5t-26.5 47t-12.5 56t-3.5 59.5v210h64v-211q0 -40 8.5 -74t32.5 -54t71 -20q45 0 70.5 21t37.5 53.5t14 68.5v216h66v-407h-55l-11 91h-2q-4 -13 -13.5 -30t-26.5 -33t-42.5 -27t-59.5 -11zM98 472v48h249v-48h-249z" />
    <glyph glyph-name="Ubreve" unicode="&#x16c;" horiz-adv-x="577" 
d="M286 -14q-113 0 -173.5 66.5t-60.5 187.5v323h66v-323q0 -50 13 -86.5t35.5 -60.5t53 -35t66.5 -11q52 0 89.5 19.5t58.5 62.5t21 111v323h66v-323q0 -123 -59.5 -188.5t-175.5 -65.5zM289 617q-55 0 -86.5 24.5t-31.5 65.5h47q0 -31 21 -40t49 -9q29 0 49 9t20 40h48
q0 -41 -30.5 -65.5t-85.5 -24.5z" />
    <glyph glyph-name="ubreve" unicode="&#x16d;" horiz-adv-x="445" 
d="M189 -10q-39 0 -66.5 12t-45 32.5t-26.5 47t-12.5 56t-3.5 59.5v210h64v-211q0 -40 8.5 -74t32.5 -54t71 -20q45 0 70.5 21t37.5 53.5t14 68.5v216h66v-407h-55l-11 91h-2q-4 -13 -13.5 -30t-26.5 -33t-42.5 -27t-59.5 -11zM223 461q-55 0 -86.5 24.5t-31.5 65.5h47
q0 -31 21 -40t49 -9q29 0 49 9t20 40h48q0 -41 -30.5 -65.5t-85.5 -24.5z" />
    <glyph glyph-name="Uring" unicode="&#x16e;" horiz-adv-x="577" 
d="M286 -14q-113 0 -173.5 66.5t-60.5 187.5v323h66v-323q0 -50 13 -86.5t35.5 -60.5t53 -35t66.5 -11q52 0 89.5 19.5t58.5 62.5t21 111v323h66v-323q0 -123 -59.5 -188.5t-175.5 -65.5zM287 623q-44 0 -67.5 24.5t-23.5 65.5q0 42 23 66.5t67 24.5q45 0 69 -24.5t24 -66.5
q0 -39 -24 -64.5t-68 -25.5zM286 663q25 0 38.5 15t13.5 36q0 22 -13.5 37.5t-38.5 15.5t-38.5 -15.5t-13.5 -37.5t14.5 -36.5t37.5 -14.5z" />
    <glyph glyph-name="uring" unicode="&#x16f;" horiz-adv-x="445" 
d="M189 -10q-39 0 -66.5 12t-45 32.5t-26.5 47t-12.5 56t-3.5 59.5v210h64v-211q0 -40 8.5 -74t32.5 -54t71 -20q45 0 70.5 21t37.5 53.5t14 68.5v216h66v-407h-55l-11 91h-2q-4 -13 -13.5 -30t-26.5 -33t-42.5 -27t-59.5 -11zM222 467q-44 0 -67.5 24.5t-23.5 65.5
q0 42 23 66.5t67 24.5q45 0 69 -24.5t24 -66.5q0 -39 -24 -64.5t-68 -25.5zM221 507q25 0 38.5 15t13.5 36q0 22 -13.5 37.5t-38.5 15.5t-38.5 -15.5t-13.5 -37.5t14.5 -36.5t37.5 -14.5z" />
    <glyph glyph-name="Uhungarumlaut" unicode="&#x170;" horiz-adv-x="577" 
d="M286 -14q-113 0 -173.5 66.5t-60.5 187.5v323h66v-323q0 -50 13 -86.5t35.5 -60.5t53 -35t66.5 -11q52 0 89.5 19.5t58.5 62.5t21 111v323h66v-323q0 -123 -59.5 -188.5t-175.5 -65.5zM185 627l77 138l56 -27l-102 -125zM325 627l77 138l56 -27l-101 -125z" />
    <glyph glyph-name="uhungarumlaut" unicode="&#x171;" horiz-adv-x="445" 
d="M189 -10q-39 0 -66.5 12t-45 32.5t-26.5 47t-12.5 56t-3.5 59.5v210h64v-211q0 -40 8.5 -74t32.5 -54t71 -20q45 0 70.5 21t37.5 53.5t14 68.5v216h66v-407h-55l-11 91h-2q-4 -13 -13.5 -30t-26.5 -33t-42.5 -27t-59.5 -11zM119 471l77 138l56 -27l-102 -125zM259 471
l77 138l56 -27l-101 -125z" />
    <glyph glyph-name="Uogonek" unicode="&#x172;" horiz-adv-x="577" 
d="M295 -194q-24 0 -44 9.5t-32 28t-12 44.5q0 27 13.5 49t34.5 38.5t41.5 27t34 15.5l13.5 5l3 -29l-13.5 -6.5t-31.5 -19t-32 -30.5t-14 -42q0 -18 11.5 -29.5t31.5 -11.5q18 0 28 7.5t14.5 15.5l4.5 8l38 -31l-9.5 -12t-29 -24.5t-50.5 -12.5zM286 -14
q-113 0 -173.5 66.5t-60.5 187.5v323h66v-323q0 -50 13 -86.5t35.5 -60.5t53 -35t66.5 -11q52 0 89.5 19.5t58.5 62.5t21 111v323h66v-323q0 -123 -59.5 -188.5t-175.5 -65.5z" />
    <glyph glyph-name="uogonek" unicode="&#x173;" horiz-adv-x="445" 
d="M189 -10q-39 0 -66.5 12t-45 32.5t-26.5 47t-12.5 56t-3.5 59.5v210h64v-211q0 -40 8.5 -74t32.5 -54t71 -20q45 0 70.5 21t37.5 53.5t14 68.5v216h66v-407h-55l-11 91h-2q-4 -13 -13.5 -30t-26.5 -33t-42.5 -27t-59.5 -11zM343 -192q-24 0 -44 9.5t-32 28t-12 44.5
q0 27 14 49.5t34 39.5t40.5 28t34 16.5l13.5 5.5v-29l-13 -7t-30 -20.5t-30 -32t-13 -42.5q0 -18 11 -29.5t32 -11.5q18 0 28 7.5t14 15.5l4 8l39 -31l-9.5 -12t-29.5 -24.5t-51 -12.5z" />
    <glyph glyph-name="Wcircumflex" unicode="&#x174;" horiz-adv-x="839" 
d="M378 563h69l-35 -85l-140 -478h-105l-160 563h68l145 -533zM749 563h70l-166 -563h-105l-136 478l-34 85h69l153 -533zM295 619v8l109 103h29l109 -103v-8h-60l-62 67h-3l-60 -67h-62z" />
    <glyph glyph-name="wcircumflex" unicode="&#x175;" horiz-adv-x="604" 
d="M112 0l-109 393v15h62l92 -353h2l105 353h57l108 -353h2l90 353h62v-15l-108 -393h-92l-89 296h-2l-88 -296h-92zM178 463v8l109 103h29l109 -103v-8h-60l-62 67h-3l-60 -67h-62z" />
    <glyph glyph-name="Ycircumflex" unicode="&#x176;" horiz-adv-x="430" 
d="M180 203l-193 360h72l153 -298l153 298h71l-195 -360h-61zM178 0v216h65v-216h-65zM91 619v8l109 103h29l109 -103v-8h-60l-62 67h-3l-60 -67h-62z" />
    <glyph glyph-name="ycircumflex" unicode="&#x177;" horiz-adv-x="407" 
d="M-3 -182v52h56q13 0 23 4t20 17t22 40l43 93l-160 383h67l125 -315l133 315h68l-218 -485q-15 -34 -27 -54.5t-25 -31.5t-28.5 -14.5t-37.5 -3.5h-61zM79 463v8l109 103h29l109 -103v-8h-60l-62 67h-3l-60 -67h-62z" />
    <glyph glyph-name="Ydieresis" unicode="&#x178;" horiz-adv-x="430" 
d="M180 203l-193 360h72l153 -298l153 298h71l-195 -360h-61zM178 0v216h65v-216h-65zM137 618q-28 0 -38 14.5t-10 33.5q0 18 10 32t38 14t37.5 -14t9.5 -32q0 -19 -9.5 -33.5t-37.5 -14.5zM294 618q-29 0 -38.5 14.5t-9.5 33.5q0 18 9.5 32t38.5 14q28 0 37 -14t9 -32
q0 -19 -9 -33.5t-37 -14.5z" />
    <glyph glyph-name="Zacute" unicode="&#x179;" horiz-adv-x="544" 
d="M37 0v54l380 452h-349v57h431v-55l-378 -451h376v-57h-460zM288 606h-32v9l51 103h59v-14z" />
    <glyph glyph-name="zacute" unicode="&#x17a;" horiz-adv-x="430" 
d="M35 0v47l277 312h-264v49h344v-48l-276 -310h276v-50h-357zM231 450h-32v9l51 103h59v-14z" />
    <glyph glyph-name="Zdotaccent" unicode="&#x17b;" horiz-adv-x="544" 
d="M37 0v54l380 452h-349v57h431v-55l-378 -451h376v-57h-460zM273 624q-25 0 -33.5 13t-8.5 30q0 16 8.5 28.5t33.5 12.5t33 -12.5t8 -28.5q0 -17 -8 -30t-33 -13z" />
    <glyph glyph-name="zdotaccent" unicode="&#x17c;" horiz-adv-x="430" 
d="M35 0v47l277 312h-264v49h344v-48l-276 -310h276v-50h-357zM216 468q-25 0 -33.5 13t-8.5 30q0 16 8.5 28.5t33.5 12.5t33 -12.5t8 -28.5q0 -17 -8 -30t-33 -13z" />
    <glyph glyph-name="Zcaron" unicode="&#x17d;" horiz-adv-x="544" 
d="M37 0v54l380 452h-349v57h431v-55l-378 -451h376v-57h-460zM258 606l-109 108v8h62l59 -72h4l61 72h61v-8l-110 -108h-28z" />
    <glyph glyph-name="zcaron" unicode="&#x17e;" horiz-adv-x="430" 
d="M35 0v47l277 312h-264v49h344v-48l-276 -310h276v-50h-357zM201 450l-109 108v8h62l59 -72h4l61 72h61v-8l-110 -108h-28z" />
    <glyph glyph-name="Ohorn" unicode="&#x1a0;" horiz-adv-x="604" 
d="M295 -14q-134 0 -204 79.5t-70 214.5q0 89 30.5 154.5t91 102t152.5 36.5q134 0 203 -79.5t69 -213.5q0 -87 -30.5 -153.5t-91 -103.5t-150.5 -37zM294 48q70 0 116.5 29t70 81.5t23.5 121.5t-22.5 121.5t-69.5 82t-118 29.5q-103 0 -156.5 -62t-53.5 -171
q0 -68 23 -120.5t69.5 -82t117.5 -29.5zM372 521l2 42h28q13 0 19 3t7.5 11.5t1.5 25.5h56q0 -30 -9 -48t-28.5 -26t-49.5 -8h-27z" />
    <glyph glyph-name="ohorn" unicode="&#x1a1;" horiz-adv-x="457" 
d="M222 -10q-65 0 -108.5 27t-65 74t-21.5 107q0 61 21.5 108.5t65 74.5t108.5 27q95 0 145 -57.5t50 -152.5q0 -59 -21 -106t-64 -74.5t-110 -27.5zM222 46q53 0 81 23t39.5 58.5t11.5 72.5t-11.5 73t-39.5 59t-81 23q-51 0 -80.5 -23t-40.5 -59t-11 -73t11 -72.5
t40.5 -58.5t80.5 -23zM283 353l2 42h28q13 0 19 3t7.5 11.5t1.5 25.5h56q0 -30 -9 -48t-28.5 -26t-49.5 -8h-27z" />
    <glyph glyph-name="Uhorn" unicode="&#x1af;" horiz-adv-x="577" 
d="M286 -14q-113 0 -173.5 66.5t-60.5 187.5v323h66v-323q0 -50 13 -86.5t35.5 -60.5t53 -35t66.5 -11q52 0 89.5 19.5t58.5 62.5t21 111v323h66v-323q0 -123 -59.5 -188.5t-175.5 -65.5zM493 521l2 42h28q13 0 19 3t7.5 11.5t1.5 25.5h56q0 -30 -9 -48t-28.5 -26t-49.5 -8
h-27z" />
    <glyph glyph-name="uhorn" unicode="&#x1b0;" horiz-adv-x="445" 
d="M189 -10q-39 0 -66.5 12t-45 32.5t-26.5 47t-12.5 56t-3.5 59.5v210h64v-211q0 -40 8.5 -74t32.5 -54t71 -20q45 0 70.5 21t37.5 53.5t14 68.5v216h66v-407h-55l-11 91h-2q-4 -13 -13.5 -30t-26.5 -33t-42.5 -27t-59.5 -11zM363 365l2 42h28q13 0 19 3t7.5 11.5t1.5 25.5
h56q0 -30 -9 -48t-28.5 -26t-49.5 -8h-27z" />
    <glyph glyph-name="uni0218" unicode="&#x218;" horiz-adv-x="525" 
d="M269 -13q-44 0 -86.5 11t-77 33.5t-55 58.5t-20.5 85h64q0 -3 2 -17t10.5 -33t27.5 -37t53 -30t87 -12q44 0 72.5 10.5t44 26t21.5 31t6 25.5q1 35 -19 56.5t-53.5 34t-73.5 22.5t-79.5 21.5t-72.5 29.5t-52 48.5t-17 77.5q2 45 31 77t78 49.5t110 17.5q58 0 106 -20.5
t77 -61.5t27 -102h-63q2 38 -14 62t-41 37.5t-51.5 19t-46.5 5.5q-63 0 -103.5 -25t-42.5 -65q0 -35 20 -56t53 -33.5t73.5 -21.5t80 -20.5t72.5 -29.5t52 -49t17 -79q-2 -47 -31 -79.5t-77 -50t-109 -17.5zM220 -221v48h17q25 0 31.5 11t6.5 28q-27 -2 -39 10t-12 34
q0 17 9 29.5t33 12.5q21 0 30.5 -12.5t9.5 -45.5q0 -34 -6 -60t-20.5 -40.5t-40.5 -14.5h-19z" />
    <glyph glyph-name="uni0219" unicode="&#x219;" horiz-adv-x="402" 
d="M204 -10q-34 0 -62 9.5t-48.5 25.5t-35 34.5t-21.5 37.5t-7 34h62q0 -1 2 -15t12 -32t33 -31.5t65 -13.5q30 0 54 7t37.5 22t12.5 37q0 29 -19.5 44.5t-50.5 24t-65 16.5t-65 20.5t-50 35.5t-18 64q1 50 45.5 79.5t114.5 29.5q29 0 59.5 -7t56 -22.5t40.5 -43t13 -68.5
h-60q1 28 -9.5 45.5t-28 27t-37 13t-36.5 3.5q-43 0 -70.5 -16t-27.5 -45q0 -27 19.5 -42t50 -23.5t65 -16t65.5 -20.5t50.5 -37t19.5 -66q0 -39 -21.5 -63.5t-59 -36t-85.5 -11.5zM158 -221v48h17q25 0 31.5 11t6.5 28q-27 -2 -39 10t-12 34q0 17 9 29.5t33 12.5
q21 0 30.5 -12.5t9.5 -45.5q0 -34 -6 -60t-20.5 -40.5t-40.5 -14.5h-19z" />
    <glyph glyph-name="uni021A" unicode="&#x21a;" horiz-adv-x="449" 
d="M255 545v-545h-64v545h64zM10 507v56h425v-56h-425zM182 -221v48h17q25 0 31.5 11t6.5 28q-27 -2 -39 10t-12 34q0 17 9 29.5t33 12.5q21 0 30.5 -12.5t9.5 -45.5q0 -34 -6 -60t-20.5 -40.5t-40.5 -14.5h-19z" />
    <glyph glyph-name="uni021B" unicode="&#x21b;" horiz-adv-x="276" 
d="M140 0q-36 0 -51 20t-15 55v293h62v-316h95v-52h-91zM10 359v48q24 0 38.5 2.5t21.5 12t9 31.5t2 59h55v-105h94v-48h-220zM95 -221v48h17q25 0 31.5 11t6.5 28q-27 -2 -39 10t-12 34q0 17 9 29.5t33 12.5q21 0 30.5 -12.5t9.5 -45.5q0 -34 -6 -60t-20.5 -40.5
t-40.5 -14.5h-19z" />
    <glyph glyph-name="uni0237" unicode="&#x237;" horiz-adv-x="211" 
d="M60 407h65v-500q0 -35 -14.5 -55t-51.5 -20h-68v53h69v522z" />
    <glyph glyph-name="circumflex" unicode="&#x2c6;" horiz-adv-x="420" 
d="M86 463v8l109 103h29l109 -103v-8h-60l-62 67h-3l-60 -67h-62z" />
    <glyph glyph-name="caron" unicode="&#x2c7;" horiz-adv-x="406" 
d="M189 450l-109 108v8h62l59 -72h4l61 72h61v-8l-110 -108h-28z" />
    <glyph glyph-name="breve" unicode="&#x2d8;" horiz-adv-x="341" 
d="M171 461q-55 0 -86.5 24.5t-31.5 65.5h47q0 -31 21 -40t49 -9q29 0 49 9t20 40h48q0 -41 -30.5 -65.5t-85.5 -24.5z" />
    <glyph glyph-name="dotaccent" unicode="&#x2d9;" horiz-adv-x="185" 
d="M93 468q-25 0 -33.5 13t-8.5 30q0 16 8.5 28.5t33.5 12.5t33 -12.5t8 -28.5q0 -17 -8 -30t-33 -13z" />
    <glyph glyph-name="ring" unicode="&#x2da;" horiz-adv-x="257" 
d="M128 467q-44 0 -67.5 24.5t-23.5 65.5q0 42 23 66.5t67 24.5q45 0 69 -24.5t24 -66.5q0 -39 -24 -64.5t-68 -25.5zM127 507q25 0 38.5 15t13.5 36q0 22 -13.5 37.5t-38.5 15.5t-38.5 -15.5t-13.5 -37.5t14.5 -36.5t37.5 -14.5z" />
    <glyph glyph-name="ogonek" unicode="&#x2db;" horiz-adv-x="257" 
d="M128 -199q-24 0 -44 9.5t-32 28t-12 44.5q0 27 14 49.5t34 39.5t40.5 28t34 16.5l13.5 5.5v-29l-13 -7t-30 -20.5t-30 -32t-13 -42.5q0 -18 11 -29.5t32 -11.5q18 0 28 7.5t14 15.5l4 8l39 -31l-9.5 -12t-29.5 -24.5t-51 -12.5z" />
    <glyph glyph-name="tilde" unicode="&#x2dc;" horiz-adv-x="364" 
d="M67 472q-1 15 0.5 31t8 30t19.5 23t35 9q23 0 37 -8.5t23 -19t18.5 -19t23.5 -8.5q17 0 20 14t3 40h43q0 -17 -1.5 -34t-8.5 -30t-19.5 -21.5t-34.5 -8.5t-36 8.5t-23.5 19t-18.5 19t-23 8.5q-17 0 -20.5 -14t-3.5 -39h-42z" />
    <glyph glyph-name="hungarumlaut" unicode="&#x2dd;" horiz-adv-x="335" 
d="M31 471l77 138l56 -27l-102 -125zM171 471l77 138l56 -27l-101 -125z" />
    <glyph glyph-name="gravecomb" unicode="&#x300;" 
d="M114 450l-78 98v14h59l51 -103v-9h-32z" />
    <glyph glyph-name="acutecomb" unicode="&#x301;" 
d="M68 450h-32v9l51 103h59v-14z" />
    <glyph glyph-name="uni0302" unicode="&#x302;" 
d="M86 463v8l109 103h29l109 -103v-8h-60l-62 67h-3l-60 -67h-62z" />
    <glyph glyph-name="tildecomb" unicode="&#x303;" 
d="M67 472q-1 15 0.5 31t8 30t19.5 23t35 9q23 0 37 -8.5t23 -19t18.5 -19t23.5 -8.5q17 0 20 14t3 40h43q0 -17 -1.5 -34t-8.5 -30t-19.5 -21.5t-34.5 -8.5t-36 8.5t-23.5 19t-18.5 19t-23 8.5q-17 0 -20.5 -14t-3.5 -39h-42z" />
    <glyph glyph-name="uni0304" unicode="&#x304;" 
d="M40 472v48h249v-48h-249z" />
    <glyph glyph-name="uni0306" unicode="&#x306;" 
d="M171 461q-55 0 -86.5 24.5t-31.5 65.5h47q0 -31 21 -40t49 -9q29 0 49 9t20 40h48q0 -41 -30.5 -65.5t-85.5 -24.5z" />
    <glyph glyph-name="uni0307" unicode="&#x307;" 
d="M93 468q-25 0 -33.5 13t-8.5 30q0 16 8.5 28.5t33.5 12.5t33 -12.5t8 -28.5q0 -17 -8 -30t-33 -13z" />
    <glyph glyph-name="uni0308" unicode="&#x308;" 
d="M93 462q-28 0 -38 14.5t-10 33.5q0 18 10 32t38 14t37.5 -14t9.5 -32q0 -19 -9.5 -33.5t-37.5 -14.5zM250 462q-29 0 -38.5 14.5t-9.5 33.5q0 18 9.5 32t38.5 14q28 0 37 -14t9 -32q0 -19 -9 -33.5t-37 -14.5z" />
    <glyph glyph-name="hookabovecomb" unicode="&#x309;" 
d="M82 461v11q4 14 18.5 23t27.5 20t13 27q0 14 -9.5 20.5t-21.5 6.5t-24 -7t-17 -22l-32 16q8 27 30.5 41t46.5 14q27 0 48.5 -15t21.5 -47q0 -26 -13 -40t-26.5 -23.5t-16.5 -24.5h-46z" />
    <glyph glyph-name="uni030A" unicode="&#x30a;" 
d="M128 467q-44 0 -67.5 24.5t-23.5 65.5q0 42 23 66.5t67 24.5q45 0 69 -24.5t24 -66.5q0 -39 -24 -64.5t-68 -25.5zM127 507q25 0 38.5 15t13.5 36q0 22 -13.5 37.5t-38.5 15.5t-38.5 -15.5t-13.5 -37.5t14.5 -36.5t37.5 -14.5z" />
    <glyph glyph-name="uni030B" unicode="&#x30b;" 
d="M31 471l77 138l56 -27l-102 -125zM171 471l77 138l56 -27l-101 -125z" />
    <glyph glyph-name="uni030C" unicode="&#x30c;" 
d="M189 450l-109 108v8h62l59 -72h4l61 72h61v-8l-110 -108h-28z" />
    <glyph glyph-name="uni0312" unicode="&#x312;" 
d="M96 459h-32v9l51 103h59v-14z" />
    <glyph glyph-name="uni031B" unicode="&#x31b;" 
d="M45 616l2 42h28q13 0 19 3t7.5 11.5t1.5 25.5h56q0 -30 -9 -48t-28.5 -26t-49.5 -8h-27z" />
    <glyph glyph-name="dotbelowcomb" unicode="&#x323;" 
d="M86 -151q-25 0 -34 12.5t-9 29.5q0 16 9 28.5t34 12.5t33 -12.5t8 -28.5q0 -17 -8 -29.5t-33 -12.5z" />
    <glyph glyph-name="uni0326" unicode="&#x326;" 
d="M50 -221v48h17q25 0 31.5 11t6.5 28q-27 -2 -39 10t-12 34q0 17 9 29.5t33 12.5q21 0 30.5 -12.5t9.5 -45.5q0 -34 -6 -60t-20.5 -40.5t-40.5 -14.5h-19z" />
    <glyph glyph-name="uni0327" unicode="&#x327;" 
d="M33 -117l23 33q13 -13 36 -22t45 -9t36.5 9t14.5 28q0 14 -11.5 20.5t-27.5 6.5q-13 0 -27.5 -4.5t-25.5 -14.5l-29 19l40 83l34 -14l-40 -62q11 11 28 17.5t35 6.5q26 0 48 -14t22 -45q0 -37 -30 -56t-71 -19q-25 0 -51.5 9.5t-48.5 27.5z" />
    <glyph glyph-name="uni0328" unicode="&#x328;" 
d="M128 -199q-24 0 -44 9.5t-32 28t-12 44.5q0 27 14 49.5t34 39.5t40.5 28t34 16.5l13.5 5.5v-29l-13 -7t-30 -20.5t-30 -32t-13 -42.5q0 -18 11 -29.5t32 -11.5q18 0 28 7.5t14 15.5l4 8l39 -31l-9.5 -12t-29.5 -24.5t-51 -12.5z" />
    <glyph glyph-name="Wgrave" unicode="&#x1e80;" horiz-adv-x="839" 
d="M378 563h69l-35 -85l-140 -478h-105l-160 563h68l145 -533zM749 563h70l-166 -563h-105l-136 478l-34 85h69l153 -533zM410 606l-78 98v14h59l51 -103v-9h-32z" />
    <glyph glyph-name="wgrave" unicode="&#x1e81;" horiz-adv-x="604" 
d="M112 0l-109 393v15h62l92 -353h2l105 353h57l108 -353h2l90 353h62v-15l-108 -393h-92l-89 296h-2l-88 -296h-92zM293 450l-78 98v14h59l51 -103v-9h-32z" />
    <glyph glyph-name="Wacute" unicode="&#x1e82;" horiz-adv-x="839" 
d="M378 563h69l-35 -85l-140 -478h-105l-160 563h68l145 -533zM749 563h70l-166 -563h-105l-136 478l-34 85h69l153 -533zM435 606h-32v9l51 103h59v-14z" />
    <glyph glyph-name="wacute" unicode="&#x1e83;" horiz-adv-x="604" 
d="M112 0l-109 393v15h62l92 -353h2l105 353h57l108 -353h2l90 353h62v-15l-108 -393h-92l-89 296h-2l-88 -296h-92zM318 450h-32v9l51 103h59v-14z" />
    <glyph glyph-name="Wdieresis" unicode="&#x1e84;" horiz-adv-x="839" 
d="M378 563h69l-35 -85l-140 -478h-105l-160 563h68l145 -533zM749 563h70l-166 -563h-105l-136 478l-34 85h69l153 -533zM342 618q-28 0 -38 14.5t-10 33.5q0 18 10 32t38 14t37.5 -14t9.5 -32q0 -19 -9.5 -33.5t-37.5 -14.5zM499 618q-29 0 -38.5 14.5t-9.5 33.5
q0 18 9.5 32t38.5 14q28 0 37 -14t9 -32q0 -19 -9 -33.5t-37 -14.5z" />
    <glyph glyph-name="wdieresis" unicode="&#x1e85;" horiz-adv-x="604" 
d="M112 0l-109 393v15h62l92 -353h2l105 353h57l108 -353h2l90 353h62v-15l-108 -393h-92l-89 296h-2l-88 -296h-92zM224 462q-28 0 -38 14.5t-10 33.5q0 18 10 32t38 14t37.5 -14t9.5 -32q0 -19 -9.5 -33.5t-37.5 -14.5zM381 462q-29 0 -38.5 14.5t-9.5 33.5q0 18 9.5 32
t38.5 14q28 0 37 -14t9 -32q0 -19 -9 -33.5t-37 -14.5z" />
    <glyph glyph-name="uni1E9E" unicode="&#x1e9e;" horiz-adv-x="552" 
d="M67 -123v733h418v-733h-418zM131 -68h290v622h-290v-622z" />
    <glyph glyph-name="uni1EA0" unicode="&#x1ea0;" horiz-adv-x="541" 
d="M19 0l198 563h106l201 -563h-68l-184 535l-185 -535h-68zM128 176l5 54h275l6 -54h-286zM271 -151q-25 0 -34 12.5t-9 29.5q0 16 9 28.5t34 12.5t33 -12.5t8 -28.5q0 -17 -8 -29.5t-33 -12.5z" />
    <glyph glyph-name="uni1EA1" unicode="&#x1ea1;" horiz-adv-x="427" 
d="M181 -9q-56 0 -92 27.5t-53.5 74.5t-17.5 107q0 62 18 109t54.5 74.5t90.5 27.5q32 0 55.5 -8.5t40.5 -22.5t28.5 -29.5t17.5 -29.5h1v86h66v-407h-55l-10 79h-2q-7 -15 -18 -30.5t-28.5 -28.5t-41 -21t-54.5 -8zM206 48q42 0 67.5 18.5t37.5 52.5t12 80q0 49 -12.5 83
t-38.5 51.5t-66 17.5q-44 0 -71.5 -20t-39.5 -54t-12 -77q0 -44 12.5 -78.5t40 -54t70.5 -19.5zM214 -151q-25 0 -34 12.5t-9 29.5q0 16 9 28.5t34 12.5t33 -12.5t8 -28.5q0 -17 -8 -29.5t-33 -12.5z" />
    <glyph glyph-name="uni1EA2" unicode="&#x1ea2;" horiz-adv-x="541" 
d="M19 0l198 563h106l201 -563h-68l-184 535l-185 -535h-68zM128 176l5 54h275l6 -54h-286zM245 617v11q4 14 18.5 23t27.5 20t13 27q0 14 -9.5 20.5t-21.5 6.5t-24 -7t-17 -22l-32 16q8 27 30.5 41t46.5 14q27 0 48.5 -15t21.5 -47q0 -26 -13 -40t-26.5 -23.5t-16.5 -24.5
h-46z" />
    <glyph glyph-name="uni1EA3" unicode="&#x1ea3;" horiz-adv-x="427" 
d="M181 -9q-56 0 -92 27.5t-53.5 74.5t-17.5 107q0 62 18 109t54.5 74.5t90.5 27.5q32 0 55.5 -8.5t40.5 -22.5t28.5 -29.5t17.5 -29.5h1v86h66v-407h-55l-10 79h-2q-7 -15 -18 -30.5t-28.5 -28.5t-41 -21t-54.5 -8zM206 48q42 0 67.5 18.5t37.5 52.5t12 80q0 49 -12.5 83
t-38.5 51.5t-66 17.5q-44 0 -71.5 -20t-39.5 -54t-12 -77q0 -44 12.5 -78.5t40 -54t70.5 -19.5zM188 461v11q4 14 18.5 23t27.5 20t13 27q0 14 -9.5 20.5t-21.5 6.5t-24 -7t-17 -22l-32 16q8 27 30.5 41t46.5 14q27 0 48.5 -15t21.5 -47q0 -26 -13 -40t-26.5 -23.5
t-16.5 -24.5h-46z" />
    <glyph glyph-name="uni1EA4" unicode="&#x1ea4;" horiz-adv-x="541" 
d="M19 0l198 563h106l201 -563h-68l-184 535l-185 -535h-68zM128 176l5 54h275l6 -54h-286zM148 619v8l109 103h29l109 -103v-8h-60l-62 67h-3l-60 -67h-62zM398 706h-32v9l51 103h59v-14z" />
    <glyph glyph-name="uni1EA5" unicode="&#x1ea5;" horiz-adv-x="427" 
d="M181 -9q-56 0 -92 27.5t-53.5 74.5t-17.5 107q0 62 18 109t54.5 74.5t90.5 27.5q32 0 55.5 -8.5t40.5 -22.5t28.5 -29.5t17.5 -29.5h1v86h66v-407h-55l-10 79h-2q-7 -15 -18 -30.5t-28.5 -28.5t-41 -21t-54.5 -8zM206 48q42 0 67.5 18.5t37.5 52.5t12 80q0 49 -12.5 83
t-38.5 51.5t-66 17.5q-44 0 -71.5 -20t-39.5 -54t-12 -77q0 -44 12.5 -78.5t40 -54t70.5 -19.5zM91 463v8l109 103h29l109 -103v-8h-60l-62 67h-3l-60 -67h-62zM341 550h-32v9l51 103h59v-14z" />
    <glyph glyph-name="uni1EA6" unicode="&#x1ea6;" horiz-adv-x="541" 
d="M19 0l198 563h106l201 -563h-68l-184 535l-185 -535h-68zM128 176l5 54h275l6 -54h-286zM388 706l-78 98v14h59l51 -103v-9h-32zM142 617v8l109 103h29l109 -103v-8h-60l-62 67h-3l-60 -67h-62z" />
    <glyph glyph-name="uni1EA7" unicode="&#x1ea7;" horiz-adv-x="427" 
d="M181 -9q-56 0 -92 27.5t-53.5 74.5t-17.5 107q0 62 18 109t54.5 74.5t90.5 27.5q32 0 55.5 -8.5t40.5 -22.5t28.5 -29.5t17.5 -29.5h1v86h66v-407h-55l-10 79h-2q-7 -15 -18 -30.5t-28.5 -28.5t-41 -21t-54.5 -8zM206 48q42 0 67.5 18.5t37.5 52.5t12 80q0 49 -12.5 83
t-38.5 51.5t-66 17.5q-44 0 -71.5 -20t-39.5 -54t-12 -77q0 -44 12.5 -78.5t40 -54t70.5 -19.5zM331 550l-78 98v14h59l51 -103v-9h-32zM84 462v8l109 103h29l109 -103v-8h-60l-62 67h-3l-60 -67h-62z" />
    <glyph glyph-name="uni1EA8" unicode="&#x1ea8;" horiz-adv-x="541" 
d="M19 0l198 563h106l201 -563h-68l-184 535l-185 -535h-68zM128 176l5 54h275l6 -54h-286zM142 617v8l109 103h29l109 -103v-8h-60l-62 67h-3l-60 -67h-62zM357 707v11q4 14 18.5 23t27.5 20t13 27q0 14 -9.5 20.5t-21.5 6.5t-24 -7t-17 -22l-32 16q8 27 30.5 41t46.5 14
q27 0 48.5 -15t21.5 -47q0 -26 -13 -40t-26.5 -23.5t-16.5 -24.5h-46z" />
    <glyph glyph-name="uni1EA9" unicode="&#x1ea9;" horiz-adv-x="427" 
d="M181 -9q-56 0 -92 27.5t-53.5 74.5t-17.5 107q0 62 18 109t54.5 74.5t90.5 27.5q32 0 55.5 -8.5t40.5 -22.5t28.5 -29.5t17.5 -29.5h1v86h66v-407h-55l-10 79h-2q-7 -15 -18 -30.5t-28.5 -28.5t-41 -21t-54.5 -8zM206 48q42 0 67.5 18.5t37.5 52.5t12 80q0 49 -12.5 83
t-38.5 51.5t-66 17.5q-44 0 -71.5 -20t-39.5 -54t-12 -77q0 -44 12.5 -78.5t40 -54t70.5 -19.5zM84 462v8l109 103h29l109 -103v-8h-60l-62 67h-3l-60 -67h-62zM300 551v11q4 14 18.5 23t27.5 20t13 27q0 14 -9.5 20.5t-21.5 6.5t-24 -7t-17 -22l-32 16q8 27 30.5 41
t46.5 14q27 0 48.5 -15t21.5 -47q0 -26 -13 -40t-26.5 -23.5t-16.5 -24.5h-46z" />
    <glyph glyph-name="uni1EAA" unicode="&#x1eaa;" horiz-adv-x="541" 
d="M19 0l198 563h106l201 -563h-68l-184 535l-185 -535h-68zM128 176l5 54h275l6 -54h-286zM147 617v8l109 103h29l109 -103v-8h-60l-62 67h-3l-60 -67h-62zM153 771q-1 15 0.5 31t8 30t19.5 23t35 9q23 0 37 -8.5t23 -19t18.5 -19t23.5 -8.5q17 0 20 14t3 40h43
q0 -17 -1.5 -34t-8.5 -30t-19.5 -21.5t-34.5 -8.5t-36 8.5t-23.5 19t-18.5 19t-23 8.5q-17 0 -20.5 -14t-3.5 -39h-42z" />
    <glyph glyph-name="uni1EAB" unicode="&#x1eab;" horiz-adv-x="427" 
d="M181 -9q-56 0 -92 27.5t-53.5 74.5t-17.5 107q0 62 18 109t54.5 74.5t90.5 27.5q32 0 55.5 -8.5t40.5 -22.5t28.5 -29.5t17.5 -29.5h1v86h66v-407h-55l-10 79h-2q-7 -15 -18 -30.5t-28.5 -28.5t-41 -21t-54.5 -8zM206 48q42 0 67.5 18.5t37.5 52.5t12 80q0 49 -12.5 83
t-38.5 51.5t-66 17.5q-44 0 -71.5 -20t-39.5 -54t-12 -77q0 -44 12.5 -78.5t40 -54t70.5 -19.5zM90 462v8l109 103h29l109 -103v-8h-60l-62 67h-3l-60 -67h-62zM96 616q-1 15 0.5 31t8 30t19.5 23t35 9q23 0 37 -8.5t23 -19t18.5 -19t23.5 -8.5q17 0 20 14t3 40h43
q0 -17 -1.5 -34t-8.5 -30t-19.5 -21.5t-34.5 -8.5t-36 8.5t-23.5 19t-18.5 19t-23 8.5q-17 0 -20.5 -14t-3.5 -39h-42z" />
    <glyph glyph-name="uni1EAC" unicode="&#x1eac;" horiz-adv-x="541" 
d="M19 0l198 563h106l201 -563h-68l-184 535l-185 -535h-68zM128 176l5 54h275l6 -54h-286zM271 -151q-25 0 -34 12.5t-9 29.5q0 16 9 28.5t34 12.5t33 -12.5t8 -28.5q0 -17 -8 -29.5t-33 -12.5zM146 619v8l109 103h29l109 -103v-8h-60l-62 67h-3l-60 -67h-62z" />
    <glyph glyph-name="uni1EAD" unicode="&#x1ead;" horiz-adv-x="427" 
d="M181 -9q-56 0 -92 27.5t-53.5 74.5t-17.5 107q0 62 18 109t54.5 74.5t90.5 27.5q32 0 55.5 -8.5t40.5 -22.5t28.5 -29.5t17.5 -29.5h1v86h66v-407h-55l-10 79h-2q-7 -15 -18 -30.5t-28.5 -28.5t-41 -21t-54.5 -8zM206 48q42 0 67.5 18.5t37.5 52.5t12 80q0 49 -12.5 83
t-38.5 51.5t-66 17.5q-44 0 -71.5 -20t-39.5 -54t-12 -77q0 -44 12.5 -78.5t40 -54t70.5 -19.5zM214 -151q-25 0 -34 12.5t-9 29.5q0 16 9 28.5t34 12.5t33 -12.5t8 -28.5q0 -17 -8 -29.5t-33 -12.5zM89 463v8l109 103h29l109 -103v-8h-60l-62 67h-3l-60 -67h-62z" />
    <glyph glyph-name="uni1EAE" unicode="&#x1eae;" horiz-adv-x="541" 
d="M19 0l198 563h106l201 -563h-68l-184 535l-185 -535h-68zM128 176l5 54h275l6 -54h-286zM271 617q-55 0 -86.5 24.5t-31.5 65.5h47q0 -31 21 -40t49 -9q29 0 49 9t20 40h48q0 -41 -30.5 -65.5t-85.5 -24.5zM286 730h-32v9l51 103h59v-14z" />
    <glyph glyph-name="uni1EAF" unicode="&#x1eaf;" horiz-adv-x="427" 
d="M181 -9q-56 0 -92 27.5t-53.5 74.5t-17.5 107q0 62 18 109t54.5 74.5t90.5 27.5q32 0 55.5 -8.5t40.5 -22.5t28.5 -29.5t17.5 -29.5h1v86h66v-407h-55l-10 79h-2q-7 -15 -18 -30.5t-28.5 -28.5t-41 -21t-54.5 -8zM206 48q42 0 67.5 18.5t37.5 52.5t12 80q0 49 -12.5 83
t-38.5 51.5t-66 17.5q-44 0 -71.5 -20t-39.5 -54t-12 -77q0 -44 12.5 -78.5t40 -54t70.5 -19.5zM214 461q-55 0 -86.5 24.5t-31.5 65.5h47q0 -31 21 -40t49 -9q29 0 49 9t20 40h48q0 -41 -30.5 -65.5t-85.5 -24.5zM229 574h-32v9l51 103h59v-14z" />
    <glyph glyph-name="uni1EB0" unicode="&#x1eb0;" horiz-adv-x="541" 
d="M19 0l198 563h106l201 -563h-68l-184 535l-185 -535h-68zM128 176l5 54h275l6 -54h-286zM271 617q-55 0 -86.5 24.5t-31.5 65.5h47q0 -31 21 -40t49 -9q29 0 49 9t20 40h48q0 -41 -30.5 -65.5t-85.5 -24.5zM261 730l-78 98v14h59l51 -103v-9h-32z" />
    <glyph glyph-name="uni1EB1" unicode="&#x1eb1;" horiz-adv-x="427" 
d="M181 -9q-56 0 -92 27.5t-53.5 74.5t-17.5 107q0 62 18 109t54.5 74.5t90.5 27.5q32 0 55.5 -8.5t40.5 -22.5t28.5 -29.5t17.5 -29.5h1v86h66v-407h-55l-10 79h-2q-7 -15 -18 -30.5t-28.5 -28.5t-41 -21t-54.5 -8zM206 48q42 0 67.5 18.5t37.5 52.5t12 80q0 49 -12.5 83
t-38.5 51.5t-66 17.5q-44 0 -71.5 -20t-39.5 -54t-12 -77q0 -44 12.5 -78.5t40 -54t70.5 -19.5zM214 461q-55 0 -86.5 24.5t-31.5 65.5h47q0 -31 21 -40t49 -9q29 0 49 9t20 40h48q0 -41 -30.5 -65.5t-85.5 -24.5zM204 574l-78 98v14h59l51 -103v-9h-32z" />
    <glyph glyph-name="uni1EB2" unicode="&#x1eb2;" horiz-adv-x="541" 
d="M19 0l198 563h106l201 -563h-68l-184 535l-185 -535h-68zM128 176l5 54h275l6 -54h-286zM271 617q-55 0 -86.5 24.5t-31.5 65.5h47q0 -31 21 -40t49 -9q29 0 49 9t20 40h48q0 -41 -30.5 -65.5t-85.5 -24.5zM245 741v11q4 14 18.5 23t27.5 20t13 27q0 14 -9.5 20.5
t-21.5 6.5t-24 -7t-17 -22l-32 16q8 27 30.5 41t46.5 14q27 0 48.5 -15t21.5 -47q0 -26 -13 -40t-26.5 -23.5t-16.5 -24.5h-46z" />
    <glyph glyph-name="uni1EB3" unicode="&#x1eb3;" horiz-adv-x="427" 
d="M181 -9q-56 0 -92 27.5t-53.5 74.5t-17.5 107q0 62 18 109t54.5 74.5t90.5 27.5q32 0 55.5 -8.5t40.5 -22.5t28.5 -29.5t17.5 -29.5h1v86h66v-407h-55l-10 79h-2q-7 -15 -18 -30.5t-28.5 -28.5t-41 -21t-54.5 -8zM206 48q42 0 67.5 18.5t37.5 52.5t12 80q0 49 -12.5 83
t-38.5 51.5t-66 17.5q-44 0 -71.5 -20t-39.5 -54t-12 -77q0 -44 12.5 -78.5t40 -54t70.5 -19.5zM214 461q-55 0 -86.5 24.5t-31.5 65.5h47q0 -31 21 -40t49 -9q29 0 49 9t20 40h48q0 -41 -30.5 -65.5t-85.5 -24.5zM188 585v11q4 14 18.5 23t27.5 20t13 27q0 14 -9.5 20.5
t-21.5 6.5t-24 -7t-17 -22l-32 16q8 27 30.5 41t46.5 14q27 0 48.5 -15t21.5 -47q0 -26 -13 -40t-26.5 -23.5t-16.5 -24.5h-46z" />
    <glyph glyph-name="uni1EB4" unicode="&#x1eb4;" horiz-adv-x="541" 
d="M19 0l198 563h106l201 -563h-68l-184 535l-185 -535h-68zM128 176l5 54h275l6 -54h-286zM273 617q-55 0 -86.5 24.5t-31.5 65.5h47q0 -31 21 -40t49 -9q29 0 49 9t20 40h48q0 -41 -30.5 -65.5t-85.5 -24.5zM157 752q-1 15 0.5 31t8 30t19.5 23t35 9q23 0 37 -8.5t23 -19
t18.5 -19t23.5 -8.5q17 0 20 14t3 40h43q0 -17 -1.5 -34t-8.5 -30t-19.5 -21.5t-34.5 -8.5t-36 8.5t-23.5 19t-18.5 19t-23 8.5q-17 0 -20.5 -14t-3.5 -39h-42z" />
    <glyph glyph-name="uni1EB5" unicode="&#x1eb5;" horiz-adv-x="427" 
d="M181 -9q-56 0 -92 27.5t-53.5 74.5t-17.5 107q0 62 18 109t54.5 74.5t90.5 27.5q32 0 55.5 -8.5t40.5 -22.5t28.5 -29.5t17.5 -29.5h1v86h66v-407h-55l-10 79h-2q-7 -15 -18 -30.5t-28.5 -28.5t-41 -21t-54.5 -8zM206 48q42 0 67.5 18.5t37.5 52.5t12 80q0 49 -12.5 83
t-38.5 51.5t-66 17.5q-44 0 -71.5 -20t-39.5 -54t-12 -77q0 -44 12.5 -78.5t40 -54t70.5 -19.5zM215 461q-55 0 -86.5 24.5t-31.5 65.5h47q0 -31 21 -40t49 -9q29 0 49 9t20 40h48q0 -41 -30.5 -65.5t-85.5 -24.5zM99 596q-1 15 0.5 31t8 30t19.5 23t35 9q23 0 37 -8.5
t23 -19t18.5 -19t23.5 -8.5q17 0 20 14t3 40h43q0 -17 -1.5 -34t-8.5 -30t-19.5 -21.5t-34.5 -8.5t-36 8.5t-23.5 19t-18.5 19t-23 8.5q-17 0 -20.5 -14t-3.5 -39h-42z" />
    <glyph glyph-name="uni1EB6" unicode="&#x1eb6;" horiz-adv-x="541" 
d="M19 0l198 563h106l201 -563h-68l-184 535l-185 -535h-68zM128 176l5 54h275l6 -54h-286zM271 -151q-25 0 -34 12.5t-9 29.5q0 16 9 28.5t34 12.5t33 -12.5t8 -28.5q0 -17 -8 -29.5t-33 -12.5zM271 617q-55 0 -86.5 24.5t-31.5 65.5h47q0 -31 21 -40t49 -9q29 0 49 9
t20 40h48q0 -41 -30.5 -65.5t-85.5 -24.5z" />
    <glyph glyph-name="uni1EB7" unicode="&#x1eb7;" horiz-adv-x="427" 
d="M181 -9q-56 0 -92 27.5t-53.5 74.5t-17.5 107q0 62 18 109t54.5 74.5t90.5 27.5q32 0 55.5 -8.5t40.5 -22.5t28.5 -29.5t17.5 -29.5h1v86h66v-407h-55l-10 79h-2q-7 -15 -18 -30.5t-28.5 -28.5t-41 -21t-54.5 -8zM206 48q42 0 67.5 18.5t37.5 52.5t12 80q0 49 -12.5 83
t-38.5 51.5t-66 17.5q-44 0 -71.5 -20t-39.5 -54t-12 -77q0 -44 12.5 -78.5t40 -54t70.5 -19.5zM214 -151q-25 0 -34 12.5t-9 29.5q0 16 9 28.5t34 12.5t33 -12.5t8 -28.5q0 -17 -8 -29.5t-33 -12.5zM214 461q-55 0 -86.5 24.5t-31.5 65.5h47q0 -31 21 -40t49 -9q29 0 49 9
t20 40h48q0 -41 -30.5 -65.5t-85.5 -24.5z" />
    <glyph glyph-name="uni1EB8" unicode="&#x1eb8;" horiz-adv-x="479" 
d="M57 0v563h377v-57h-314v-194h249v-54h-249v-204h324v-54h-387zM241 -151q-25 0 -34 12.5t-9 29.5q0 16 9 28.5t34 12.5t33 -12.5t8 -28.5q0 -17 -8 -29.5t-33 -12.5z" />
    <glyph glyph-name="uni1EB9" unicode="&#x1eb9;" horiz-adv-x="451" 
d="M223 -10q-67 0 -110.5 30.5t-64 79t-20.5 100.5q0 57 22.5 104.5t66 75.5t104.5 28q53 0 93.5 -22.5t65 -64.5t27.5 -99q1 -4 1 -11.5v-13.5h-318q0 -71 34.5 -111.5t97.5 -40.5q47 0 80.5 24t41.5 65h63q-7 -41 -31 -74t-63 -51.5t-90 -18.5zM92 232h250q0 16 -6.5 36.5
t-20.5 40t-37 32.5t-58 13q-31 0 -54 -10.5t-38.5 -28t-24 -39.5t-11.5 -44zM226 -151q-25 0 -34 12.5t-9 29.5q0 16 9 28.5t34 12.5t33 -12.5t8 -28.5q0 -17 -8 -29.5t-33 -12.5z" />
    <glyph glyph-name="uni1EBA" unicode="&#x1eba;" horiz-adv-x="479" 
d="M57 0v563h377v-57h-314v-194h249v-54h-249v-204h324v-54h-387zM215 617v11q4 14 18.5 23t27.5 20t13 27q0 14 -9.5 20.5t-21.5 6.5t-24 -7t-17 -22l-32 16q8 27 30.5 41t46.5 14q27 0 48.5 -15t21.5 -47q0 -26 -13 -40t-26.5 -23.5t-16.5 -24.5h-46z" />
    <glyph glyph-name="uni1EBB" unicode="&#x1ebb;" horiz-adv-x="451" 
d="M223 -10q-67 0 -110.5 30.5t-64 79t-20.5 100.5q0 57 22.5 104.5t66 75.5t104.5 28q53 0 93.5 -22.5t65 -64.5t27.5 -99q1 -4 1 -11.5v-13.5h-318q0 -71 34.5 -111.5t97.5 -40.5q47 0 80.5 24t41.5 65h63q-7 -41 -31 -74t-63 -51.5t-90 -18.5zM92 232h250q0 16 -6.5 36.5
t-20.5 40t-37 32.5t-58 13q-31 0 -54 -10.5t-38.5 -28t-24 -39.5t-11.5 -44zM200 461v11q4 14 18.5 23t27.5 20t13 27q0 14 -9.5 20.5t-21.5 6.5t-24 -7t-17 -22l-32 16q8 27 30.5 41t46.5 14q27 0 48.5 -15t21.5 -47q0 -26 -13 -40t-26.5 -23.5t-16.5 -24.5h-46z" />
    <glyph glyph-name="uni1EBC" unicode="&#x1ebc;" horiz-adv-x="479" 
d="M57 0v563h377v-57h-314v-194h249v-54h-249v-204h324v-54h-387zM125 628q-1 15 0.5 31t8 30t19.5 23t35 9q23 0 37 -8.5t23 -19t18.5 -19t23.5 -8.5q17 0 20 14t3 40h43q0 -17 -1.5 -34t-8.5 -30t-19.5 -21.5t-34.5 -8.5t-36 8.5t-23.5 19t-18.5 19t-23 8.5
q-17 0 -20.5 -14t-3.5 -39h-42z" />
    <glyph glyph-name="uni1EBD" unicode="&#x1ebd;" horiz-adv-x="451" 
d="M223 -10q-67 0 -110.5 30.5t-64 79t-20.5 100.5q0 57 22.5 104.5t66 75.5t104.5 28q53 0 93.5 -22.5t65 -64.5t27.5 -99q1 -4 1 -11.5v-13.5h-318q0 -71 34.5 -111.5t97.5 -40.5q47 0 80.5 24t41.5 65h63q-7 -41 -31 -74t-63 -51.5t-90 -18.5zM92 232h250q0 16 -6.5 36.5
t-20.5 40t-37 32.5t-58 13q-31 0 -54 -10.5t-38.5 -28t-24 -39.5t-11.5 -44zM110 472q-1 15 0.5 31t8 30t19.5 23t35 9q23 0 37 -8.5t23 -19t18.5 -19t23.5 -8.5q17 0 20 14t3 40h43q0 -17 -1.5 -34t-8.5 -30t-19.5 -21.5t-34.5 -8.5t-36 8.5t-23.5 19t-18.5 19t-23 8.5
q-17 0 -20.5 -14t-3.5 -39h-42z" />
    <glyph glyph-name="uni1EBE" unicode="&#x1ebe;" horiz-adv-x="479" 
d="M57 0v563h377v-57h-314v-194h249v-54h-249v-204h324v-54h-387zM117 619v8l109 103h29l109 -103v-8h-60l-62 67h-3l-60 -67h-62zM367 706h-32v9l51 103h59v-14z" />
    <glyph glyph-name="uni1EBF" unicode="&#x1ebf;" horiz-adv-x="451" 
d="M223 -10q-67 0 -110.5 30.5t-64 79t-20.5 100.5q0 57 22.5 104.5t66 75.5t104.5 28q53 0 93.5 -22.5t65 -64.5t27.5 -99q1 -4 1 -11.5v-13.5h-318q0 -71 34.5 -111.5t97.5 -40.5q47 0 80.5 24t41.5 65h63q-7 -41 -31 -74t-63 -51.5t-90 -18.5zM92 232h250q0 16 -6.5 36.5
t-20.5 40t-37 32.5t-58 13q-31 0 -54 -10.5t-38.5 -28t-24 -39.5t-11.5 -44zM103 463v8l109 103h29l109 -103v-8h-60l-62 67h-3l-60 -67h-62zM353 550h-32v9l51 103h59v-14z" />
    <glyph glyph-name="uni1EC0" unicode="&#x1ec0;" horiz-adv-x="479" 
d="M57 0v563h377v-57h-314v-194h249v-54h-249v-204h324v-54h-387zM358 706l-78 98v14h59l51 -103v-9h-32zM111 617v8l109 103h29l109 -103v-8h-60l-62 67h-3l-60 -67h-62z" />
    <glyph glyph-name="uni1EC1" unicode="&#x1ec1;" horiz-adv-x="451" 
d="M223 -10q-67 0 -110.5 30.5t-64 79t-20.5 100.5q0 57 22.5 104.5t66 75.5t104.5 28q53 0 93.5 -22.5t65 -64.5t27.5 -99q1 -4 1 -11.5v-13.5h-318q0 -71 34.5 -111.5t97.5 -40.5q47 0 80.5 24t41.5 65h63q-7 -41 -31 -74t-63 -51.5t-90 -18.5zM92 232h250q0 16 -6.5 36.5
t-20.5 40t-37 32.5t-58 13q-31 0 -54 -10.5t-38.5 -28t-24 -39.5t-11.5 -44zM343 550l-78 98v14h59l51 -103v-9h-32zM97 462v8l109 103h29l109 -103v-8h-60l-62 67h-3l-60 -67h-62z" />
    <glyph glyph-name="uni1EC2" unicode="&#x1ec2;" horiz-adv-x="479" 
d="M57 0v563h377v-57h-314v-194h249v-54h-249v-204h324v-54h-387zM111 617v8l109 103h29l109 -103v-8h-60l-62 67h-3l-60 -67h-62zM326 707v11q4 14 18.5 23t27.5 20t13 27q0 14 -9.5 20.5t-21.5 6.5t-24 -7t-17 -22l-32 16q8 27 30.5 41t46.5 14q27 0 48.5 -15t21.5 -47
q0 -26 -13 -40t-26.5 -23.5t-16.5 -24.5h-46z" />
    <glyph glyph-name="uni1EC3" unicode="&#x1ec3;" horiz-adv-x="451" 
d="M223 -10q-67 0 -110.5 30.5t-64 79t-20.5 100.5q0 57 22.5 104.5t66 75.5t104.5 28q53 0 93.5 -22.5t65 -64.5t27.5 -99q1 -4 1 -11.5v-13.5h-318q0 -71 34.5 -111.5t97.5 -40.5q47 0 80.5 24t41.5 65h63q-7 -41 -31 -74t-63 -51.5t-90 -18.5zM92 232h250q0 16 -6.5 36.5
t-20.5 40t-37 32.5t-58 13q-31 0 -54 -10.5t-38.5 -28t-24 -39.5t-11.5 -44zM97 462v8l109 103h29l109 -103v-8h-60l-62 67h-3l-60 -67h-62zM312 551v11q4 14 18.5 23t27.5 20t13 27q0 14 -9.5 20.5t-21.5 6.5t-24 -7t-17 -22l-32 16q8 27 30.5 41t46.5 14q27 0 48.5 -15
t21.5 -47q0 -26 -13 -40t-26.5 -23.5t-16.5 -24.5h-46z" />
    <glyph glyph-name="uni1EC4" unicode="&#x1ec4;" horiz-adv-x="479" 
d="M57 0v563h377v-57h-314v-194h249v-54h-249v-204h324v-54h-387zM117 617v8l109 103h29l109 -103v-8h-60l-62 67h-3l-60 -67h-62zM123 771q-1 15 0.5 31t8 30t19.5 23t35 9q23 0 37 -8.5t23 -19t18.5 -19t23.5 -8.5q17 0 20 14t3 40h43q0 -17 -1.5 -34t-8.5 -30
t-19.5 -21.5t-34.5 -8.5t-36 8.5t-23.5 19t-18.5 19t-23 8.5q-17 0 -20.5 -14t-3.5 -39h-42z" />
    <glyph glyph-name="uni1EC5" unicode="&#x1ec5;" horiz-adv-x="451" 
d="M223 -10q-67 0 -110.5 30.5t-64 79t-20.5 100.5q0 57 22.5 104.5t66 75.5t104.5 28q53 0 93.5 -22.5t65 -64.5t27.5 -99q1 -4 1 -11.5v-13.5h-318q0 -71 34.5 -111.5t97.5 -40.5q47 0 80.5 24t41.5 65h63q-7 -41 -31 -74t-63 -51.5t-90 -18.5zM92 232h250q0 16 -6.5 36.5
t-20.5 40t-37 32.5t-58 13q-31 0 -54 -10.5t-38.5 -28t-24 -39.5t-11.5 -44zM102 462v8l109 103h29l109 -103v-8h-60l-62 67h-3l-60 -67h-62zM108 616q-1 15 0.5 31t8 30t19.5 23t35 9q23 0 37 -8.5t23 -19t18.5 -19t23.5 -8.5q17 0 20 14t3 40h43q0 -17 -1.5 -34t-8.5 -30
t-19.5 -21.5t-34.5 -8.5t-36 8.5t-23.5 19t-18.5 19t-23 8.5q-17 0 -20.5 -14t-3.5 -39h-42z" />
    <glyph glyph-name="uni1EC6" unicode="&#x1ec6;" horiz-adv-x="479" 
d="M57 0v563h377v-57h-314v-194h249v-54h-249v-204h324v-54h-387zM241 -151q-25 0 -34 12.5t-9 29.5q0 16 9 28.5t34 12.5t33 -12.5t8 -28.5q0 -17 -8 -29.5t-33 -12.5zM116 619v8l109 103h29l109 -103v-8h-60l-62 67h-3l-60 -67h-62z" />
    <glyph glyph-name="uni1EC7" unicode="&#x1ec7;" horiz-adv-x="451" 
d="M223 -10q-67 0 -110.5 30.5t-64 79t-20.5 100.5q0 57 22.5 104.5t66 75.5t104.5 28q53 0 93.5 -22.5t65 -64.5t27.5 -99q1 -4 1 -11.5v-13.5h-318q0 -71 34.5 -111.5t97.5 -40.5q47 0 80.5 24t41.5 65h63q-7 -41 -31 -74t-63 -51.5t-90 -18.5zM92 232h250q0 16 -6.5 36.5
t-20.5 40t-37 32.5t-58 13q-31 0 -54 -10.5t-38.5 -28t-24 -39.5t-11.5 -44zM226 -151q-25 0 -34 12.5t-9 29.5q0 16 9 28.5t34 12.5t33 -12.5t8 -28.5q0 -17 -8 -29.5t-33 -12.5zM101 463v8l109 103h29l109 -103v-8h-60l-62 67h-3l-60 -67h-62z" />
    <glyph glyph-name="uni1EC8" unicode="&#x1ec8;" horiz-adv-x="342" 
d="M135 18v527h64v-527h-64zM58 0v56h218v-56h-218zM58 507v56h218v-56h-218zM142 617v11q4 14 18.5 23t27.5 20t13 27q0 14 -9.5 20.5t-21.5 6.5t-24 -7t-17 -22l-32 16q8 27 30.5 41t46.5 14q27 0 48.5 -15t21.5 -47q0 -26 -13 -40t-26.5 -23.5t-16.5 -24.5h-46z" />
    <glyph glyph-name="uni1EC9" unicode="&#x1ec9;" horiz-adv-x="169" 
d="M52 0v407h64v-407h-64zM58 461v11q4 14 18.5 23t27.5 20t13 27q0 14 -9.5 20.5t-21.5 6.5t-24 -7t-17 -22l-32 16q8 27 30.5 41t46.5 14q27 0 48.5 -15t21.5 -47q0 -26 -13 -40t-26.5 -23.5t-16.5 -24.5h-46z" />
    <glyph glyph-name="uni1ECA" unicode="&#x1eca;" horiz-adv-x="342" 
d="M135 18v527h64v-527h-64zM58 0v56h218v-56h-218zM58 507v56h218v-56h-218zM172 -151q-25 0 -34 12.5t-9 29.5q0 16 9 28.5t34 12.5t33 -12.5t8 -28.5q0 -17 -8 -29.5t-33 -12.5z" />
    <glyph glyph-name="uni1ECB" unicode="&#x1ecb;" horiz-adv-x="169" 
d="M52 0v407h65v-407h-65zM85 468q-25 0 -34 13t-9 30q0 16 9 28.5t34 12.5t33 -12.5t8 -28.5q0 -17 -8 -30t-33 -13zM86 -151q-25 0 -34 12.5t-9 29.5q0 16 9 28.5t34 12.5t33 -12.5t8 -28.5q0 -17 -8 -29.5t-33 -12.5z" />
    <glyph glyph-name="uni1ECC" unicode="&#x1ecc;" horiz-adv-x="604" 
d="M295 -14q-134 0 -204 79.5t-70 214.5q0 89 30.5 154.5t91 102t152.5 36.5q134 0 203 -79.5t69 -213.5q0 -87 -30.5 -153.5t-91 -103.5t-150.5 -37zM294 48q70 0 116.5 29t70 81.5t23.5 121.5t-22.5 121.5t-69.5 82t-118 29.5q-103 0 -156.5 -62t-53.5 -171
q0 -68 23 -120.5t69.5 -82t117.5 -29.5zM303 -151q-25 0 -34 12.5t-9 29.5q0 16 9 28.5t34 12.5t33 -12.5t8 -28.5q0 -17 -8 -29.5t-33 -12.5z" />
    <glyph glyph-name="uni1ECD" unicode="&#x1ecd;" horiz-adv-x="457" 
d="M222 -10q-65 0 -108.5 27t-65 74t-21.5 107q0 61 21.5 108.5t65 74.5t108.5 27q95 0 145 -57.5t50 -152.5q0 -59 -21 -106t-64 -74.5t-110 -27.5zM222 46q53 0 81 23t39.5 58.5t11.5 72.5t-11.5 73t-39.5 59t-81 23q-51 0 -80.5 -23t-40.5 -59t-11 -73t11 -72.5
t40.5 -58.5t80.5 -23zM229 -151q-25 0 -34 12.5t-9 29.5q0 16 9 28.5t34 12.5t33 -12.5t8 -28.5q0 -17 -8 -29.5t-33 -12.5z" />
    <glyph glyph-name="uni1ECE" unicode="&#x1ece;" horiz-adv-x="604" 
d="M295 -14q-134 0 -204 79.5t-70 214.5q0 89 30.5 154.5t91 102t152.5 36.5q134 0 203 -79.5t69 -213.5q0 -87 -30.5 -153.5t-91 -103.5t-150.5 -37zM294 48q70 0 116.5 29t70 81.5t23.5 121.5t-22.5 121.5t-69.5 82t-118 29.5q-103 0 -156.5 -62t-53.5 -171
q0 -68 23 -120.5t69.5 -82t117.5 -29.5zM277 617v11q4 14 18.5 23t27.5 20t13 27q0 14 -9.5 20.5t-21.5 6.5t-24 -7t-17 -22l-32 16q8 27 30.5 41t46.5 14q27 0 48.5 -15t21.5 -47q0 -26 -13 -40t-26.5 -23.5t-16.5 -24.5h-46z" />
    <glyph glyph-name="uni1ECF" unicode="&#x1ecf;" horiz-adv-x="457" 
d="M222 -10q-65 0 -108.5 27t-65 74t-21.5 107q0 61 21.5 108.5t65 74.5t108.5 27q95 0 145 -57.5t50 -152.5q0 -59 -21 -106t-64 -74.5t-110 -27.5zM222 46q53 0 81 23t39.5 58.5t11.5 72.5t-11.5 73t-39.5 59t-81 23q-51 0 -80.5 -23t-40.5 -59t-11 -73t11 -72.5
t40.5 -58.5t80.5 -23zM203 461v11q4 14 18.5 23t27.5 20t13 27q0 14 -9.5 20.5t-21.5 6.5t-24 -7t-17 -22l-32 16q8 27 30.5 41t46.5 14q27 0 48.5 -15t21.5 -47q0 -26 -13 -40t-26.5 -23.5t-16.5 -24.5h-46z" />
    <glyph glyph-name="uni1ED0" unicode="&#x1ed0;" horiz-adv-x="604" 
d="M295 -14q-134 0 -204 79.5t-70 214.5q0 89 30.5 154.5t91 102t152.5 36.5q134 0 203 -79.5t69 -213.5q0 -87 -30.5 -153.5t-91 -103.5t-150.5 -37zM294 48q70 0 116.5 29t70 81.5t23.5 121.5t-22.5 121.5t-69.5 82t-118 29.5q-103 0 -156.5 -62t-53.5 -171
q0 -68 23 -120.5t69.5 -82t117.5 -29.5zM180 619v8l109 103h29l109 -103v-8h-60l-62 67h-3l-60 -67h-62zM430 706h-32v9l51 103h59v-14z" />
    <glyph glyph-name="uni1ED1" unicode="&#x1ed1;" horiz-adv-x="457" 
d="M222 -10q-65 0 -108.5 27t-65 74t-21.5 107q0 61 21.5 108.5t65 74.5t108.5 27q95 0 145 -57.5t50 -152.5q0 -59 -21 -106t-64 -74.5t-110 -27.5zM222 46q53 0 81 23t39.5 58.5t11.5 72.5t-11.5 73t-39.5 59t-81 23q-51 0 -80.5 -23t-40.5 -59t-11 -73t11 -72.5
t40.5 -58.5t80.5 -23zM106 463v8l109 103h29l109 -103v-8h-60l-62 67h-3l-60 -67h-62zM356 550h-32v9l51 103h59v-14z" />
    <glyph glyph-name="uni1ED2" unicode="&#x1ed2;" horiz-adv-x="604" 
d="M295 -14q-134 0 -204 79.5t-70 214.5q0 89 30.5 154.5t91 102t152.5 36.5q134 0 203 -79.5t69 -213.5q0 -87 -30.5 -153.5t-91 -103.5t-150.5 -37zM294 48q70 0 116.5 29t70 81.5t23.5 121.5t-22.5 121.5t-69.5 82t-118 29.5q-103 0 -156.5 -62t-53.5 -171
q0 -68 23 -120.5t69.5 -82t117.5 -29.5zM420 706l-78 98v14h59l51 -103v-9h-32zM174 617v8l109 103h29l109 -103v-8h-60l-62 67h-3l-60 -67h-62z" />
    <glyph glyph-name="uni1ED3" unicode="&#x1ed3;" horiz-adv-x="457" 
d="M222 -10q-65 0 -108.5 27t-65 74t-21.5 107q0 61 21.5 108.5t65 74.5t108.5 27q95 0 145 -57.5t50 -152.5q0 -59 -21 -106t-64 -74.5t-110 -27.5zM222 46q53 0 81 23t39.5 58.5t11.5 72.5t-11.5 73t-39.5 59t-81 23q-51 0 -80.5 -23t-40.5 -59t-11 -73t11 -72.5
t40.5 -58.5t80.5 -23zM346 550l-78 98v14h59l51 -103v-9h-32zM100 462v8l109 103h29l109 -103v-8h-60l-62 67h-3l-60 -67h-62z" />
    <glyph glyph-name="uni1ED4" unicode="&#x1ed4;" horiz-adv-x="604" 
d="M295 -14q-134 0 -204 79.5t-70 214.5q0 89 30.5 154.5t91 102t152.5 36.5q134 0 203 -79.5t69 -213.5q0 -87 -30.5 -153.5t-91 -103.5t-150.5 -37zM294 48q70 0 116.5 29t70 81.5t23.5 121.5t-22.5 121.5t-69.5 82t-118 29.5q-103 0 -156.5 -62t-53.5 -171
q0 -68 23 -120.5t69.5 -82t117.5 -29.5zM174 617v8l109 103h29l109 -103v-8h-60l-62 67h-3l-60 -67h-62zM389 707v11q4 14 18.5 23t27.5 20t13 27q0 14 -9.5 20.5t-21.5 6.5t-24 -7t-17 -22l-32 16q8 27 30.5 41t46.5 14q27 0 48.5 -15t21.5 -47q0 -26 -13 -40t-26.5 -23.5
t-16.5 -24.5h-46z" />
    <glyph glyph-name="uni1ED5" unicode="&#x1ed5;" horiz-adv-x="457" 
d="M222 -10q-65 0 -108.5 27t-65 74t-21.5 107q0 61 21.5 108.5t65 74.5t108.5 27q95 0 145 -57.5t50 -152.5q0 -59 -21 -106t-64 -74.5t-110 -27.5zM222 46q53 0 81 23t39.5 58.5t11.5 72.5t-11.5 73t-39.5 59t-81 23q-51 0 -80.5 -23t-40.5 -59t-11 -73t11 -72.5
t40.5 -58.5t80.5 -23zM100 462v8l109 103h29l109 -103v-8h-60l-62 67h-3l-60 -67h-62zM315 551v11q4 14 18.5 23t27.5 20t13 27q0 14 -9.5 20.5t-21.5 6.5t-24 -7t-17 -22l-32 16q8 27 30.5 41t46.5 14q27 0 48.5 -15t21.5 -47q0 -26 -13 -40t-26.5 -23.5t-16.5 -24.5h-46z
" />
    <glyph glyph-name="uni1ED6" unicode="&#x1ed6;" horiz-adv-x="604" 
d="M295 -14q-134 0 -204 79.5t-70 214.5q0 89 30.5 154.5t91 102t152.5 36.5q134 0 203 -79.5t69 -213.5q0 -87 -30.5 -153.5t-91 -103.5t-150.5 -37zM294 48q70 0 116.5 29t70 81.5t23.5 121.5t-22.5 121.5t-69.5 82t-118 29.5q-103 0 -156.5 -62t-53.5 -171
q0 -68 23 -120.5t69.5 -82t117.5 -29.5zM179 617v8l109 103h29l109 -103v-8h-60l-62 67h-3l-60 -67h-62zM185 771q-1 15 0.5 31t8 30t19.5 23t35 9q23 0 37 -8.5t23 -19t18.5 -19t23.5 -8.5q17 0 20 14t3 40h43q0 -17 -1.5 -34t-8.5 -30t-19.5 -21.5t-34.5 -8.5t-36 8.5
t-23.5 19t-18.5 19t-23 8.5q-17 0 -20.5 -14t-3.5 -39h-42z" />
    <glyph glyph-name="uni1ED7" unicode="&#x1ed7;" horiz-adv-x="457" 
d="M222 -10q-65 0 -108.5 27t-65 74t-21.5 107q0 61 21.5 108.5t65 74.5t108.5 27q95 0 145 -57.5t50 -152.5q0 -59 -21 -106t-64 -74.5t-110 -27.5zM222 46q53 0 81 23t39.5 58.5t11.5 72.5t-11.5 73t-39.5 59t-81 23q-51 0 -80.5 -23t-40.5 -59t-11 -73t11 -72.5
t40.5 -58.5t80.5 -23zM105 462v8l109 103h29l109 -103v-8h-60l-62 67h-3l-60 -67h-62zM111 616q-1 15 0.5 31t8 30t19.5 23t35 9q23 0 37 -8.5t23 -19t18.5 -19t23.5 -8.5q17 0 20 14t3 40h43q0 -17 -1.5 -34t-8.5 -30t-19.5 -21.5t-34.5 -8.5t-36 8.5t-23.5 19t-18.5 19
t-23 8.5q-17 0 -20.5 -14t-3.5 -39h-42z" />
    <glyph glyph-name="uni1ED8" unicode="&#x1ed8;" horiz-adv-x="604" 
d="M295 -14q-134 0 -204 79.5t-70 214.5q0 89 30.5 154.5t91 102t152.5 36.5q134 0 203 -79.5t69 -213.5q0 -87 -30.5 -153.5t-91 -103.5t-150.5 -37zM294 48q70 0 116.5 29t70 81.5t23.5 121.5t-22.5 121.5t-69.5 82t-118 29.5q-103 0 -156.5 -62t-53.5 -171
q0 -68 23 -120.5t69.5 -82t117.5 -29.5zM303 -151q-25 0 -34 12.5t-9 29.5q0 16 9 28.5t34 12.5t33 -12.5t8 -28.5q0 -17 -8 -29.5t-33 -12.5zM178 619v8l109 103h29l109 -103v-8h-60l-62 67h-3l-60 -67h-62z" />
    <glyph glyph-name="uni1ED9" unicode="&#x1ed9;" horiz-adv-x="457" 
d="M222 -10q-65 0 -108.5 27t-65 74t-21.5 107q0 61 21.5 108.5t65 74.5t108.5 27q95 0 145 -57.5t50 -152.5q0 -59 -21 -106t-64 -74.5t-110 -27.5zM222 46q53 0 81 23t39.5 58.5t11.5 72.5t-11.5 73t-39.5 59t-81 23q-51 0 -80.5 -23t-40.5 -59t-11 -73t11 -72.5
t40.5 -58.5t80.5 -23zM229 -151q-25 0 -34 12.5t-9 29.5q0 16 9 28.5t34 12.5t33 -12.5t8 -28.5q0 -17 -8 -29.5t-33 -12.5zM104 463v8l109 103h29l109 -103v-8h-60l-62 67h-3l-60 -67h-62z" />
    <glyph glyph-name="uni1EDA" unicode="&#x1eda;" horiz-adv-x="604" 
d="M295 -14q-134 0 -204 79.5t-70 214.5q0 89 30.5 154.5t91 102t152.5 36.5q134 0 203 -79.5t69 -213.5q0 -87 -30.5 -153.5t-91 -103.5t-150.5 -37zM294 48q70 0 116.5 29t70 81.5t23.5 121.5t-22.5 121.5t-69.5 82t-118 29.5q-103 0 -156.5 -62t-53.5 -171
q0 -68 23 -120.5t69.5 -82t117.5 -29.5zM372 521l2 42h28q13 0 19 3t7.5 11.5t1.5 25.5h56q0 -30 -9 -48t-28.5 -26t-49.5 -8h-27zM318 606h-32v9l51 103h59v-14z" />
    <glyph glyph-name="uni1EDB" unicode="&#x1edb;" horiz-adv-x="457" 
d="M222 -10q-65 0 -108.5 27t-65 74t-21.5 107q0 61 21.5 108.5t65 74.5t108.5 27q95 0 145 -57.5t50 -152.5q0 -59 -21 -106t-64 -74.5t-110 -27.5zM222 46q53 0 81 23t39.5 58.5t11.5 72.5t-11.5 73t-39.5 59t-81 23q-51 0 -80.5 -23t-40.5 -59t-11 -73t11 -72.5
t40.5 -58.5t80.5 -23zM283 353l2 42h28q13 0 19 3t7.5 11.5t1.5 25.5h56q0 -30 -9 -48t-28.5 -26t-49.5 -8h-27zM244 450h-32v9l51 103h59v-14z" />
    <glyph glyph-name="uni1EDC" unicode="&#x1edc;" horiz-adv-x="604" 
d="M295 -14q-134 0 -204 79.5t-70 214.5q0 89 30.5 154.5t91 102t152.5 36.5q134 0 203 -79.5t69 -213.5q0 -87 -30.5 -153.5t-91 -103.5t-150.5 -37zM294 48q70 0 116.5 29t70 81.5t23.5 121.5t-22.5 121.5t-69.5 82t-118 29.5q-103 0 -156.5 -62t-53.5 -171
q0 -68 23 -120.5t69.5 -82t117.5 -29.5zM372 521l2 42h28q13 0 19 3t7.5 11.5t1.5 25.5h56q0 -30 -9 -48t-28.5 -26t-49.5 -8h-27zM293 606l-78 98v14h59l51 -103v-9h-32z" />
    <glyph glyph-name="uni1EDD" unicode="&#x1edd;" horiz-adv-x="457" 
d="M222 -10q-65 0 -108.5 27t-65 74t-21.5 107q0 61 21.5 108.5t65 74.5t108.5 27q95 0 145 -57.5t50 -152.5q0 -59 -21 -106t-64 -74.5t-110 -27.5zM222 46q53 0 81 23t39.5 58.5t11.5 72.5t-11.5 73t-39.5 59t-81 23q-51 0 -80.5 -23t-40.5 -59t-11 -73t11 -72.5
t40.5 -58.5t80.5 -23zM283 353l2 42h28q13 0 19 3t7.5 11.5t1.5 25.5h56q0 -30 -9 -48t-28.5 -26t-49.5 -8h-27zM219 450l-78 98v14h59l51 -103v-9h-32z" />
    <glyph glyph-name="uni1EDE" unicode="&#x1ede;" horiz-adv-x="604" 
d="M295 -14q-134 0 -204 79.5t-70 214.5q0 89 30.5 154.5t91 102t152.5 36.5q134 0 203 -79.5t69 -213.5q0 -87 -30.5 -153.5t-91 -103.5t-150.5 -37zM294 48q70 0 116.5 29t70 81.5t23.5 121.5t-22.5 121.5t-69.5 82t-118 29.5q-103 0 -156.5 -62t-53.5 -171
q0 -68 23 -120.5t69.5 -82t117.5 -29.5zM372 521l2 42h28q13 0 19 3t7.5 11.5t1.5 25.5h56q0 -30 -9 -48t-28.5 -26t-49.5 -8h-27zM277 617v11q4 14 18.5 23t27.5 20t13 27q0 14 -9.5 20.5t-21.5 6.5t-24 -7t-17 -22l-32 16q8 27 30.5 41t46.5 14q27 0 48.5 -15t21.5 -47
q0 -26 -13 -40t-26.5 -23.5t-16.5 -24.5h-46z" />
    <glyph glyph-name="uni1EDF" unicode="&#x1edf;" horiz-adv-x="457" 
d="M222 -10q-65 0 -108.5 27t-65 74t-21.5 107q0 61 21.5 108.5t65 74.5t108.5 27q95 0 145 -57.5t50 -152.5q0 -59 -21 -106t-64 -74.5t-110 -27.5zM222 46q53 0 81 23t39.5 58.5t11.5 72.5t-11.5 73t-39.5 59t-81 23q-51 0 -80.5 -23t-40.5 -59t-11 -73t11 -72.5
t40.5 -58.5t80.5 -23zM283 353l2 42h28q13 0 19 3t7.5 11.5t1.5 25.5h56q0 -30 -9 -48t-28.5 -26t-49.5 -8h-27zM203 461v11q4 14 18.5 23t27.5 20t13 27q0 14 -9.5 20.5t-21.5 6.5t-24 -7t-17 -22l-32 16q8 27 30.5 41t46.5 14q27 0 48.5 -15t21.5 -47q0 -26 -13 -40
t-26.5 -23.5t-16.5 -24.5h-46z" />
    <glyph glyph-name="uni1EE0" unicode="&#x1ee0;" horiz-adv-x="604" 
d="M295 -14q-134 0 -204 79.5t-70 214.5q0 89 30.5 154.5t91 102t152.5 36.5q134 0 203 -79.5t69 -213.5q0 -87 -30.5 -153.5t-91 -103.5t-150.5 -37zM294 48q70 0 116.5 29t70 81.5t23.5 121.5t-22.5 121.5t-69.5 82t-118 29.5q-103 0 -156.5 -62t-53.5 -171
q0 -68 23 -120.5t69.5 -82t117.5 -29.5zM372 521l2 42h28q13 0 19 3t7.5 11.5t1.5 25.5h56q0 -30 -9 -48t-28.5 -26t-49.5 -8h-27zM187 628q-1 15 0.5 31t8 30t19.5 23t35 9q23 0 37 -8.5t23 -19t18.5 -19t23.5 -8.5q17 0 20 14t3 40h43q0 -17 -1.5 -34t-8.5 -30
t-19.5 -21.5t-34.5 -8.5t-36 8.5t-23.5 19t-18.5 19t-23 8.5q-17 0 -20.5 -14t-3.5 -39h-42z" />
    <glyph glyph-name="uni1EE1" unicode="&#x1ee1;" horiz-adv-x="457" 
d="M222 -10q-65 0 -108.5 27t-65 74t-21.5 107q0 61 21.5 108.5t65 74.5t108.5 27q95 0 145 -57.5t50 -152.5q0 -59 -21 -106t-64 -74.5t-110 -27.5zM222 46q53 0 81 23t39.5 58.5t11.5 72.5t-11.5 73t-39.5 59t-81 23q-51 0 -80.5 -23t-40.5 -59t-11 -73t11 -72.5
t40.5 -58.5t80.5 -23zM283 353l2 42h28q13 0 19 3t7.5 11.5t1.5 25.5h56q0 -30 -9 -48t-28.5 -26t-49.5 -8h-27zM113 472q-1 15 0.5 31t8 30t19.5 23t35 9q23 0 37 -8.5t23 -19t18.5 -19t23.5 -8.5q17 0 20 14t3 40h43q0 -17 -1.5 -34t-8.5 -30t-19.5 -21.5t-34.5 -8.5
t-36 8.5t-23.5 19t-18.5 19t-23 8.5q-17 0 -20.5 -14t-3.5 -39h-42z" />
    <glyph glyph-name="uni1EE2" unicode="&#x1ee2;" horiz-adv-x="604" 
d="M295 -14q-134 0 -204 79.5t-70 214.5q0 89 30.5 154.5t91 102t152.5 36.5q134 0 203 -79.5t69 -213.5q0 -87 -30.5 -153.5t-91 -103.5t-150.5 -37zM294 48q70 0 116.5 29t70 81.5t23.5 121.5t-22.5 121.5t-69.5 82t-118 29.5q-103 0 -156.5 -62t-53.5 -171
q0 -68 23 -120.5t69.5 -82t117.5 -29.5zM372 521l2 42h28q13 0 19 3t7.5 11.5t1.5 25.5h56q0 -30 -9 -48t-28.5 -26t-49.5 -8h-27zM303 -151q-25 0 -34 12.5t-9 29.5q0 16 9 28.5t34 12.5t33 -12.5t8 -28.5q0 -17 -8 -29.5t-33 -12.5z" />
    <glyph glyph-name="uni1EE3" unicode="&#x1ee3;" horiz-adv-x="457" 
d="M222 -10q-65 0 -108.5 27t-65 74t-21.5 107q0 61 21.5 108.5t65 74.5t108.5 27q95 0 145 -57.5t50 -152.5q0 -59 -21 -106t-64 -74.5t-110 -27.5zM222 46q53 0 81 23t39.5 58.5t11.5 72.5t-11.5 73t-39.5 59t-81 23q-51 0 -80.5 -23t-40.5 -59t-11 -73t11 -72.5
t40.5 -58.5t80.5 -23zM283 353l2 42h28q13 0 19 3t7.5 11.5t1.5 25.5h56q0 -30 -9 -48t-28.5 -26t-49.5 -8h-27zM229 -151q-25 0 -34 12.5t-9 29.5q0 16 9 28.5t34 12.5t33 -12.5t8 -28.5q0 -17 -8 -29.5t-33 -12.5z" />
    <glyph glyph-name="uni1EE4" unicode="&#x1ee4;" horiz-adv-x="577" 
d="M286 -14q-113 0 -173.5 66.5t-60.5 187.5v323h66v-323q0 -50 13 -86.5t35.5 -60.5t53 -35t66.5 -11q52 0 89.5 19.5t58.5 62.5t21 111v323h66v-323q0 -123 -59.5 -188.5t-175.5 -65.5zM289 -151q-25 0 -34 12.5t-9 29.5q0 16 9 28.5t34 12.5t33 -12.5t8 -28.5
q0 -17 -8 -29.5t-33 -12.5z" />
    <glyph glyph-name="uni1EE5" unicode="&#x1ee5;" horiz-adv-x="445" 
d="M189 -10q-39 0 -66.5 12t-45 32.5t-26.5 47t-12.5 56t-3.5 59.5v210h64v-211q0 -40 8.5 -74t32.5 -54t71 -20q45 0 70.5 21t37.5 53.5t14 68.5v216h66v-407h-55l-11 91h-2q-4 -13 -13.5 -30t-26.5 -33t-42.5 -27t-59.5 -11zM223 -151q-25 0 -34 12.5t-9 29.5q0 16 9 28.5
t34 12.5t33 -12.5t8 -28.5q0 -17 -8 -29.5t-33 -12.5z" />
    <glyph glyph-name="uni1EE6" unicode="&#x1ee6;" horiz-adv-x="577" 
d="M286 -14q-113 0 -173.5 66.5t-60.5 187.5v323h66v-323q0 -50 13 -86.5t35.5 -60.5t53 -35t66.5 -11q52 0 89.5 19.5t58.5 62.5t21 111v323h66v-323q0 -123 -59.5 -188.5t-175.5 -65.5zM263 617v11q4 14 18.5 23t27.5 20t13 27q0 14 -9.5 20.5t-21.5 6.5t-24 -7t-17 -22
l-32 16q8 27 30.5 41t46.5 14q27 0 48.5 -15t21.5 -47q0 -26 -13 -40t-26.5 -23.5t-16.5 -24.5h-46z" />
    <glyph glyph-name="uni1EE7" unicode="&#x1ee7;" horiz-adv-x="445" 
d="M189 -10q-39 0 -66.5 12t-45 32.5t-26.5 47t-12.5 56t-3.5 59.5v210h64v-211q0 -40 8.5 -74t32.5 -54t71 -20q45 0 70.5 21t37.5 53.5t14 68.5v216h66v-407h-55l-11 91h-2q-4 -13 -13.5 -30t-26.5 -33t-42.5 -27t-59.5 -11zM197 461v11q4 14 18.5 23t27.5 20t13 27
q0 14 -9.5 20.5t-21.5 6.5t-24 -7t-17 -22l-32 16q8 27 30.5 41t46.5 14q27 0 48.5 -15t21.5 -47q0 -26 -13 -40t-26.5 -23.5t-16.5 -24.5h-46z" />
    <glyph glyph-name="uni1EE8" unicode="&#x1ee8;" horiz-adv-x="577" 
d="M286 -14q-113 0 -173.5 66.5t-60.5 187.5v323h66v-323q0 -50 13 -86.5t35.5 -60.5t53 -35t66.5 -11q52 0 89.5 19.5t58.5 62.5t21 111v323h66v-323q0 -123 -59.5 -188.5t-175.5 -65.5zM493 521l2 42h28q13 0 19 3t7.5 11.5t1.5 25.5h56q0 -30 -9 -48t-28.5 -26t-49.5 -8
h-27zM304 606h-32v9l51 103h59v-14z" />
    <glyph glyph-name="uni1EE9" unicode="&#x1ee9;" horiz-adv-x="445" 
d="M189 -10q-39 0 -66.5 12t-45 32.5t-26.5 47t-12.5 56t-3.5 59.5v210h64v-211q0 -40 8.5 -74t32.5 -54t71 -20q45 0 70.5 21t37.5 53.5t14 68.5v216h66v-407h-55l-11 91h-2q-4 -13 -13.5 -30t-26.5 -33t-42.5 -27t-59.5 -11zM363 365l2 42h28q13 0 19 3t7.5 11.5t1.5 25.5
h56q0 -30 -9 -48t-28.5 -26t-49.5 -8h-27zM238 450h-32v9l51 103h59v-14z" />
    <glyph glyph-name="uni1EEA" unicode="&#x1eea;" horiz-adv-x="577" 
d="M286 -14q-113 0 -173.5 66.5t-60.5 187.5v323h66v-323q0 -50 13 -86.5t35.5 -60.5t53 -35t66.5 -11q52 0 89.5 19.5t58.5 62.5t21 111v323h66v-323q0 -123 -59.5 -188.5t-175.5 -65.5zM493 521l2 42h28q13 0 19 3t7.5 11.5t1.5 25.5h56q0 -30 -9 -48t-28.5 -26t-49.5 -8
h-27zM279 606l-78 98v14h59l51 -103v-9h-32z" />
    <glyph glyph-name="uni1EEB" unicode="&#x1eeb;" horiz-adv-x="445" 
d="M189 -10q-39 0 -66.5 12t-45 32.5t-26.5 47t-12.5 56t-3.5 59.5v210h64v-211q0 -40 8.5 -74t32.5 -54t71 -20q45 0 70.5 21t37.5 53.5t14 68.5v216h66v-407h-55l-11 91h-2q-4 -13 -13.5 -30t-26.5 -33t-42.5 -27t-59.5 -11zM363 365l2 42h28q13 0 19 3t7.5 11.5t1.5 25.5
h56q0 -30 -9 -48t-28.5 -26t-49.5 -8h-27zM213 450l-78 98v14h59l51 -103v-9h-32z" />
    <glyph glyph-name="uni1EEC" unicode="&#x1eec;" horiz-adv-x="577" 
d="M286 -14q-113 0 -173.5 66.5t-60.5 187.5v323h66v-323q0 -50 13 -86.5t35.5 -60.5t53 -35t66.5 -11q52 0 89.5 19.5t58.5 62.5t21 111v323h66v-323q0 -123 -59.5 -188.5t-175.5 -65.5zM493 521l2 42h28q13 0 19 3t7.5 11.5t1.5 25.5h56q0 -30 -9 -48t-28.5 -26t-49.5 -8
h-27zM263 617v11q4 14 18.5 23t27.5 20t13 27q0 14 -9.5 20.5t-21.5 6.5t-24 -7t-17 -22l-32 16q8 27 30.5 41t46.5 14q27 0 48.5 -15t21.5 -47q0 -26 -13 -40t-26.5 -23.5t-16.5 -24.5h-46z" />
    <glyph glyph-name="uni1EED" unicode="&#x1eed;" horiz-adv-x="445" 
d="M189 -10q-39 0 -66.5 12t-45 32.5t-26.5 47t-12.5 56t-3.5 59.5v210h64v-211q0 -40 8.5 -74t32.5 -54t71 -20q45 0 70.5 21t37.5 53.5t14 68.5v216h66v-407h-55l-11 91h-2q-4 -13 -13.5 -30t-26.5 -33t-42.5 -27t-59.5 -11zM363 365l2 42h28q13 0 19 3t7.5 11.5t1.5 25.5
h56q0 -30 -9 -48t-28.5 -26t-49.5 -8h-27zM197 461v11q4 14 18.5 23t27.5 20t13 27q0 14 -9.5 20.5t-21.5 6.5t-24 -7t-17 -22l-32 16q8 27 30.5 41t46.5 14q27 0 48.5 -15t21.5 -47q0 -26 -13 -40t-26.5 -23.5t-16.5 -24.5h-46z" />
    <glyph glyph-name="uni1EEE" unicode="&#x1eee;" horiz-adv-x="577" 
d="M286 -14q-113 0 -173.5 66.5t-60.5 187.5v323h66v-323q0 -50 13 -86.5t35.5 -60.5t53 -35t66.5 -11q52 0 89.5 19.5t58.5 62.5t21 111v323h66v-323q0 -123 -59.5 -188.5t-175.5 -65.5zM493 521l2 42h28q13 0 19 3t7.5 11.5t1.5 25.5h56q0 -30 -9 -48t-28.5 -26t-49.5 -8
h-27zM173 628q-1 15 0.5 31t8 30t19.5 23t35 9q23 0 37 -8.5t23 -19t18.5 -19t23.5 -8.5q17 0 20 14t3 40h43q0 -17 -1.5 -34t-8.5 -30t-19.5 -21.5t-34.5 -8.5t-36 8.5t-23.5 19t-18.5 19t-23 8.5q-17 0 -20.5 -14t-3.5 -39h-42z" />
    <glyph glyph-name="uni1EEF" unicode="&#x1eef;" horiz-adv-x="445" 
d="M189 -10q-39 0 -66.5 12t-45 32.5t-26.5 47t-12.5 56t-3.5 59.5v210h64v-211q0 -40 8.5 -74t32.5 -54t71 -20q45 0 70.5 21t37.5 53.5t14 68.5v216h66v-407h-55l-11 91h-2q-4 -13 -13.5 -30t-26.5 -33t-42.5 -27t-59.5 -11zM363 365l2 42h28q13 0 19 3t7.5 11.5t1.5 25.5
h56q0 -30 -9 -48t-28.5 -26t-49.5 -8h-27zM107 472q-1 15 0.5 31t8 30t19.5 23t35 9q23 0 37 -8.5t23 -19t18.5 -19t23.5 -8.5q17 0 20 14t3 40h43q0 -17 -1.5 -34t-8.5 -30t-19.5 -21.5t-34.5 -8.5t-36 8.5t-23.5 19t-18.5 19t-23 8.5q-17 0 -20.5 -14t-3.5 -39h-42z" />
    <glyph glyph-name="uni1EF0" unicode="&#x1ef0;" horiz-adv-x="577" 
d="M286 -14q-113 0 -173.5 66.5t-60.5 187.5v323h66v-323q0 -50 13 -86.5t35.5 -60.5t53 -35t66.5 -11q52 0 89.5 19.5t58.5 62.5t21 111v323h66v-323q0 -123 -59.5 -188.5t-175.5 -65.5zM493 521l2 42h28q13 0 19 3t7.5 11.5t1.5 25.5h56q0 -30 -9 -48t-28.5 -26t-49.5 -8
h-27zM289 -151q-25 0 -34 12.5t-9 29.5q0 16 9 28.5t34 12.5t33 -12.5t8 -28.5q0 -17 -8 -29.5t-33 -12.5z" />
    <glyph glyph-name="uni1EF1" unicode="&#x1ef1;" horiz-adv-x="445" 
d="M189 -10q-39 0 -66.5 12t-45 32.5t-26.5 47t-12.5 56t-3.5 59.5v210h64v-211q0 -40 8.5 -74t32.5 -54t71 -20q45 0 70.5 21t37.5 53.5t14 68.5v216h66v-407h-55l-11 91h-2q-4 -13 -13.5 -30t-26.5 -33t-42.5 -27t-59.5 -11zM363 365l2 42h28q13 0 19 3t7.5 11.5t1.5 25.5
h56q0 -30 -9 -48t-28.5 -26t-49.5 -8h-27zM223 -151q-25 0 -34 12.5t-9 29.5q0 16 9 28.5t34 12.5t33 -12.5t8 -28.5q0 -17 -8 -29.5t-33 -12.5z" />
    <glyph glyph-name="Ygrave" unicode="&#x1ef2;" horiz-adv-x="430" 
d="M180 203l-193 360h72l153 -298l153 298h71l-195 -360h-61zM178 0v216h65v-216h-65zM206 606l-78 98v14h59l51 -103v-9h-32z" />
    <glyph glyph-name="ygrave" unicode="&#x1ef3;" horiz-adv-x="407" 
d="M-3 -182v52h56q13 0 23 4t20 17t22 40l43 93l-160 383h67l125 -315l133 315h68l-218 -485q-15 -34 -27 -54.5t-25 -31.5t-28.5 -14.5t-37.5 -3.5h-61zM194 450l-78 98v14h59l51 -103v-9h-32z" />
    <glyph glyph-name="uni1EF4" unicode="&#x1ef4;" horiz-adv-x="430" 
d="M180 203l-193 360h72l153 -298l153 298h71l-195 -360h-61zM178 0v216h65v-216h-65zM211 -151q-25 0 -34 12.5t-9 29.5q0 16 9 28.5t34 12.5t33 -12.5t8 -28.5q0 -17 -8 -29.5t-33 -12.5z" />
    <glyph glyph-name="uni1EF5" unicode="&#x1ef5;" horiz-adv-x="407" 
d="M-3 -182v52h56q13 0 23 4t20 17t22 40l43 93l-160 383h67l125 -315l133 315h68l-218 -485q-15 -34 -27 -54.5t-25 -31.5t-28.5 -14.5t-37.5 -3.5h-61zM309 -151q-25 0 -34 12.5t-9 29.5q0 16 9 28.5t34 12.5t33 -12.5t8 -28.5q0 -17 -8 -29.5t-33 -12.5z" />
    <glyph glyph-name="uni1EF6" unicode="&#x1ef6;" horiz-adv-x="430" 
d="M180 203l-193 360h72l153 -298l153 298h71l-195 -360h-61zM178 0v216h65v-216h-65zM190 617v11q4 14 18.5 23t27.5 20t13 27q0 14 -9.5 20.5t-21.5 6.5t-24 -7t-17 -22l-32 16q8 27 30.5 41t46.5 14q27 0 48.5 -15t21.5 -47q0 -26 -13 -40t-26.5 -23.5t-16.5 -24.5h-46z
" />
    <glyph glyph-name="uni1EF7" unicode="&#x1ef7;" horiz-adv-x="407" 
d="M-3 -182v52h56q13 0 23 4t20 17t22 40l43 93l-160 383h67l125 -315l133 315h68l-218 -485q-15 -34 -27 -54.5t-25 -31.5t-28.5 -14.5t-37.5 -3.5h-61zM178 461v11q4 14 18.5 23t27.5 20t13 27q0 14 -9.5 20.5t-21.5 6.5t-24 -7t-17 -22l-32 16q8 27 30.5 41t46.5 14
q27 0 48.5 -15t21.5 -47q0 -26 -13 -40t-26.5 -23.5t-16.5 -24.5h-46z" />
    <glyph glyph-name="uni1EF8" unicode="&#x1ef8;" horiz-adv-x="430" 
d="M180 203l-193 360h72l153 -298l153 298h71l-195 -360h-61zM178 0v216h65v-216h-65zM100 628q-1 15 0.5 31t8 30t19.5 23t35 9q23 0 37 -8.5t23 -19t18.5 -19t23.5 -8.5q17 0 20 14t3 40h43q0 -17 -1.5 -34t-8.5 -30t-19.5 -21.5t-34.5 -8.5t-36 8.5t-23.5 19t-18.5 19
t-23 8.5q-17 0 -20.5 -14t-3.5 -39h-42z" />
    <glyph glyph-name="uni1EF9" unicode="&#x1ef9;" horiz-adv-x="407" 
d="M-3 -182v52h56q13 0 23 4t20 17t22 40l43 93l-160 383h67l125 -315l133 315h68l-218 -485q-15 -34 -27 -54.5t-25 -31.5t-28.5 -14.5t-37.5 -3.5h-61zM88 472q-1 15 0.5 31t8 30t19.5 23t35 9q23 0 37 -8.5t23 -19t18.5 -19t23.5 -8.5q17 0 20 14t3 40h43q0 -17 -1.5 -34
t-8.5 -30t-19.5 -21.5t-34.5 -8.5t-36 8.5t-23.5 19t-18.5 19t-23 8.5q-17 0 -20.5 -14t-3.5 -39h-42z" />
    <glyph glyph-name="endash" unicode="&#x2013;" horiz-adv-x="410" 
d="M40 200v49h315v-49h-315z" />
    <glyph glyph-name="emdash" unicode="&#x2014;" horiz-adv-x="537" 
d="M40 200v49h442v-49h-442z" />
    <glyph glyph-name="quoteleft" unicode="&#x2018;" horiz-adv-x="202" 
d="M73 376q-24 0 -32.5 13t-8.5 31t8 30.5t32 12.5t33 -12.5t9 -30.5t-8.5 -31t-32.5 -13zM32 420q0 3 1 18t6 36.5t17 41.5t32.5 33.5t53.5 13.5v-57q-29 0 -45.5 -9t-24.5 -21.5t-10 -25.5t-1 -21.5l1 -8.5h-30z" />
    <glyph glyph-name="quoteright" unicode="&#x2019;" horiz-adv-x="173" 
d="M25 376v58q29 0 45.5 8.5t24.5 21.5t10 25.5t1 21.5l-1 9h30q0 -3 -1 -18.5t-6.5 -36.5t-17 -41.5t-32.5 -34t-53 -13.5zM95 476q-25 0 -34 13t-9 30q0 18 9 31t33 13q23 0 32 -12.5t9 -31.5q0 -17 -8 -30t-32 -13z" />
    <glyph glyph-name="quotesinglbase" unicode="&#x201a;" horiz-adv-x="208" 
d="M47 -82v57q29 0 45.5 9t24.5 21.5t10 25t1 21.5l-1 9h30q0 -3 -1 -18.5t-6.5 -36t-17 -41.5t-32.5 -34t-53 -13zM116 18q-24 0 -33 12.5t-9 30.5t9 30.5t32 12.5q24 0 33 -12.5t9 -31.5q0 -17 -8.5 -29.5t-32.5 -12.5z" />
    <glyph glyph-name="quotedblleft" unicode="&#x201c;" horiz-adv-x="325" 
d="M158 420q0 3 1 18t6.5 36.5t17 41.5t32.5 33.5t53 13.5v-57q-29 0 -45.5 -9t-24.5 -21.5t-10 -25.5t-1 -21.5l1 -8.5h-30zM73 376q-24 0 -32.5 13t-8.5 31t8 30.5t32 12.5t33 -12.5t9 -30.5t-8.5 -31t-32.5 -13zM32 420q0 3 1 18t6 36.5t17 41.5t32.5 33.5t53.5 13.5v-57
q-29 0 -45.5 -9t-24.5 -21.5t-10 -25.5t-1 -21.5l1 -8.5h-30zM199 376q-23 0 -32 13t-9 31t8 30.5t32 12.5q25 0 34 -12.5t9 -30.5t-9 -31t-33 -13z" />
    <glyph glyph-name="quotedblright" unicode="&#x201d;" horiz-adv-x="325" 
d="M158 376v58q29 0 45.5 8.5t24.5 21.5t10 25.5t1 21.5l-1 9h30q0 -3 -1 -18.5t-6.5 -36.5t-17 -41.5t-32.5 -34t-53 -13.5zM32 376v58q29 0 45.5 8.5t24.5 21.5t10 25.5t1 21.5l-1 9h30q0 -3 -1 -18.5t-6.5 -36.5t-17 -41.5t-32.5 -34t-53 -13.5zM101 476q-24 0 -33 13
t-9 30q0 18 9 31t32 13q24 0 33 -12.5t9 -31.5q0 -17 -8.5 -30t-32.5 -13zM227 476q-24 0 -33 13t-9 30q0 18 9 31t33 13q23 0 32 -12.5t9 -31.5q0 -17 -8 -30t-33 -13z" />
    <glyph glyph-name="quotedblbase" unicode="&#x201e;" horiz-adv-x="323" 
d="M40 -82v57q29 0 45.5 9t24.5 21.5t10 25t1 21.5l-1 9h30q0 -3 -1 -18.5t-6.5 -36t-17 -41.5t-32.5 -34t-53 -13zM109 18q-24 0 -33 12.5t-9 30.5t9 30.5t33 12.5q23 0 32 -12.5t9 -31.5q0 -17 -8 -29.5t-33 -12.5zM166 -82v57q29 0 45.5 9t24.5 21.5t10 25t1 21.5l-1 9
h30q0 -3 -1 -18.5t-6 -36t-17 -41.5t-32.5 -34t-53.5 -13zM236 18q-24 0 -33 12.5t-9 30.5t8.5 30.5t32.5 12.5t32.5 -12.5t8.5 -31.5q0 -17 -8 -29.5t-32 -12.5z" />
    <glyph glyph-name="bullet" unicode="&#x2022;" horiz-adv-x="225" 
d="M101 195q-33 0 -44.5 17t-11.5 40q0 21 11.5 38t44.5 17q34 0 44.5 -17t10.5 -38q0 -23 -10.5 -40t-44.5 -17z" />
    <glyph glyph-name="ellipsis" unicode="&#x2026;" horiz-adv-x="497" 
d="M91 0q-25 0 -34 13.5t-9 31.5q0 19 9 32t34 13q24 0 32.5 -13t8.5 -32t-8.5 -32t-32.5 -13zM245 0q-25 0 -33.5 13.5t-8.5 31.5t8.5 31.5t33.5 13.5t33.5 -13t8.5 -32q0 -18 -8.5 -31.5t-33.5 -13.5zM400 0q-24 0 -33 13t-9 32t9 32t33 13q25 0 33.5 -13t8.5 -32
t-8.5 -32t-33.5 -13z" />
    <glyph glyph-name="perthousand" unicode="&#x2030;" horiz-adv-x="783" 
d="M103 0l-45 32l222 264l190 266l44 -31l-211 -252zM446 -10q-51 0 -75 33t-24 89q0 55 23.5 88.5t75.5 33.5q53 0 76.5 -33.5t23.5 -88.5q0 -54 -23.5 -88t-76.5 -34zM446 32q31 0 44 22.5t13 57.5q0 36 -13 58.5t-44 22.5t-44 -22t-13 -59q0 -35 13 -57.5t44 -22.5z
M128 329q-52 0 -75.5 33t-23.5 89q0 55 23.5 88.5t75.5 33.5t76 -33.5t24 -88.5q0 -54 -24 -88t-76 -34zM127 371q32 0 45 23t13 57q0 36 -13 58.5t-45 22.5q-30 0 -43.5 -22t-13.5 -59q0 -34 13.5 -57t43.5 -23zM685 -10q-52 0 -75.5 33t-23.5 89q0 55 23 88.5t76 33.5
q52 0 76 -33.5t24 -88.5q0 -54 -24 -88t-76 -34zM684 32q32 0 45 22.5t13 57.5q0 36 -13 58.5t-45 22.5q-30 0 -43.5 -22t-13.5 -59q0 -35 13.5 -57.5t43.5 -22.5z" />
    <glyph glyph-name="guilsinglleft" unicode="&#x2039;" horiz-adv-x="392" 
d="M352 384v-55l-255 -101l255 -101v-57l-312 158z" />
    <glyph glyph-name="guilsinglright" unicode="&#x203a;" horiz-adv-x="399" 
d="M42 384l312 -156l-312 -158v57l255 101l-255 101v55z" />
    <glyph glyph-name="fraction" unicode="&#x2044;" horiz-adv-x="186" 
d="M-96 2l-34 27l217 267l195 265l34 -26l-206 -256z" />
    <glyph glyph-name="uni2074" unicode="&#x2074;" horiz-adv-x="251" 
d="M15 463v36q33 15 57.5 46.5t39 68.5t14.5 70h45q0 -50 -31.5 -101t-81.5 -84h178v-36h-221zM158 407v138h41v-138h-41z" />
    <glyph glyph-name="Euro" unicode="&#x20ac;" horiz-adv-x="619" 
d="M336 -10q-71 0 -127.5 32.5t-90 97.5t-33.5 160q0 97 33 162t90.5 98t130.5 33q65 0 113.5 -25.5t79 -72t41.5 -110.5l-65 -8q-14 76 -55.5 116.5t-113.5 40.5q-58 0 -100 -27.5t-65 -79.5t-23 -125q0 -113 49 -172.5t137 -59.5q73 0 116.5 41.5t55.5 115.5l67 -9
q-10 -63 -40.5 -110t-80.5 -72.5t-119 -25.5zM351 217h-318v41h333zM33 308v39h363l-15 -41z" />
    <glyph glyph-name="trademark" unicode="&#x2122;" horiz-adv-x="453" 
d="M191 354v209h60l54 -193l52 193h61v-209h-36l3 193l-55 -193h-52l-53 193l1 -193h-35zM56 354v179h-69v30h172v-30h-69v-179h-34z" />
    <glyph glyph-name="oneeighth" unicode="&#x215b;" horiz-adv-x="607" 
d="M75 302v218q-6 -22 -19 -33t-25 -15t-16 -4v45q4 -1 19.5 2t29.5 14.5t15 37.5h36v-265h-40zM30 290v36h124v-36h-124zM73 2l-34 27l217 267l195 265l34 -26l-206 -256zM481 -11q-48 0 -79.5 21t-31.5 59q0 27 18 47t48 26q-21 4 -32 15t-14.5 24t-3.5 21q0 33 26.5 54
t68.5 21q43 0 69.5 -21t26.5 -54q0 -8 -3.5 -21t-14.5 -24t-33 -15q30 -6 48.5 -25.5t18.5 -47.5q0 -39 -32.5 -59.5t-79.5 -20.5zM481 22q34 0 53 15.5t19 38.5q0 27 -19 41t-53 14q-33 0 -52.5 -14t-19.5 -41q0 -23 19.5 -38.5t52.5 -15.5zM481 151q27 0 43.5 11t16.5 33
q0 24 -17 36.5t-43 12.5q-27 0 -43.5 -13t-16.5 -36q0 -22 17 -33t43 -11z" />
    <glyph glyph-name="threeeighths" unicode="&#x215c;" horiz-adv-x="677" 
d="M123 279q-45 0 -76.5 23.5t-31.5 71.5l39 6q1 -33 21.5 -49.5t48.5 -16.5q26 0 44 14.5t18 36.5q0 19 -9 30t-22 15.5t-24 4.5h-34v22h35q21 0 35 13t14 31q0 25 -16.5 38.5t-44.5 13.5q-21 0 -35 -9t-20.5 -22t-7.5 -24l-36 5q0 8 5 21.5t16 28t30 24.5t48 10
q45 0 71.5 -21t26.5 -57q0 -22 -13 -40.5t-36 -22.5q23 -4 39 -22.5t16 -44.5q0 -36 -28.5 -58t-72.5 -22zM143 2l-34 27l217 267l195 265l34 -26l-206 -256zM551 -11q-48 0 -79.5 21t-31.5 59q0 27 18 47t48 26q-21 4 -32 15t-14.5 24t-3.5 21q0 33 26.5 54t68.5 21
q43 0 69.5 -21t26.5 -54q0 -8 -3.5 -21t-14.5 -24t-33 -15q30 -6 48.5 -25.5t18.5 -47.5q0 -39 -32.5 -59.5t-79.5 -20.5zM551 22q34 0 53 15.5t19 38.5q0 27 -19 41t-53 14q-33 0 -52.5 -14t-19.5 -41q0 -23 19.5 -38.5t52.5 -15.5zM551 151q27 0 43.5 11t16.5 33
q0 24 -17 36.5t-43 12.5q-27 0 -43.5 -13t-16.5 -36q0 -22 17 -33t43 -11z" />
    <glyph glyph-name="fiveeighths" unicode="&#x215d;" horiz-adv-x="679" 
d="M119 279q-31 0 -52.5 10t-34 27.5t-17.5 37.5l41 5q1 -3 6.5 -14.5t19 -21.5t38.5 -10q31 0 48 19t17 41q1 23 -14.5 42.5t-48.5 19.5q-21 0 -33.5 -7t-18 -14t-5.5 -8l-42 8l15 142h174v-36h-145l-9 -91l7 9t23.5 17.5t44.5 8.5q49 0 71 -28t21 -63q-1 -36 -29 -65
t-77 -29zM144 2l-34 27l217 267l195 265l34 -26l-206 -256zM552 -11q-48 0 -79.5 21t-31.5 59q0 27 18 47t48 26q-21 4 -32 15t-14.5 24t-3.5 21q0 33 26.5 54t68.5 21q43 0 69.5 -21t26.5 -54q0 -8 -3.5 -21t-14.5 -24t-33 -15q30 -6 48.5 -25.5t18.5 -47.5
q0 -39 -32.5 -59.5t-79.5 -20.5zM552 22q34 0 53 15.5t19 38.5q0 27 -19 41t-53 14q-33 0 -52.5 -14t-19.5 -41q0 -23 19.5 -38.5t52.5 -15.5zM552 151q27 0 43.5 11t16.5 33q0 24 -17 36.5t-43 12.5q-27 0 -43.5 -13t-16.5 -36q0 -22 17 -33t43 -11z" />
    <glyph glyph-name="seveneighths" unicode="&#x215e;" horiz-adv-x="672" 
d="M58 290q0 85 32.5 139.5t88.5 89.5h-164v37h204v-36q-15 -10 -35 -25.5t-39.5 -41.5t-32 -66t-12.5 -97h-42zM138 2l-34 27l217 267l195 265l34 -26l-206 -256zM546 -11q-48 0 -79.5 21t-31.5 59q0 27 18 47t48 26q-21 4 -32 15t-14.5 24t-3.5 21q0 33 26.5 54t68.5 21
q43 0 69.5 -21t26.5 -54q0 -8 -3.5 -21t-14.5 -24t-33 -15q30 -6 48.5 -25.5t18.5 -47.5q0 -39 -32.5 -59.5t-79.5 -20.5zM546 22q34 0 53 15.5t19 38.5q0 27 -19 41t-53 14q-33 0 -52.5 -14t-19.5 -41q0 -23 19.5 -38.5t52.5 -15.5zM546 151q27 0 43.5 11t16.5 33
q0 24 -17 36.5t-43 12.5q-27 0 -43.5 -13t-16.5 -36q0 -22 17 -33t43 -11z" />
    <glyph glyph-name="arrowleft" unicode="&#x2190;" horiz-adv-x="400" 
d="M35 200v53q42 0 65.5 14t34 33t12.5 34t2 16h44q0 -1 -1.5 -16t-9 -37t-24 -44.5t-46.5 -37.5t-77 -15zM149 103q0 2 -2 16.5t-12.5 33.5t-34 33t-65.5 14v53q47 0 77 -15t46.5 -37t24 -44.5t9 -38l1.5 -15.5h-44zM35 200v53h330v-53h-330z" />
    <glyph glyph-name="arrowup" unicode="&#x2191;" horiz-adv-x="317" 
d="M282 289l-15.5 1.5t-38 9t-44.5 24t-37 46.5t-15 77h53q0 -42 14 -65.5t33 -34t34 -12.5t16 -2v-44zM132 117v330h53v-330h-53zM35 289v44q2 0 16.5 2t33.5 12.5t33 34t14 65.5h53q0 -47 -15 -77t-37.5 -46.5t-44.5 -24t-37 -9t-16 -1.5z" />
    <glyph glyph-name="arrowright" unicode="&#x2192;" horiz-adv-x="400" 
d="M365 200q-47 0 -77 15t-46.5 37.5t-24 44.5t-9 37t-1.5 16h44q0 -1 2 -16t12.5 -34t34 -33t65.5 -14v-53zM35 200v53h330v-53h-330zM207 103l1.5 15.5t9 38t24 44.5t46.5 37t77 15v-53q-42 0 -65.5 -14t-34 -33t-12.5 -33.5t-2 -16.5h-44z" />
    <glyph glyph-name="arrowdown" unicode="&#x2193;" horiz-adv-x="317" 
d="M132 117q0 47 15 77t37 46.5t44.5 24t38 9l15.5 1.5v-44q-1 0 -16 -2t-34 -12.5t-33 -34t-14 -65.5h-53zM132 117q0 42 -14 65.5t-33 34t-33.5 12.5t-16.5 2v44q1 0 16 -1.5t37 -9t44.5 -24t37.5 -46.5t15 -77h-53zM132 117v330h53v-330h-53z" />
    <glyph glyph-name="arrowboth" unicode="&#x2194;" horiz-adv-x="530" 
d="M495 200q-47 0 -77 15t-47 37t-24 44t-9 37.5t-2 16.5h44q0 -1 2.5 -16t13 -34t33.5 -33t66 -14v-53zM149 103q0 2 -2 16.5t-12.5 33.5t-34 33t-65.5 14v53q47 0 77 -15.5t46.5 -37.5t24 -44.5t9 -37.5l1.5 -15h-44zM35 200v53q42 0 65.5 14t34 33t12.5 34t2 16h44
q0 -1 -1.5 -16.5t-9 -37.5t-24 -44t-46.5 -37t-77 -15zM35 200v53h330v-53h-330zM165 200v53h330v-53h-330zM336 103l2 15t9 37.5t24 44.5t47 37.5t77 15.5v-53q-43 0 -66 -14t-33.5 -33t-13 -33.5t-2.5 -16.5h-44z" />
    <glyph glyph-name="arrowupdn" unicode="&#x2195;" horiz-adv-x="317" 
d="M282 289l-15.5 1.5t-38 9t-44.5 24t-37 46.5t-15 77h53q0 -42 14 -65.5t33 -34t34 -12.5t16 -2v-44zM132 -13q0 43 -14 66t-33 33.5t-33.5 13t-16.5 2.5v44q1 0 16 -2t37 -9t44.5 -24t37.5 -47t15 -77h-53zM132 -13q0 47 15 77t37 47t44.5 24t38 9l15.5 2v-44
q-1 0 -16 -2.5t-34 -13t-33 -33.5t-14 -66h-53zM132 -13v330h53v-330h-53zM132 117v330h53v-330h-53zM35 289v44q2 0 16.5 2t33.5 12.5t33 34t14 65.5h53q0 -47 -15 -77t-37.5 -46.5t-44.5 -24t-37 -9t-16 -1.5z" />
    <glyph glyph-name="uni2196" unicode="&#x2196;" horiz-adv-x="353" 
d="M249 152l-237 238l38 36l238 -237zM55 210l-31 31q1 1 10 13t15.5 32.5t-0.5 47t-37 56.5l38 36q33 -33 43.5 -64.5t6.5 -59t-14.5 -48.5t-20.5 -32.5zM230 384q-1 -1 -13 -10.5t-33 -20t-48.5 -14t-59 7t-64.5 43.5l38 36q30 -30 56.5 -36.5t46.5 0t32 15.5t13 10z" />
    <glyph glyph-name="uni2197" unicode="&#x2197;" horiz-adv-x="353" 
d="M50 152l-38 37l238 237l38 -36zM245 210l-10 11.5t-20.5 32.5t-15 48.5t6.5 59t44 64.5l38 -36q-30 -30 -37 -56.5t-0.5 -47t15.5 -32.5t10 -13zM70 384l32 31q1 -1 12.5 -10t32 -15.5t47 0t56.5 36.5l38 -36q-33 -33 -64.5 -43.5t-59.5 -7t-48.5 14t-32.5 20t-13 10.5z
" />
    <glyph glyph-name="uni2198" unicode="&#x2198;" horiz-adv-x="353" 
d="M280 136l-245 245l38 36l245 -245zM280 136q-31 31 -57.5 37t-46.5 0t-32 -15.5t-13 -10.5l-31 32q1 0 13 9.5t32.5 20t48.5 14t59.5 -7t64.5 -43.5zM280 136q-33 34 -44 65t-6.5 58.5t15 48.5t20 33l9.5 12l32 -32q-1 -1 -10.5 -12.5t-15.5 -32t1 -47t37 -57.5z" />
    <glyph glyph-name="uni2199" unicode="&#x2199;" horiz-adv-x="415" 
d="M73 136l-38 36l245 245l38 -36zM73 136l-38 36q30 31 37 57.5t1 47t-15.5 32t-10.5 12.5l32 32l9.5 -12t20 -33t15 -48.5t-6.5 -58.5t-44 -65zM73 136l-38 36q33 33 64.5 43.5t59.5 7t48.5 -14t32.5 -20t13 -9.5l-31 -32q-1 1 -13 10.5t-32 15.5t-46.5 0t-57.5 -37z" />
    <glyph glyph-name="uni21A9" unicode="&#x21a9;" horiz-adv-x="468" 
d="M35 212v26q42 0 65 14t33.5 33t13 34t2.5 16h25q0 -1 -1.5 -13.5t-8 -30.5t-21.5 -36.5t-41 -30.5t-67 -12zM433 212h-398v26h398v-26zM174 115h-25q0 2 -2.5 16.5t-13 33.5t-33.5 33t-65 14v26q41 0 67 -12.5t41 -30.5t21.5 -36.5t8 -31zM405 404h28v-192h-28v192z" />
    <glyph glyph-name="carriagereturn" unicode="&#x21b5;" horiz-adv-x="468" 
d="M35 212v26q42 0 65 14t33.5 33t13 34t2.5 16h25q0 -1 -1.5 -13.5t-8 -30.5t-21.5 -36.5t-41 -30.5t-67 -12zM433 212h-398v26h398v-26zM174 115h-25q0 2 -2.5 16.5t-13 33.5t-33.5 33t-65 14v26q41 0 67 -12.5t41 -30.5t21.5 -36.5t8 -31zM405 404h28v-192h-28v192z" />
    <glyph glyph-name="minus" unicode="&#x2212;" horiz-adv-x="373" 
d="M76 200v49h222v-49h-222z" />
    <glyph glyph-name="uni2215" unicode="&#x2215;" horiz-adv-x="352" 
d="M25 0l254 563h63l-254 -563h-63z" />
    <glyph glyph-name="notequal" unicode="&#x2260;" horiz-adv-x="373" 
d="M73 41l149 331h63l-149 -331h-63zM44 121v46h285v-46h-285zM44 245v46h285v-46h-285z" />
    <glyph glyph-name="uni240D" unicode="&#x240d;" horiz-adv-x="581" 
d="M168 180q-55 0 -91.5 35.5t-36.5 105.5t36 104.5t94 34.5q44 0 76 -23.5t41 -73.5h-13q-8 41 -35 63.5t-69 22.5q-53 0 -85.5 -33t-32.5 -95q0 -64 32 -96.5t84 -32.5q46 0 73.5 22.5t34.5 62.5h14q-9 -48 -41 -72.5t-81 -24.5zM339 184v268h78q50 0 76.5 -15t26.5 -59
q0 -25 -15.5 -46.5t-48.5 -21.5q28 0 39 -13.5t12.5 -33t1 -38t3 -28.5t19.5 -5v-11l-8.5 -0.5t-17 5.5t-8.5 27q0 39 -4 58t-17.5 25.5t-43 6.5h-80.5v-119h-13zM352 316h77q40 0 59.5 14t19.5 48q0 39 -23.5 50t-67.5 11h-65v-123z" />
    <glyph glyph-name="I.ss01" horiz-adv-x="501" 
d="M223 -71q-1 126 -4 211t-11.5 137.5t-28 79.5t-54.5 36t-90 9v48q69 0 107.5 14t55.5 43t21 74.5t4 109.5h49q0 -64 3.5 -109.5t21 -74.5t57.5 -43t112 -14v-48q-57 0 -93.5 -9t-57.5 -36t-30.5 -79.5t-12 -137.5t-2.5 -212zM245 216h5q0 59 1.5 99.5t8 64t22 34.5
t45.5 11q-39 0 -55 9t-19 28.5t-3 50.5h-5q0 -31 -2.5 -50.5t-18.5 -28.5t-55 -9q31 0 47 -11t22 -34.5t6.5 -63.5t0.5 -100z" />
    <glyph glyph-name="N_o.dlig" horiz-adv-x="868" 
d="M709 322q-57 0 -85 35t-28 88q0 54 28 89t85 35q55 0 83 -34t28 -90q0 -52 -27 -87.5t-84 -35.5zM594 212v49h227v-49h-227zM709 365q24 0 37.5 12t19.5 30.5t6 38.5t-6 38t-19.5 30t-37.5 12q-25 0 -39 -12t-20 -30t-6 -38t6 -38.5t20 -30.5t39 -12zM458 563h65v-563
h-121l-280 534h-2v-534h-65v563h113l288 -534h2v534z" />
    <glyph glyph-name="i.loclTRK" horiz-adv-x="169" 
d="M52 0v407h64v-407h-64zM84 468q-25 0 -33.5 13t-8.5 30q0 16 8.5 28.5t33.5 12.5t33 -12.5t8 -28.5q0 -17 -8 -30t-33 -13z" />
    <glyph glyph-name="a.ss01" horiz-adv-x="465" 
d="M381 -9q-19 0 -32.5 7t-21.5 18.5t-11 27t-3 32.5v205q0 25 -14 42t-36 26t-48 9q-24 0 -48 -9t-40 -28t-18 -50h-61q5 48 30 78.5t62.5 44.5t76.5 14q40 0 76.5 -14t60 -43.5t23.5 -75.5v-181q0 -23 6 -35t15.5 -15t20 -1t18.5 6l6 -39q-2 -1 -9.5 -6t-21 -9t-31.5 -4z
M144 -9q-53 0 -85 28.5t-32 75.5q0 35 15.5 57t42 35.5t59 22.5t63.5 16q45 10 67.5 17t30.5 15.5t8 22.5l4 -136q-21 -70 -65 -112t-108 -42zM165 41q38 1 71 27t54 68t21 92q-11 -9 -35 -15.5t-50 -13.5q-36 -8 -67 -19t-49.5 -29.5t-17.5 -48.5q0 -30 20.5 -45.5
t52.5 -15.5z" />
    <glyph glyph-name="aacute.ss01" horiz-adv-x="465" 
d="M381 -9q-19 0 -32.5 7t-21.5 18.5t-11 27t-3 32.5v205q0 25 -14 42t-36 26t-48 9q-24 0 -48 -9t-40 -28t-18 -50h-61q5 48 30 78.5t62.5 44.5t76.5 14q40 0 76.5 -14t60 -43.5t23.5 -75.5v-181q0 -23 6 -35t15.5 -15t20 -1t18.5 6l6 -39q-2 -1 -9.5 -6t-21 -9t-31.5 -4z
M144 -9q-53 0 -85 28.5t-32 75.5q0 35 15.5 57t42 35.5t59 22.5t63.5 16q45 10 67.5 17t30.5 15.5t8 22.5l4 -136q-21 -70 -65 -112t-108 -42zM165 41q38 1 71 27t54 68t21 92q-11 -9 -35 -15.5t-50 -13.5q-36 -8 -67 -19t-49.5 -29.5t-17.5 -48.5q0 -30 20.5 -45.5
t52.5 -15.5zM239 450h-32v9l51 103h59v-14z" />
    <glyph glyph-name="abreve.ss01" horiz-adv-x="465" 
d="M381 -9q-19 0 -32.5 7t-21.5 18.5t-11 27t-3 32.5v205q0 25 -14 42t-36 26t-48 9q-24 0 -48 -9t-40 -28t-18 -50h-61q5 48 30 78.5t62.5 44.5t76.5 14q40 0 76.5 -14t60 -43.5t23.5 -75.5v-181q0 -23 6 -35t15.5 -15t20 -1t18.5 6l6 -39q-2 -1 -9.5 -6t-21 -9t-31.5 -4z
M144 -9q-53 0 -85 28.5t-32 75.5q0 35 15.5 57t42 35.5t59 22.5t63.5 16q45 10 67.5 17t30.5 15.5t8 22.5l4 -136q-21 -70 -65 -112t-108 -42zM165 41q38 1 71 27t54 68t21 92q-11 -9 -35 -15.5t-50 -13.5q-36 -8 -67 -19t-49.5 -29.5t-17.5 -48.5q0 -30 20.5 -45.5
t52.5 -15.5zM224 461q-55 0 -86.5 24.5t-31.5 65.5h47q0 -31 21 -40t49 -9q29 0 49 9t20 40h48q0 -41 -30.5 -65.5t-85.5 -24.5z" />
    <glyph glyph-name="uni1EAF.ss01" horiz-adv-x="465" 
d="M381 -9q-19 0 -32.5 7t-21.5 18.5t-11 27t-3 32.5v205q0 25 -14 42t-36 26t-48 9q-24 0 -48 -9t-40 -28t-18 -50h-61q5 48 30 78.5t62.5 44.5t76.5 14q40 0 76.5 -14t60 -43.5t23.5 -75.5v-181q0 -23 6 -35t15.5 -15t20 -1t18.5 6l6 -39q-2 -1 -9.5 -6t-21 -9t-31.5 -4z
M144 -9q-53 0 -85 28.5t-32 75.5q0 35 15.5 57t42 35.5t59 22.5t63.5 16q45 10 67.5 17t30.5 15.5t8 22.5l4 -136q-21 -70 -65 -112t-108 -42zM165 41q38 1 71 27t54 68t21 92q-11 -9 -35 -15.5t-50 -13.5q-36 -8 -67 -19t-49.5 -29.5t-17.5 -48.5q0 -30 20.5 -45.5
t52.5 -15.5zM224 461q-55 0 -86.5 24.5t-31.5 65.5h47q0 -31 21 -40t49 -9q29 0 49 9t20 40h48q0 -41 -30.5 -65.5t-85.5 -24.5zM239 574h-32v9l51 103h59v-14z" />
    <glyph glyph-name="uni1EB7.ss01" horiz-adv-x="465" 
d="M381 -9q-19 0 -32.5 7t-21.5 18.5t-11 27t-3 32.5v205q0 25 -14 42t-36 26t-48 9q-24 0 -48 -9t-40 -28t-18 -50h-61q5 48 30 78.5t62.5 44.5t76.5 14q40 0 76.5 -14t60 -43.5t23.5 -75.5v-181q0 -23 6 -35t15.5 -15t20 -1t18.5 6l6 -39q-2 -1 -9.5 -6t-21 -9t-31.5 -4z
M144 -9q-53 0 -85 28.5t-32 75.5q0 35 15.5 57t42 35.5t59 22.5t63.5 16q45 10 67.5 17t30.5 15.5t8 22.5l4 -136q-21 -70 -65 -112t-108 -42zM165 41q38 1 71 27t54 68t21 92q-11 -9 -35 -15.5t-50 -13.5q-36 -8 -67 -19t-49.5 -29.5t-17.5 -48.5q0 -30 20.5 -45.5
t52.5 -15.5zM233 -151q-25 0 -34 12.5t-9 29.5q0 16 9 28.5t34 12.5t33 -12.5t8 -28.5q0 -17 -8 -29.5t-33 -12.5zM224 461q-55 0 -86.5 24.5t-31.5 65.5h47q0 -31 21 -40t49 -9q29 0 49 9t20 40h48q0 -41 -30.5 -65.5t-85.5 -24.5z" />
    <glyph glyph-name="uni1EB1.ss01" horiz-adv-x="465" 
d="M381 -9q-19 0 -32.5 7t-21.5 18.5t-11 27t-3 32.5v205q0 25 -14 42t-36 26t-48 9q-24 0 -48 -9t-40 -28t-18 -50h-61q5 48 30 78.5t62.5 44.5t76.5 14q40 0 76.5 -14t60 -43.5t23.5 -75.5v-181q0 -23 6 -35t15.5 -15t20 -1t18.5 6l6 -39q-2 -1 -9.5 -6t-21 -9t-31.5 -4z
M144 -9q-53 0 -85 28.5t-32 75.5q0 35 15.5 57t42 35.5t59 22.5t63.5 16q45 10 67.5 17t30.5 15.5t8 22.5l4 -136q-21 -70 -65 -112t-108 -42zM165 41q38 1 71 27t54 68t21 92q-11 -9 -35 -15.5t-50 -13.5q-36 -8 -67 -19t-49.5 -29.5t-17.5 -48.5q0 -30 20.5 -45.5
t52.5 -15.5zM224 461q-55 0 -86.5 24.5t-31.5 65.5h47q0 -31 21 -40t49 -9q29 0 49 9t20 40h48q0 -41 -30.5 -65.5t-85.5 -24.5zM214 574l-78 98v14h59l51 -103v-9h-32z" />
    <glyph glyph-name="uni1EB3.ss01" horiz-adv-x="465" 
d="M381 -9q-19 0 -32.5 7t-21.5 18.5t-11 27t-3 32.5v205q0 25 -14 42t-36 26t-48 9q-24 0 -48 -9t-40 -28t-18 -50h-61q5 48 30 78.5t62.5 44.5t76.5 14q40 0 76.5 -14t60 -43.5t23.5 -75.5v-181q0 -23 6 -35t15.5 -15t20 -1t18.5 6l6 -39q-2 -1 -9.5 -6t-21 -9t-31.5 -4z
M144 -9q-53 0 -85 28.5t-32 75.5q0 35 15.5 57t42 35.5t59 22.5t63.5 16q45 10 67.5 17t30.5 15.5t8 22.5l4 -136q-21 -70 -65 -112t-108 -42zM165 41q38 1 71 27t54 68t21 92q-11 -9 -35 -15.5t-50 -13.5q-36 -8 -67 -19t-49.5 -29.5t-17.5 -48.5q0 -30 20.5 -45.5
t52.5 -15.5zM224 461q-55 0 -86.5 24.5t-31.5 65.5h47q0 -31 21 -40t49 -9q29 0 49 9t20 40h48q0 -41 -30.5 -65.5t-85.5 -24.5zM198 585v11q4 14 18.5 23t27.5 20t13 27q0 14 -9.5 20.5t-21.5 6.5t-24 -7t-17 -22l-32 16q8 27 30.5 41t46.5 14q27 0 48.5 -15t21.5 -47
q0 -26 -13 -40t-26.5 -23.5t-16.5 -24.5h-46z" />
    <glyph glyph-name="uni1EB5.ss01" horiz-adv-x="465" 
d="M381 -9q-19 0 -32.5 7t-21.5 18.5t-11 27t-3 32.5v205q0 25 -14 42t-36 26t-48 9q-24 0 -48 -9t-40 -28t-18 -50h-61q5 48 30 78.5t62.5 44.5t76.5 14q40 0 76.5 -14t60 -43.5t23.5 -75.5v-181q0 -23 6 -35t15.5 -15t20 -1t18.5 6l6 -39q-2 -1 -9.5 -6t-21 -9t-31.5 -4z
M144 -9q-53 0 -85 28.5t-32 75.5q0 35 15.5 57t42 35.5t59 22.5t63.5 16q45 10 67.5 17t30.5 15.5t8 22.5l4 -136q-21 -70 -65 -112t-108 -42zM165 41q38 1 71 27t54 68t21 92q-11 -9 -35 -15.5t-50 -13.5q-36 -8 -67 -19t-49.5 -29.5t-17.5 -48.5q0 -30 20.5 -45.5
t52.5 -15.5zM226 461q-55 0 -86.5 24.5t-31.5 65.5h47q0 -31 21 -40t49 -9q29 0 49 9t20 40h48q0 -41 -30.5 -65.5t-85.5 -24.5zM110 596q-1 15 0.5 31t8 30t19.5 23t35 9q23 0 37 -8.5t23 -19t18.5 -19t23.5 -8.5q17 0 20 14t3 40h43q0 -17 -1.5 -34t-8.5 -30t-19.5 -21.5
t-34.5 -8.5t-36 8.5t-23.5 19t-18.5 19t-23 8.5q-17 0 -20.5 -14t-3.5 -39h-42z" />
    <glyph glyph-name="acircumflex.ss01" horiz-adv-x="465" 
d="M381 -9q-19 0 -32.5 7t-21.5 18.5t-11 27t-3 32.5v205q0 25 -14 42t-36 26t-48 9q-24 0 -48 -9t-40 -28t-18 -50h-61q5 48 30 78.5t62.5 44.5t76.5 14q40 0 76.5 -14t60 -43.5t23.5 -75.5v-181q0 -23 6 -35t15.5 -15t20 -1t18.5 6l6 -39q-2 -1 -9.5 -6t-21 -9t-31.5 -4z
M144 -9q-53 0 -85 28.5t-32 75.5q0 35 15.5 57t42 35.5t59 22.5t63.5 16q45 10 67.5 17t30.5 15.5t8 22.5l4 -136q-21 -70 -65 -112t-108 -42zM165 41q38 1 71 27t54 68t21 92q-11 -9 -35 -15.5t-50 -13.5q-36 -8 -67 -19t-49.5 -29.5t-17.5 -48.5q0 -30 20.5 -45.5
t52.5 -15.5zM99 463v8l109 103h29l109 -103v-8h-60l-62 67h-3l-60 -67h-62z" />
    <glyph glyph-name="uni1EA5.ss01" horiz-adv-x="465" 
d="M381 -9q-19 0 -32.5 7t-21.5 18.5t-11 27t-3 32.5v205q0 25 -14 42t-36 26t-48 9q-24 0 -48 -9t-40 -28t-18 -50h-61q5 48 30 78.5t62.5 44.5t76.5 14q40 0 76.5 -14t60 -43.5t23.5 -75.5v-181q0 -23 6 -35t15.5 -15t20 -1t18.5 6l6 -39q-2 -1 -9.5 -6t-21 -9t-31.5 -4z
M144 -9q-53 0 -85 28.5t-32 75.5q0 35 15.5 57t42 35.5t59 22.5t63.5 16q45 10 67.5 17t30.5 15.5t8 22.5l4 -136q-21 -70 -65 -112t-108 -42zM165 41q38 1 71 27t54 68t21 92q-11 -9 -35 -15.5t-50 -13.5q-36 -8 -67 -19t-49.5 -29.5t-17.5 -48.5q0 -30 20.5 -45.5
t52.5 -15.5zM101 463v8l109 103h29l109 -103v-8h-60l-62 67h-3l-60 -67h-62zM351 550h-32v9l51 103h59v-14z" />
    <glyph glyph-name="uni1EAD.ss01" horiz-adv-x="465" 
d="M381 -9q-19 0 -32.5 7t-21.5 18.5t-11 27t-3 32.5v205q0 25 -14 42t-36 26t-48 9q-24 0 -48 -9t-40 -28t-18 -50h-61q5 48 30 78.5t62.5 44.5t76.5 14q40 0 76.5 -14t60 -43.5t23.5 -75.5v-181q0 -23 6 -35t15.5 -15t20 -1t18.5 6l6 -39q-2 -1 -9.5 -6t-21 -9t-31.5 -4z
M144 -9q-53 0 -85 28.5t-32 75.5q0 35 15.5 57t42 35.5t59 22.5t63.5 16q45 10 67.5 17t30.5 15.5t8 22.5l4 -136q-21 -70 -65 -112t-108 -42zM165 41q38 1 71 27t54 68t21 92q-11 -9 -35 -15.5t-50 -13.5q-36 -8 -67 -19t-49.5 -29.5t-17.5 -48.5q0 -30 20.5 -45.5
t52.5 -15.5zM233 -151q-25 0 -34 12.5t-9 29.5q0 16 9 28.5t34 12.5t33 -12.5t8 -28.5q0 -17 -8 -29.5t-33 -12.5zM99 463v8l109 103h29l109 -103v-8h-60l-62 67h-3l-60 -67h-62z" />
    <glyph glyph-name="uni1EA7.ss01" horiz-adv-x="465" 
d="M381 -9q-19 0 -32.5 7t-21.5 18.5t-11 27t-3 32.5v205q0 25 -14 42t-36 26t-48 9q-24 0 -48 -9t-40 -28t-18 -50h-61q5 48 30 78.5t62.5 44.5t76.5 14q40 0 76.5 -14t60 -43.5t23.5 -75.5v-181q0 -23 6 -35t15.5 -15t20 -1t18.5 6l6 -39q-2 -1 -9.5 -6t-21 -9t-31.5 -4z
M144 -9q-53 0 -85 28.5t-32 75.5q0 35 15.5 57t42 35.5t59 22.5t63.5 16q45 10 67.5 17t30.5 15.5t8 22.5l4 -136q-21 -70 -65 -112t-108 -42zM165 41q38 1 71 27t54 68t21 92q-11 -9 -35 -15.5t-50 -13.5q-36 -8 -67 -19t-49.5 -29.5t-17.5 -48.5q0 -30 20.5 -45.5
t52.5 -15.5zM341 550l-78 98v14h59l51 -103v-9h-32zM95 462v8l109 103h29l109 -103v-8h-60l-62 67h-3l-60 -67h-62z" />
    <glyph glyph-name="uni1EA9.ss01" horiz-adv-x="465" 
d="M381 -9q-19 0 -32.5 7t-21.5 18.5t-11 27t-3 32.5v205q0 25 -14 42t-36 26t-48 9q-24 0 -48 -9t-40 -28t-18 -50h-61q5 48 30 78.5t62.5 44.5t76.5 14q40 0 76.5 -14t60 -43.5t23.5 -75.5v-181q0 -23 6 -35t15.5 -15t20 -1t18.5 6l6 -39q-2 -1 -9.5 -6t-21 -9t-31.5 -4z
M144 -9q-53 0 -85 28.5t-32 75.5q0 35 15.5 57t42 35.5t59 22.5t63.5 16q45 10 67.5 17t30.5 15.5t8 22.5l4 -136q-21 -70 -65 -112t-108 -42zM165 41q38 1 71 27t54 68t21 92q-11 -9 -35 -15.5t-50 -13.5q-36 -8 -67 -19t-49.5 -29.5t-17.5 -48.5q0 -30 20.5 -45.5
t52.5 -15.5zM95 462v8l109 103h29l109 -103v-8h-60l-62 67h-3l-60 -67h-62zM310 551v11q4 14 18.5 23t27.5 20t13 27q0 14 -9.5 20.5t-21.5 6.5t-24 -7t-17 -22l-32 16q8 27 30.5 41t46.5 14q27 0 48.5 -15t21.5 -47q0 -26 -13 -40t-26.5 -23.5t-16.5 -24.5h-46z" />
    <glyph glyph-name="uni1EAB.ss01" horiz-adv-x="465" 
d="M381 -9q-19 0 -32.5 7t-21.5 18.5t-11 27t-3 32.5v205q0 25 -14 42t-36 26t-48 9q-24 0 -48 -9t-40 -28t-18 -50h-61q5 48 30 78.5t62.5 44.5t76.5 14q40 0 76.5 -14t60 -43.5t23.5 -75.5v-181q0 -23 6 -35t15.5 -15t20 -1t18.5 6l6 -39q-2 -1 -9.5 -6t-21 -9t-31.5 -4z
M144 -9q-53 0 -85 28.5t-32 75.5q0 35 15.5 57t42 35.5t59 22.5t63.5 16q45 10 67.5 17t30.5 15.5t8 22.5l4 -136q-21 -70 -65 -112t-108 -42zM165 41q38 1 71 27t54 68t21 92q-11 -9 -35 -15.5t-50 -13.5q-36 -8 -67 -19t-49.5 -29.5t-17.5 -48.5q0 -30 20.5 -45.5
t52.5 -15.5zM100 462v8l109 103h29l109 -103v-8h-60l-62 67h-3l-60 -67h-62zM106 616q-1 15 0.5 31t8 30t19.5 23t35 9q23 0 37 -8.5t23 -19t18.5 -19t23.5 -8.5q17 0 20 14t3 40h43q0 -17 -1.5 -34t-8.5 -30t-19.5 -21.5t-34.5 -8.5t-36 8.5t-23.5 19t-18.5 19t-23 8.5
q-17 0 -20.5 -14t-3.5 -39h-42z" />
    <glyph glyph-name="adieresis.ss01" horiz-adv-x="465" 
d="M381 -9q-19 0 -32.5 7t-21.5 18.5t-11 27t-3 32.5v205q0 25 -14 42t-36 26t-48 9q-24 0 -48 -9t-40 -28t-18 -50h-61q5 48 30 78.5t62.5 44.5t76.5 14q40 0 76.5 -14t60 -43.5t23.5 -75.5v-181q0 -23 6 -35t15.5 -15t20 -1t18.5 6l6 -39q-2 -1 -9.5 -6t-21 -9t-31.5 -4z
M144 -9q-53 0 -85 28.5t-32 75.5q0 35 15.5 57t42 35.5t59 22.5t63.5 16q45 10 67.5 17t30.5 15.5t8 22.5l4 -136q-21 -70 -65 -112t-108 -42zM165 41q38 1 71 27t54 68t21 92q-11 -9 -35 -15.5t-50 -13.5q-36 -8 -67 -19t-49.5 -29.5t-17.5 -48.5q0 -30 20.5 -45.5
t52.5 -15.5zM146 462q-28 0 -38 14.5t-10 33.5q0 18 10 32t38 14t37.5 -14t9.5 -32q0 -19 -9.5 -33.5t-37.5 -14.5zM303 462q-29 0 -38.5 14.5t-9.5 33.5q0 18 9.5 32t38.5 14q28 0 37 -14t9 -32q0 -19 -9 -33.5t-37 -14.5z" />
    <glyph glyph-name="uni1EA1.ss01" horiz-adv-x="465" 
d="M381 -9q-19 0 -32.5 7t-21.5 18.5t-11 27t-3 32.5v205q0 25 -14 42t-36 26t-48 9q-24 0 -48 -9t-40 -28t-18 -50h-61q5 48 30 78.5t62.5 44.5t76.5 14q40 0 76.5 -14t60 -43.5t23.5 -75.5v-181q0 -23 6 -35t15.5 -15t20 -1t18.5 6l6 -39q-2 -1 -9.5 -6t-21 -9t-31.5 -4z
M144 -9q-53 0 -85 28.5t-32 75.5q0 35 15.5 57t42 35.5t59 22.5t63.5 16q45 10 67.5 17t30.5 15.5t8 22.5l4 -136q-21 -70 -65 -112t-108 -42zM165 41q38 1 71 27t54 68t21 92q-11 -9 -35 -15.5t-50 -13.5q-36 -8 -67 -19t-49.5 -29.5t-17.5 -48.5q0 -30 20.5 -45.5
t52.5 -15.5zM233 -151q-25 0 -34 12.5t-9 29.5q0 16 9 28.5t34 12.5t33 -12.5t8 -28.5q0 -17 -8 -29.5t-33 -12.5z" />
    <glyph glyph-name="agrave.ss01" horiz-adv-x="465" 
d="M381 -9q-19 0 -32.5 7t-21.5 18.5t-11 27t-3 32.5v205q0 25 -14 42t-36 26t-48 9q-24 0 -48 -9t-40 -28t-18 -50h-61q5 48 30 78.5t62.5 44.5t76.5 14q40 0 76.5 -14t60 -43.5t23.5 -75.5v-181q0 -23 6 -35t15.5 -15t20 -1t18.5 6l6 -39q-2 -1 -9.5 -6t-21 -9t-31.5 -4z
M144 -9q-53 0 -85 28.5t-32 75.5q0 35 15.5 57t42 35.5t59 22.5t63.5 16q45 10 67.5 17t30.5 15.5t8 22.5l4 -136q-21 -70 -65 -112t-108 -42zM165 41q38 1 71 27t54 68t21 92q-11 -9 -35 -15.5t-50 -13.5q-36 -8 -67 -19t-49.5 -29.5t-17.5 -48.5q0 -30 20.5 -45.5
t52.5 -15.5zM214 450l-78 98v14h59l51 -103v-9h-32z" />
    <glyph glyph-name="uni1EA3.ss01" horiz-adv-x="465" 
d="M381 -9q-19 0 -32.5 7t-21.5 18.5t-11 27t-3 32.5v205q0 25 -14 42t-36 26t-48 9q-24 0 -48 -9t-40 -28t-18 -50h-61q5 48 30 78.5t62.5 44.5t76.5 14q40 0 76.5 -14t60 -43.5t23.5 -75.5v-181q0 -23 6 -35t15.5 -15t20 -1t18.5 6l6 -39q-2 -1 -9.5 -6t-21 -9t-31.5 -4z
M144 -9q-53 0 -85 28.5t-32 75.5q0 35 15.5 57t42 35.5t59 22.5t63.5 16q45 10 67.5 17t30.5 15.5t8 22.5l4 -136q-21 -70 -65 -112t-108 -42zM165 41q38 1 71 27t54 68t21 92q-11 -9 -35 -15.5t-50 -13.5q-36 -8 -67 -19t-49.5 -29.5t-17.5 -48.5q0 -30 20.5 -45.5
t52.5 -15.5zM198 461v11q4 14 18.5 23t27.5 20t13 27q0 14 -9.5 20.5t-21.5 6.5t-24 -7t-17 -22l-32 16q8 27 30.5 41t46.5 14q27 0 48.5 -15t21.5 -47q0 -26 -13 -40t-26.5 -23.5t-16.5 -24.5h-46z" />
    <glyph glyph-name="amacron.ss01" horiz-adv-x="465" 
d="M381 -9q-19 0 -32.5 7t-21.5 18.5t-11 27t-3 32.5v205q0 25 -14 42t-36 26t-48 9q-24 0 -48 -9t-40 -28t-18 -50h-61q5 48 30 78.5t62.5 44.5t76.5 14q40 0 76.5 -14t60 -43.5t23.5 -75.5v-181q0 -23 6 -35t15.5 -15t20 -1t18.5 6l6 -39q-2 -1 -9.5 -6t-21 -9t-31.5 -4z
M144 -9q-53 0 -85 28.5t-32 75.5q0 35 15.5 57t42 35.5t59 22.5t63.5 16q45 10 67.5 17t30.5 15.5t8 22.5l4 -136q-21 -70 -65 -112t-108 -42zM165 41q38 1 71 27t54 68t21 92q-11 -9 -35 -15.5t-50 -13.5q-36 -8 -67 -19t-49.5 -29.5t-17.5 -48.5q0 -30 20.5 -45.5
t52.5 -15.5zM99 472v48h249v-48h-249z" />
    <glyph glyph-name="aogonek.ss01" horiz-adv-x="465" 
d="M391 -199q-24 0 -44 9.5t-32 28t-12 44.5q0 27 14 49.5t34.5 39.5t41 28t34.5 16.5l14 5.5l3 -29l-14 -7t-32 -20.5t-31.5 -32t-13.5 -42.5q0 -18 11 -29.5t32 -11.5q18 0 28 7.5t14 15.5l4 8l39 -31l-9.5 -12t-29.5 -24.5t-51 -12.5zM381 -9q-19 0 -32.5 7t-21.5 18.5
t-11 27t-3 32.5v205q0 25 -14 42t-36 26t-48 9q-24 0 -48 -9t-40 -28t-18 -50h-61q5 48 30 78.5t62.5 44.5t76.5 14q40 0 76.5 -14t60 -43.5t23.5 -75.5v-181q0 -23 6 -35t15.5 -15t20 -1t18.5 6l6 -39q-2 -1 -9.5 -6t-21 -9t-31.5 -4zM144 -9q-53 0 -85 28.5t-32 75.5
q0 35 15.5 57t42 35.5t59 22.5t63.5 16q45 10 67.5 17t30.5 15.5t8 22.5l4 -136q-21 -70 -65 -112t-108 -42zM165 41q38 1 71 27t54 68t21 92q-11 -9 -35 -15.5t-50 -13.5q-36 -8 -67 -19t-49.5 -29.5t-17.5 -48.5q0 -30 20.5 -45.5t52.5 -15.5z" />
    <glyph glyph-name="aring.ss01" horiz-adv-x="465" 
d="M381 -9q-19 0 -32.5 7t-21.5 18.5t-11 27t-3 32.5v205q0 25 -14 42t-36 26t-48 9q-24 0 -48 -9t-40 -28t-18 -50h-61q5 48 30 78.5t62.5 44.5t76.5 14q40 0 76.5 -14t60 -43.5t23.5 -75.5v-181q0 -23 6 -35t15.5 -15t20 -1t18.5 6l6 -39q-2 -1 -9.5 -6t-21 -9t-31.5 -4z
M144 -9q-53 0 -85 28.5t-32 75.5q0 35 15.5 57t42 35.5t59 22.5t63.5 16q45 10 67.5 17t30.5 15.5t8 22.5l4 -136q-21 -70 -65 -112t-108 -42zM165 41q38 1 71 27t54 68t21 92q-11 -9 -35 -15.5t-50 -13.5q-36 -8 -67 -19t-49.5 -29.5t-17.5 -48.5q0 -30 20.5 -45.5
t52.5 -15.5zM223 467q-44 0 -67.5 24.5t-23.5 65.5q0 42 23 66.5t67 24.5q45 0 69 -24.5t24 -66.5q0 -39 -24 -64.5t-68 -25.5zM222 507q25 0 38.5 15t13.5 36q0 22 -13.5 37.5t-38.5 15.5t-38.5 -15.5t-13.5 -37.5t14.5 -36.5t37.5 -14.5z" />
    <glyph glyph-name="atilde.ss01" horiz-adv-x="465" 
d="M381 -9q-19 0 -32.5 7t-21.5 18.5t-11 27t-3 32.5v205q0 25 -14 42t-36 26t-48 9q-24 0 -48 -9t-40 -28t-18 -50h-61q5 48 30 78.5t62.5 44.5t76.5 14q40 0 76.5 -14t60 -43.5t23.5 -75.5v-181q0 -23 6 -35t15.5 -15t20 -1t18.5 6l6 -39q-2 -1 -9.5 -6t-21 -9t-31.5 -4z
M144 -9q-53 0 -85 28.5t-32 75.5q0 35 15.5 57t42 35.5t59 22.5t63.5 16q45 10 67.5 17t30.5 15.5t8 22.5l4 -136q-21 -70 -65 -112t-108 -42zM165 41q38 1 71 27t54 68t21 92q-11 -9 -35 -15.5t-50 -13.5q-36 -8 -67 -19t-49.5 -29.5t-17.5 -48.5q0 -30 20.5 -45.5
t52.5 -15.5zM108 472q-1 15 0.5 31t8 30t19.5 23t35 9q23 0 37 -8.5t23 -19t18.5 -19t23.5 -8.5q17 0 20 14t3 40h43q0 -17 -1.5 -34t-8.5 -30t-19.5 -21.5t-34.5 -8.5t-36 8.5t-23.5 19t-18.5 19t-23 8.5q-17 0 -20.5 -14t-3.5 -39h-42z" />
    <glyph glyph-name="f.ss01" horiz-adv-x="321" 
d="M278 290h-103v-290h-64v290h-82v53h249v-53zM161 341q-31 0 -62.5 12t-53 36.5t-21.5 62.5q0 32 18.5 57t51 39.5t72.5 14.5q45 0 79.5 -18.5t56.5 -48.5t28 -65h-63q0 4 -4.5 16t-15.5 26t-30.5 24t-50.5 10q-26 0 -45 -10t-29.5 -25.5t-10.5 -33.5q0 -22 11.5 -40.5
t35 -31t61 -19t89.5 -4.5z" />
    <glyph glyph-name="g.ss01" horiz-adv-x="461" 
d="M113 79q0 -23 16 -32t41.5 -10t52.5 -1q34 0 70 -4t66 -15t49 -34t19 -62q0 -43 -29.5 -68.5t-76 -37t-99.5 -12.5q-61 0 -106.5 11t-71 36.5t-24.5 66.5q1 27 13 48.5t35 34t57 12.5q-28 5 -46.5 20t-18.5 42q0 23 15.5 35.5t38 17.5t42.5 5q-56 11 -81.5 46.5
t-25.5 80.5q0 68 46.5 108.5t129.5 40.5h47.5t37.5 7t15 27q0 23 -23.5 29t-57.5 -6l-10 46q31 9 60.5 5.5t49 -19.5t19.5 -44q0 -18 -7 -29t-17 -17.5t-18.5 -10t-11.5 -4.5q39 -13 65 -50t26 -83q0 -37 -19 -69.5t-57.5 -51.5t-99.5 -19q-28 0 -53.5 -1t-41.5 -9t-16 -30z
M115 260q0 -36 15.5 -57.5t40.5 -30.5t53 -9q54 0 81 25t27 72q0 45 -25 74t-83 29q-41 0 -65 -14t-34 -37t-10 -52zM222 -146q38 0 70 6.5t51 22.5t19 42q0 28 -18.5 43t-50 20.5t-71.5 5.5q-39 0 -70 -4.5t-49.5 -19.5t-18.5 -45q0 -29 19.5 -44t51 -21t67.5 -6z" />
    <glyph glyph-name="gbreve.ss01" horiz-adv-x="461" 
d="M113 79q0 -23 16 -32t41.5 -10t52.5 -1q34 0 70 -4t66 -15t49 -34t19 -62q0 -43 -29.5 -68.5t-76 -37t-99.5 -12.5q-61 0 -106.5 11t-71 36.5t-24.5 66.5q1 27 13 48.5t35 34t57 12.5q-28 5 -46.5 20t-18.5 42q0 23 15.5 35.5t38 17.5t42.5 5q-56 11 -81.5 46.5
t-25.5 80.5q0 68 46.5 108.5t129.5 40.5h47.5t37.5 7t15 27q0 23 -23.5 29t-57.5 -6l-10 46q31 9 60.5 5.5t49 -19.5t19.5 -44q0 -18 -7 -29t-17 -17.5t-18.5 -10t-11.5 -4.5q39 -13 65 -50t26 -83q0 -37 -19 -69.5t-57.5 -51.5t-99.5 -19q-28 0 -53.5 -1t-41.5 -9t-16 -30z
M115 260q0 -36 15.5 -57.5t40.5 -30.5t53 -9q54 0 81 25t27 72q0 45 -25 74t-83 29q-41 0 -65 -14t-34 -37t-10 -52zM222 -146q38 0 70 6.5t51 22.5t19 42q0 28 -18.5 43t-50 20.5t-71.5 5.5q-39 0 -70 -4.5t-49.5 -19.5t-18.5 -45q0 -29 19.5 -44t51 -21t67.5 -6zM218 548
q-55 0 -86.5 24.5t-31.5 65.5h47q0 -31 21 -40t49 -9q29 0 49 9t20 40h48q0 -41 -30.5 -65.5t-85.5 -24.5z" />
    <glyph glyph-name="uni0123.ss01" horiz-adv-x="461" 
d="M113 79q0 -23 16 -32t41.5 -10t52.5 -1q34 0 70 -4t66 -15t49 -34t19 -62q0 -43 -29.5 -68.5t-76 -37t-99.5 -12.5q-61 0 -106.5 11t-71 36.5t-24.5 66.5q1 27 13 48.5t35 34t57 12.5q-28 5 -46.5 20t-18.5 42q0 23 15.5 35.5t38 17.5t42.5 5q-56 11 -81.5 46.5
t-25.5 80.5q0 68 46.5 108.5t129.5 40.5h47.5t37.5 7t15 27q0 23 -23.5 29t-57.5 -6l-10 46q31 9 60.5 5.5t49 -19.5t19.5 -44q0 -18 -7 -29t-17 -17.5t-18.5 -10t-11.5 -4.5q39 -13 65 -50t26 -83q0 -37 -19 -69.5t-57.5 -51.5t-99.5 -19q-28 0 -53.5 -1t-41.5 -9t-16 -30z
M115 260q0 -36 15.5 -57.5t40.5 -30.5t53 -9q54 0 81 25t27 72q0 45 -25 74t-83 29q-41 0 -65 -14t-34 -37t-10 -52zM222 -146q38 0 70 6.5t51 22.5t19 42q0 28 -18.5 43t-50 20.5t-71.5 5.5q-39 0 -70 -4.5t-49.5 -19.5t-18.5 -45q0 -29 19.5 -44t51 -21t67.5 -6zM219 546
h-32v9l51 103h59v-14z" />
    <glyph glyph-name="gdotaccent.ss01" horiz-adv-x="461" 
d="M113 79q0 -23 16 -32t41.5 -10t52.5 -1q34 0 70 -4t66 -15t49 -34t19 -62q0 -43 -29.5 -68.5t-76 -37t-99.5 -12.5q-61 0 -106.5 11t-71 36.5t-24.5 66.5q1 27 13 48.5t35 34t57 12.5q-28 5 -46.5 20t-18.5 42q0 23 15.5 35.5t38 17.5t42.5 5q-56 11 -81.5 46.5
t-25.5 80.5q0 68 46.5 108.5t129.5 40.5h47.5t37.5 7t15 27q0 23 -23.5 29t-57.5 -6l-10 46q31 9 60.5 5.5t49 -19.5t19.5 -44q0 -18 -7 -29t-17 -17.5t-18.5 -10t-11.5 -4.5q39 -13 65 -50t26 -83q0 -37 -19 -69.5t-57.5 -51.5t-99.5 -19q-28 0 -53.5 -1t-41.5 -9t-16 -30z
M115 260q0 -36 15.5 -57.5t40.5 -30.5t53 -9q54 0 81 25t27 72q0 45 -25 74t-83 29q-41 0 -65 -14t-34 -37t-10 -52zM222 -146q38 0 70 6.5t51 22.5t19 42q0 28 -18.5 43t-50 20.5t-71.5 5.5q-39 0 -70 -4.5t-49.5 -19.5t-18.5 -45q0 -29 19.5 -44t51 -21t67.5 -6zM218 555
q-25 0 -33.5 13t-8.5 30q0 16 8.5 28.5t33.5 12.5t33 -12.5t8 -28.5q0 -17 -8 -30t-33 -13z" />
    <glyph glyph-name="lcaron.ss01" horiz-adv-x="167" 
d="M52 0v563h63v-563h-63zM160 424l34 147h63l-59 -147h-38z" />
    <glyph glyph-name="x.ss01" horiz-adv-x="357" 
d="M55 352l35 35l212 -212l-35 -35zM55 176l213 211l34 -34l-212 -212z" />
    <glyph glyph-name="f_f.dlig" horiz-adv-x="523" 
d="M76 -3v500q0 35 15 55t51 20h121v-53h-122v-522h-65zM13 359v48h243v-48h-243zM332 -3v500q0 35 14.5 55t51.5 20h120v-53h-121v-522h-65zM256 359v48h256v-48h-256z" />
    <glyph glyph-name="f_i.dlig" horiz-adv-x="429" 
d="M76 -3v500q0 35 15 55t51 20h121v-53h-122v-522h-65zM13 359v48h321v-48h-321zM314 0v407h10h22.5h22h9.5v-407h-64z" />
    <glyph glyph-name="f_t.dlig" horiz-adv-x="522" 
d="M76 -3v500q0 35 15 55t51 20h121v-53h-122v-522h-65zM13 359v48h243v-48h-243zM386 0q-36 0 -51 20t-15 55v293h62v-316h95v-52h-91zM256 359v48q24 0 38.5 2.5t21.5 12t9 31.5t2 59h55v-105h94v-48h-220z" />
    <glyph glyph-name="t_t.dlig" horiz-adv-x="515" 
d="M140 0q-36 0 -51 20t-15 55v293h62v-316h95v-52h-91zM10 359v48q24 0 38.5 2.5t21.5 12t9 31.5t2 59h55v-105h113v-48h-239zM379 0q-36 0 -51 20t-15 55v293h62v-316h95v-52h-91zM249 359v48q24 0 38.5 2.5t21.5 12t9 31.5t2 59h55v-105h94v-48h-220z" />
    <glyph glyph-name="zero.dnom" horiz-adv-x="254" 
d="M127 -11q-57 0 -84.5 38.5t-27.5 105.5t26.5 105.5t85.5 38.5q58 0 85 -38t27 -106q0 -65 -27 -104.5t-85 -39.5zM127 22q39 0 57 28t18 83t-17.5 83t-57.5 28q-38 0 -56 -27.5t-18 -83.5q0 -55 17.5 -83t56.5 -28z" />
    <glyph glyph-name="one.dnom" horiz-adv-x="169" 
d="M75 12v218q-6 -22 -19 -33t-25 -15t-16 -4v45q4 -1 19.5 2t29.5 14.5t15 37.5h36v-265h-40zM30 0v36h124v-36h-124z" />
    <glyph glyph-name="two.dnom" horiz-adv-x="236" 
d="M15 0v34q4 1 25 14t48 33t50 43.5t31 46.5q12 30 -3.5 51t-48.5 21q-27 0 -44 -17.5t-14 -53.5l-37 5q-4 47 25 73.5t74 26.5q33 0 56.5 -14.5t32.5 -38.5t-2 -53q-7 -22 -26.5 -44.5t-44 -42.5t-46.5 -33t-34 -16h164v-35h-206z" />
    <glyph glyph-name="three.dnom" horiz-adv-x="239" 
d="M123 -11q-45 0 -76.5 23.5t-31.5 71.5l39 6q1 -33 21.5 -49.5t48.5 -16.5q26 0 44 14.5t18 36.5q0 19 -9 30t-22 15.5t-24 4.5h-34v22h35q21 0 35 13t14 31q0 25 -16.5 38.5t-44.5 13.5q-21 0 -35 -9t-20.5 -22t-7.5 -24l-36 5q0 8 5 21.5t16 28t30 24.5t48 10
q45 0 71.5 -21t26.5 -57q0 -22 -13 -40.5t-36 -22.5q23 -4 39 -22.5t16 -44.5q0 -36 -28.5 -58t-72.5 -22z" />
    <glyph glyph-name="four.dnom" horiz-adv-x="251" 
d="M15 56v36q33 15 57.5 46t39 68.5t14.5 70.5h45q0 -51 -31.5 -101.5t-81.5 -83.5h178v-36h-221zM158 0v138h41v-138h-41z" />
    <glyph glyph-name="five.dnom" horiz-adv-x="240" 
d="M119 -11q-31 0 -52.5 10t-34 27.5t-17.5 37.5l41 5q1 -3 6.5 -14.5t19 -21.5t38.5 -10q31 0 48 19t17 41q1 23 -14.5 42.5t-48.5 19.5q-21 0 -33.5 -7t-18 -14t-5.5 -8l-42 8l15 142h174v-36h-145l-9 -91l7 9t23.5 17.5t44.5 8.5q49 0 71 -28t21 -63q-1 -36 -29 -65
t-77 -29z" />
    <glyph glyph-name="six.dnom" horiz-adv-x="244" 
d="M125 -11q-38 0 -62.5 19t-36 51t-11.5 71q0 37 13 70.5t40 55t66 21.5q27 0 44 -8.5t26.5 -18.5t13.5 -18.5l4 -8.5l-40 -9l-4.5 7t-15.5 14t-30 7q-23 0 -42.5 -16t-29.5 -45.5t-5 -71.5q1 10 9.5 26t27 28.5t45.5 12.5q48 0 70 -26.5t22 -58.5q0 -39 -26 -70.5
t-78 -31.5zM128 22q31 0 47.5 21t16.5 47q0 23 -16 41.5t-47 18.5q-30 0 -49 -22t-19 -50q5 -25 24 -40.5t43 -15.5z" />
    <glyph glyph-name="seven.dnom" horiz-adv-x="234" 
d="M58 0q0 85 32.5 139.5t88.5 89.5h-164v37h204v-36q-15 -10 -35 -25.5t-39.5 -41.5t-32 -66t-12.5 -97h-42z" />
    <glyph glyph-name="eight.dnom" horiz-adv-x="253" 
d="M126 -11q-48 0 -79.5 21t-31.5 59q0 27 18 47t48 26q-21 4 -32 15t-14.5 24t-3.5 21q0 33 26.5 54t68.5 21q43 0 69.5 -21t26.5 -54q0 -8 -3.5 -21t-14.5 -24t-33 -15q30 -6 48.5 -25.5t18.5 -47.5q0 -39 -32.5 -59.5t-79.5 -20.5zM126 22q34 0 53 15.5t19 38.5
q0 27 -19 41t-53 14q-33 0 -52.5 -14t-19.5 -41q0 -23 19.5 -38.5t52.5 -15.5zM126 151q27 0 43.5 11t16.5 33q0 24 -17 36.5t-43 12.5q-27 0 -43.5 -13t-16.5 -36q0 -22 17 -33t43 -11z" />
    <glyph glyph-name="nine.dnom" horiz-adv-x="246" 
d="M110 -11q-27 0 -44 8t-26.5 18.5t-13.5 19l-4 8.5l40 8l4.5 -6.5t15.5 -13.5t30 -7q23 0 42.5 16t29.5 45.5t5 70.5q-1 -9 -9.5 -25t-26.5 -28.5t-46 -12.5q-48 0 -70 27t-22 58q0 38 26.5 70t77.5 32q38 0 62.5 -19.5t36 -51.5t11.5 -70q0 -37 -13 -71t-39.5 -55
t-66.5 -21zM115 116q31 0 49.5 21.5t18.5 49.5q-5 26 -23.5 41t-43.5 15q-31 0 -47.5 -20.5t-16.5 -47.5q0 -22 16 -40.5t47 -18.5z" />
    <glyph glyph-name="zero.numr" horiz-adv-x="254" 
d="M127 279q-57 0 -84.5 38.5t-27.5 105.5t26.5 105.5t85.5 38.5q58 0 85 -38t27 -106q0 -65 -27 -104.5t-85 -39.5zM127 312q39 0 57 28t18 83t-17.5 83t-57.5 28q-38 0 -56 -27.5t-18 -83.5q0 -55 17.5 -83t56.5 -28z" />
    <glyph glyph-name="one.numr" horiz-adv-x="169" 
d="M75 302v218q-6 -22 -19 -33t-25 -15t-16 -4v45q4 -1 19.5 2t29.5 14.5t15 37.5h36v-265h-40zM30 290v36h124v-36h-124z" />
    <glyph glyph-name="two.numr" horiz-adv-x="236" 
d="M15 290v34q4 1 25 14t48 33t50 43.5t31 46.5q12 30 -3.5 51t-48.5 21q-27 0 -44 -17.5t-14 -53.5l-37 5q-4 47 25 73.5t74 26.5q33 0 56.5 -14.5t32.5 -38.5t-2 -53q-7 -22 -26.5 -44.5t-44 -42.5t-46.5 -33t-34 -16h164v-35h-206z" />
    <glyph glyph-name="three.numr" horiz-adv-x="239" 
d="M123 279q-45 0 -76.5 23.5t-31.5 71.5l39 6q1 -33 21.5 -49.5t48.5 -16.5q26 0 44 14.5t18 36.5q0 19 -9 30t-22 15.5t-24 4.5h-34v22h35q21 0 35 13t14 31q0 25 -16.5 38.5t-44.5 13.5q-21 0 -35 -9t-20.5 -22t-7.5 -24l-36 5q0 8 5 21.5t16 28t30 24.5t48 10
q45 0 71.5 -21t26.5 -57q0 -22 -13 -40.5t-36 -22.5q23 -4 39 -22.5t16 -44.5q0 -36 -28.5 -58t-72.5 -22z" />
    <glyph glyph-name="four.numr" horiz-adv-x="251" 
d="M15 346v36q33 15 57.5 46t39 68.5t14.5 70.5h45q0 -51 -31.5 -101.5t-81.5 -83.5h178v-36h-221zM158 290v138h41v-138h-41z" />
    <glyph glyph-name="five.numr" horiz-adv-x="240" 
d="M119 279q-31 0 -52.5 10t-34 27.5t-17.5 37.5l41 5q1 -3 6.5 -14.5t19 -21.5t38.5 -10q31 0 48 19t17 41q1 23 -14.5 42.5t-48.5 19.5q-21 0 -33.5 -7t-18 -14t-5.5 -8l-42 8l15 142h174v-36h-145l-9 -91l7 9t23.5 17.5t44.5 8.5q49 0 71 -28t21 -63q-1 -36 -29 -65
t-77 -29z" />
    <glyph glyph-name="six.numr" horiz-adv-x="244" 
d="M125 279q-38 0 -62.5 19t-36 51t-11.5 71q0 37 13 70.5t40 55t66 21.5q27 0 44 -8.5t26.5 -18.5t13.5 -18.5l4 -8.5l-40 -9l-4.5 7t-15.5 14t-30 7q-23 0 -42.5 -16t-29.5 -45.5t-5 -71.5q1 10 9.5 26t27 28.5t45.5 12.5q48 0 70 -26.5t22 -58.5q0 -39 -26 -70.5
t-78 -31.5zM128 312q31 0 47.5 21t16.5 47q0 23 -16 41.5t-47 18.5q-30 0 -49 -22t-19 -50q5 -25 24 -40.5t43 -15.5z" />
    <glyph glyph-name="seven.numr" horiz-adv-x="234" 
d="M58 290q0 85 32.5 139.5t88.5 89.5h-164v37h204v-36q-15 -10 -35 -25.5t-39.5 -41.5t-32 -66t-12.5 -97h-42z" />
    <glyph glyph-name="eight.numr" horiz-adv-x="253" 
d="M126 279q-48 0 -79.5 21t-31.5 59q0 27 18 47t48 26q-21 4 -32 15t-14.5 24t-3.5 21q0 33 26.5 54t68.5 21q43 0 69.5 -21t26.5 -54q0 -8 -3.5 -21t-14.5 -24t-33 -15q30 -6 48.5 -25.5t18.5 -47.5q0 -39 -32.5 -59.5t-79.5 -20.5zM126 312q34 0 53 15.5t19 38.5
q0 27 -19 41t-53 14q-33 0 -52.5 -14t-19.5 -41q0 -23 19.5 -38.5t52.5 -15.5zM126 441q27 0 43.5 11t16.5 33q0 24 -17 36.5t-43 12.5q-27 0 -43.5 -13t-16.5 -36q0 -22 17 -33t43 -11z" />
    <glyph glyph-name="nine.numr" horiz-adv-x="246" 
d="M110 279q-27 0 -44 8t-26.5 18.5t-13.5 19l-4 8.5l40 8l4.5 -6.5t15.5 -13.5t30 -7q23 0 42.5 16t29.5 45.5t5 70.5q-1 -9 -9.5 -25t-26.5 -28.5t-46 -12.5q-48 0 -70 27t-22 58q0 38 26.5 70t77.5 32q38 0 62.5 -19.5t36 -51.5t11.5 -70q0 -37 -13 -71t-39.5 -55
t-66.5 -21zM115 406q31 0 49.5 21.5t18.5 49.5q-5 26 -23.5 41t-43.5 15q-31 0 -47.5 -20.5t-16.5 -47.5q0 -22 16 -40.5t47 -18.5z" />
    <glyph glyph-name="zero.subs" horiz-adv-x="254" 
d="M127 -150q-57 0 -84.5 38.5t-27.5 105.5t26.5 105.5t85.5 38.5q58 0 85 -38t27 -106q0 -65 -27 -104.5t-85 -39.5zM127 -117q39 0 57 28t18 83t-17.5 83t-57.5 28q-38 0 -56 -27.5t-18 -83.5q0 -55 17.5 -83t56.5 -28z" />
    <glyph glyph-name="one.subs" horiz-adv-x="169" 
d="M75 -127v218q-6 -22 -19 -33t-25 -15t-16 -4v45q4 -1 19.5 2t29.5 14.5t15 37.5h36v-265h-40zM30 -139v36h124v-36h-124z" />
    <glyph glyph-name="two.subs" horiz-adv-x="236" 
d="M15 -139v34q4 1 25 14t48 33t50 43.5t31 46.5q12 30 -3.5 51t-48.5 21q-27 0 -44 -17.5t-14 -53.5l-37 5q-4 47 25 73.5t74 26.5q33 0 56.5 -14.5t32.5 -38.5t-2 -53q-7 -22 -26.5 -44.5t-44 -42.5t-46.5 -33t-34 -16h164v-35h-206z" />
    <glyph glyph-name="three.subs" horiz-adv-x="239" 
d="M123 -150q-45 0 -76.5 23.5t-31.5 71.5l39 6q1 -33 21.5 -49.5t48.5 -16.5q26 0 44 14.5t18 36.5q0 19 -9 30t-22 15.5t-24 4.5h-34v22h35q21 0 35 13t14 31q0 25 -16.5 38.5t-44.5 13.5q-21 0 -35 -9t-20.5 -22t-7.5 -24l-36 5q0 8 5 21.5t16 28t30 24.5t48 10
q45 0 71.5 -21t26.5 -57q0 -22 -13 -40.5t-36 -22.5q23 -4 39 -22.5t16 -44.5q0 -36 -28.5 -58t-72.5 -22z" />
    <glyph glyph-name="four.subs" horiz-adv-x="251" 
d="M15 -83v36q33 15 57.5 46t39 68.5t14.5 70.5h45q0 -51 -31.5 -101.5t-81.5 -83.5h178v-36h-221zM158 -139v138h41v-138h-41z" />
    <glyph glyph-name="five.subs" horiz-adv-x="240" 
d="M119 -149q-31 0 -52.5 10t-34 27.5t-17.5 37.5l41 5q1 -3 6.5 -14.5t19 -21.5t38.5 -10q31 0 48 19t17 41q1 23 -14.5 42.5t-48.5 19.5q-21 0 -33.5 -7t-18 -14t-5.5 -8l-42 8l15 142h174v-36h-145l-9 -91l7 9t23.5 17.5t44.5 8.5q49 0 71 -28t21 -63q-1 -36 -29 -65
t-77 -29z" />
    <glyph glyph-name="six.subs" horiz-adv-x="244" 
d="M125 -150q-38 0 -62.5 19t-36 51t-11.5 71q0 37 13 70.5t40 55t66 21.5q27 0 44 -8.5t26.5 -18.5t13.5 -18.5l4 -8.5l-40 -9l-4.5 7t-15.5 14t-30 7q-23 0 -42.5 -16t-29.5 -45.5t-5 -71.5q1 10 9.5 26t27 28.5t45.5 12.5q48 0 70 -26.5t22 -58.5q0 -39 -26 -70.5
t-78 -31.5zM128 -117q31 0 47.5 21t16.5 47q0 23 -16 41.5t-47 18.5q-30 0 -49 -22t-19 -50q5 -25 24 -40.5t43 -15.5z" />
    <glyph glyph-name="seven.subs" horiz-adv-x="234" 
d="M58 -139q0 85 32.5 139.5t88.5 89.5h-164v37h204v-36q-15 -10 -35 -25.5t-39.5 -41.5t-32 -66t-12.5 -97h-42z" />
    <glyph glyph-name="eight.subs" horiz-adv-x="253" 
d="M126 -150q-48 0 -79.5 21t-31.5 59q0 27 18 47t48 26q-21 4 -32 15t-14.5 24t-3.5 21q0 33 26.5 54t68.5 21q43 0 69.5 -21t26.5 -54q0 -8 -3.5 -21t-14.5 -24t-33 -15q30 -6 48.5 -25.5t18.5 -47.5q0 -39 -32.5 -59.5t-79.5 -20.5zM126 -117q34 0 53 15.5t19 38.5
q0 27 -19 41t-53 14q-33 0 -52.5 -14t-19.5 -41q0 -23 19.5 -38.5t52.5 -15.5zM126 12q27 0 43.5 11t16.5 33q0 24 -17 36.5t-43 12.5q-27 0 -43.5 -13t-16.5 -36q0 -22 17 -33t43 -11z" />
    <glyph glyph-name="nine.subs" horiz-adv-x="246" 
d="M110 -150q-27 0 -44 8t-26.5 18.5t-13.5 19l-4 8.5l40 8l4.5 -6.5t15.5 -13.5t30 -7q23 0 42.5 16t29.5 45.5t5 70.5q-1 -9 -9.5 -25t-26.5 -28.5t-46 -12.5q-48 0 -70 27t-22 58q0 38 26.5 70t77.5 32q38 0 62.5 -19.5t36 -51.5t11.5 -70q0 -37 -13 -71t-39.5 -55
t-66.5 -21zM115 -23q31 0 49.5 21.5t18.5 49.5q-5 26 -23.5 41t-43.5 15q-31 0 -47.5 -20.5t-16.5 -47.5q0 -22 16 -40.5t47 -18.5z" />
    <glyph glyph-name="zero.sups" horiz-adv-x="254" 
d="M127 403q-57 0 -84.5 37.5t-27.5 101.5q0 62 26.5 100t85.5 38q58 0 85 -37.5t27 -100.5q0 -61 -27 -100t-85 -39zM127 436q39 0 57 27.5t18 78.5q0 50 -17.5 77t-57.5 27q-38 0 -56 -26t-18 -78q0 -51 17.5 -78.5t56.5 -27.5z" />
    <glyph glyph-name="five.sups" horiz-adv-x="240" 
d="M119 397q-31 0 -52.5 10.5t-34 27.5t-17.5 37l41 6q1 -3 6.5 -14.5t19 -21.5t38.5 -10q31 0 47.5 18.5t17.5 39.5q2 23 -14 43.5t-49 20.5q-21 0 -33.5 -7.5t-18 -14t-5.5 -7.5l-42 8l15 141h174v-36h-145l-9 -90l7 8.5t23.5 17t44.5 8.5q49 0 71.5 -29t20.5 -64
q-2 -34 -29.5 -63t-76.5 -29z" />
    <glyph glyph-name="six.sups" horiz-adv-x="244" 
d="M125 397q-57 0 -83.5 39t-26.5 93q0 37 13 70t40 54t66 21q27 0 44 -8t26.5 -18t13.5 -18.5l4 -8.5l-40 -8l-4.5 6.5t-15.5 13t-30 6.5q-23 0 -42.5 -15.5t-29.5 -44.5t-5 -70q1 10 10 26t28 28.5t49 11.5q36 -1 57.5 -19t27 -44t-4 -52.5t-33.5 -44.5t-64 -18zM128 431
q30 0 46 17.5t17 40t-13 40.5t-45 20q-33 1 -52.5 -21t-19.5 -49q5 -23 24 -35.5t43 -12.5z" />
    <glyph glyph-name="seven.sups" horiz-adv-x="234" 
d="M51 407q0 57 16.5 102.5t45.5 80.5t66 58h-164v36h204v-35q-15 -10 -36 -27.5t-41.5 -45.5t-34.5 -69.5t-14 -99.5h-42z" />
    <glyph glyph-name="eight.sups" horiz-adv-x="253" 
d="M126 397q-48 0 -79.5 20.5t-31.5 57.5q0 26 18 44.5t48 23.5q-21 5 -32 15.5t-14.5 23t-3.5 20.5q0 32 26.5 52t68.5 20q43 0 69.5 -20.5t26.5 -51.5q0 -8 -3.5 -20.5t-14.5 -23t-33 -15.5q30 -5 48.5 -23t18.5 -45q0 -39 -32.5 -58.5t-79.5 -19.5zM126 429q34 0 53 14.5
t19 37.5q0 27 -19 39.5t-53 12.5q-33 0 -52.5 -12.5t-19.5 -39.5q0 -23 19.5 -37.5t52.5 -14.5zM126 554q27 0 43.5 9.5t16.5 31.5q0 23 -17 35t-43 12q-27 0 -43.5 -12.5t-16.5 -34.5t17 -31.5t43 -9.5z" />
    <glyph glyph-name="nine.sups" horiz-adv-x="246" 
d="M120 397q-30 0 -49 8.5t-30 20t-15.5 20l-4.5 8.5l38 10q1 0 6.5 -8t18.5 -15.5t36 -7.5q24 0 40.5 14t24.5 42.5t6 71.5q-1 -10 -10 -25t-27 -27t-47 -12q-38 0 -60.5 17.5t-28.5 44.5t3 53.5t33.5 44t65.5 17.5q40 0 65 -19.5t36.5 -51t9.5 -69.5q-2 -39 -13 -70
t-34.5 -49t-63.5 -18zM116 522q31 0 49 19t21 47q-6 26 -23 39.5t-43 13.5q-25 0 -40.5 -12t-21.5 -29.5t-1.5 -35t19.5 -30t40 -12.5z" />
    <glyph glyph-name="hyphen_greater.dlig" horiz-adv-x="493" 
d="M458 200q-47 0 -76.5 15t-46.5 37.5t-24.5 44.5t-9 37t-1.5 16h44q0 -1 2.5 -16t13 -34t33.5 -33t65 -14v-53zM35 200v53h423v-53h-423zM300 103l1.5 15.5t9 38t24.5 44.5t46.5 37t76.5 15v-53q-42 0 -65 -14t-33.5 -33t-13 -33.5t-2.5 -16.5h-44z" />
    <glyph glyph-name="parenleft_greater.dlig" horiz-adv-x="657" 
d="M329 -21q-61 0 -114 23t-93.5 63t-63.5 93.5t-23 114.5q0 60 23 113t63.5 93.5t93.5 63.5t114 23t114 -23t93.5 -63.5t63 -93.5t22.5 -113q0 -61 -22.5 -114.5t-63 -93.5t-93.5 -63t-114 -23zM329 17q53 0 99.5 20t81 55t54.5 81t20 99t-20 99.5t-54.5 81.5t-81 55
t-99.5 20q-52 0 -99 -20t-82 -55t-55 -81.5t-20 -99.5t20 -99t55 -81t82 -55t99 -20zM294 203l105 71l-105 67v-138zM257 137v268l202 -130z" />
    <glyph glyph-name="colon_parenleft.dlig" horiz-adv-x="657" 
d="M329 -14q-61 0 -114.5 23t-93.5 63t-63 93.5t-23 114.5q0 60 23 113t63 93.5t93.5 63.5t114.5 23q60 0 113 -23t93.5 -63.5t63.5 -93.5t23 -113q0 -61 -23 -114.5t-63.5 -93.5t-93.5 -63t-113 -23zM162 125q6 63 51.5 103.5t115.5 40.5q48 0 84 -19t58.5 -51.5
t25.5 -73.5h-46q0 14 -6 32t-20 34.5t-37.5 28.5t-58.5 12t-58.5 -12t-37.5 -28.5t-19.5 -34.5t-5.5 -32h-46zM194 277v135h44v-135h-44zM329 25q52 0 98.5 20t81.5 54.5t55 81t20 99.5q0 52 -20 98.5t-55 81t-81.5 54.5t-98.5 20t-99 -20t-81.5 -54.5t-54.5 -81t-20 -98.5
q0 -53 20 -99.5t54.5 -81t81.5 -54.5t99 -20zM420 277v135h44v-135h-44z" />
    <glyph glyph-name="colon_parenright.dlig" horiz-adv-x="657" 
d="M329 -14q-61 0 -114.5 23t-93.5 63t-63 93.5t-23 114.5q0 60 23 113t63 93.5t93.5 63.5t114.5 23q60 0 113 -23t93.5 -63.5t63.5 -93.5t23 -113q0 -61 -23 -114.5t-63.5 -93.5t-93.5 -63t-113 -23zM329 86q-56 0 -98 25.5t-66 69t-28 97.5h46q0 -2 1.5 -18.5t9 -39
t23 -45.5t43 -37.5t69.5 -14.5q45 0 73 15.5t43 38.5t21.5 46.5t7.5 39l1 15.5h46q-3 -57 -27 -100t-66 -67.5t-99 -24.5zM194 277v135h44v-135h-44zM329 25q52 0 98.5 20t81.5 54.5t55 81t20 99.5q0 52 -20 98.5t-55 81t-81.5 54.5t-98.5 20t-99 -20t-81.5 -54.5t-54.5 -81
t-20 -98.5q0 -53 20 -99.5t54.5 -81t81.5 -54.5t99 -20zM420 277v135h44v-135h-44z" />
    <glyph glyph-name="periodcentered.case" horiz-adv-x="211" 
d="M101 242q-33 0 -44.5 16.5t-11.5 39.5q0 22 11.5 38.5t44.5 16.5q34 0 44.5 -16.5t10.5 -38.5q0 -23 -10.5 -39.5t-44.5 -16.5z" />
    <glyph glyph-name="bullet.case" horiz-adv-x="225" 
d="M101 242q-33 0 -44.5 16.5t-11.5 39.5q0 22 11.5 38.5t44.5 16.5q34 0 44.5 -16.5t10.5 -38.5q0 -23 -10.5 -39.5t-44.5 -16.5z" />
    <glyph glyph-name="hyphen.case" horiz-adv-x="317" 
d="M40 248v49h222v-49h-222z" />
    <glyph glyph-name="endash.case" horiz-adv-x="410" 
d="M40 248v49h315v-49h-315z" />
    <glyph glyph-name="emdash.case" horiz-adv-x="537" 
d="M40 248v49h442v-49h-442z" />
    <glyph glyph-name="parenleft.case" horiz-adv-x="291" 
d="M232 -146l-19 16t-47 47.5t-56 79t-47.5 112t-19.5 144.5q0 82 19.5 146.5t47.5 113t56 80t47 47.5l19 16l49 -50q-3 -3 -23.5 -17t-49 -41t-56 -68t-46 -97.5t-18.5 -129.5q0 -74 19.5 -131t48 -97.5t57.5 -66.5t48.5 -38.5l19.5 -12.5z" />
    <glyph glyph-name="parenright.case" horiz-adv-x="281" 
d="M49 -146l-49 53l19.5 12.5t48.5 38.5t57.5 66.5t48 97.5t19.5 131q0 73 -18.5 129.5t-46 97.5t-56 68t-49 41t-23.5 17l49 50l19 -16t47.5 -47.5t56 -80t47 -113t19.5 -146.5q0 -80 -19.5 -144.5t-47 -112t-56 -79t-47.5 -47.5z" />
    <glyph glyph-name="braceleft.case" horiz-adv-x="296" 
d="M273 -143q-66 -10 -105 -2.5t-56.5 35t-19 77.5t7.5 124q6 51 1 78.5t-16.5 39t-26 14.5t-25.5 3v63q11 0 25.5 2.5t26 14t16.5 39.5t-1 78q-8 74 -7 123t18.5 76.5t56.5 35t105 -1.5v-59q-55 12 -82 5.5t-34.5 -30t-4 -61t10.5 -86.5q8 -48 6 -81t-21.5 -54t-63.5 -34
q44 -12 63.5 -32.5t21.5 -53.5t-6 -81q-7 -49 -10.5 -86.5t4 -61t34.5 -30t82 5.5v-60z" />
    <glyph glyph-name="braceright.case" horiz-adv-x="309" 
d="M37 -143v60q55 -12 81.5 -5.5t34.5 30t4 61t-10 86.5q-8 48 -6.5 81t21 53.5t64.5 32.5q-45 13 -64.5 34t-20.5 54t6 81q6 49 10 86.5t-4 61t-34.5 30t-81.5 -5.5v59q70 6 109 -2t55.5 -34.5t16.5 -74.5t-9 -122q-6 -50 -1 -78t17 -39.5t26 -14t25 -2.5v-63q-11 0 -25 -3
t-26 -14.5t-17 -39t1 -78.5q9 -74 9.5 -122.5t-16 -75t-56 -34.5t-109.5 -2z" />
    <glyph glyph-name="bracketleft.case" horiz-adv-x="251" 
d="M35 -146v802h203v-60h-142v-682h142v-60h-203z" />
    <glyph glyph-name="bracketright.case" horiz-adv-x="264" 
d="M35 -146v60h148v682h-142v60h203v-802h-209z" />
    <glyph glyph-name="less_hyphen.dlig" horiz-adv-x="512" 
d="M35 200v53q42 0 65.5 14t34 33t12.5 34t2 16h44q0 -1 -1.5 -16t-9 -37t-24 -44.5t-46.5 -37.5t-77 -15zM458 200h-423v53h423v-53zM193 103h-44q0 2 -2 16.5t-12.5 33.5t-34 33t-65.5 14v53q47 0 77 -15t46.5 -37t24 -44.5t9 -38z" />
    <glyph glyph-name="less_three.dlig" horiz-adv-x="498" 
d="M243 0q-55 20 -98.5 58t-72 84t-41 93t-6 86t33.5 63t77 24q48 0 72.5 -31t33.5 -76q9 49 36.5 78t70.5 29q52 0 79.5 -24t34 -63.5t-6.5 -86.5t-42 -93t-72.5 -83.5t-98.5 -57.5zM242 54q40 15 70.5 42t52 60t31.5 67t7 62t-21 45.5t-52 17.5q-22 0 -36 -10.5t-21.5 -28
t-10.5 -39t-3 -45.5h-33q0 24 -3.5 46t-11.5 39.5t-21.5 27.5t-35.5 10q-33 0 -50 -17.5t-19.5 -46t8 -62.5t31.5 -67t51.5 -60t66.5 -41z" />
    <glyph glyph-name="plus.case" horiz-adv-x="373" 
d="M162 138v273h49v-273h-49zM50 251v49h273v-49h-273z" />
    <glyph glyph-name="minus.case" horiz-adv-x="373" 
d="M76 252v48h222v-48h-222z" />
    </font>
</defs>
</svg>
