<?xml version="1.0" standalone="no"?>
<!DOCTYPE svg PUBLIC "-//W3C//DTD SVG 1.1//EN" "http://www.w3.org/Graphics/SVG/1.1/DTD/svg11.dtd" >
<svg xmlns="http://www.w3.org/2000/svg" xmlns:xlink="http://www.w3.org/1999/xlink" version="1.1">
<metadata>
Created by FontForge 20201107 at Wed Apr 26 11:17:09 2023
 By 
Copyright 2019 The Darker Grotesque Project Authors (https://github.com/bettergui/DarkerGrotesque)
</metadata>
<defs>
<font id="DarkerGrotesque-ExtraBold" horiz-adv-x="468" >
  <font-face 
    font-family="Darker Grotesque ExtraBold"
    font-weight="800"
    font-stretch="normal"
    units-per-em="1000"
    panose-1="0 0 0 0 0 0 0 0 0 0"
    ascent="800"
    descent="-200"
    x-height="412"
    cap-height="563"
    bbox="-145 -275 1805 951"
    underline-thickness="50"
    underline-position="-125"
    unicode-range="U+000D-240D"
  />
<missing-glyph horiz-adv-x="585" 
d="M62 -128v748h461v-748h-461zM183 -25h219v542h-219v-542z" />
    <glyph glyph-name="w_w_w.liga" unicode="www" horiz-adv-x="1830" 
d="M96 0l-89 394v20h119l56 -313h2l80 313h103l84 -313h2l56 313h118v-20l-91 -394h-168l-51 205h-2l-48 -205h-171zM685 0l-89 394v20h119l56 -313h2l80 313h103l84 -313h2l56 313h118v-20l-91 -394h-168l-51 205h-2l-48 -205h-171zM1274 0l-89 394v20h119l56 -313h2
l80 313h103l84 -313h2l56 313h118v-20l-91 -394h-168l-51 205h-2l-48 -205h-171z" />
    <glyph glyph-name=".notdef" horiz-adv-x="585" 
d="M62 -128v748h461v-748h-461zM183 -25h219v542h-219v-542z" />
    <glyph glyph-name=".null" horiz-adv-x="0" 
 />
    <glyph glyph-name="nonmarkingreturn" horiz-adv-x="333" 
 />
    <glyph glyph-name="CR" unicode="&#xd;" horiz-adv-x="600" 
 />
    <glyph glyph-name="space" unicode=" " horiz-adv-x="209" 
 />
    <glyph glyph-name="exclam" unicode="!" horiz-adv-x="238" 
d="M127 -9q-42 0 -55.5 20.5t-13.5 48.5t14 48t55 20q40 0 54.5 -19.5t14.5 -48.5t-14.5 -49t-54.5 -20zM86 180q-8 65 -17 122.5t-14 105.5t-1.5 82.5t20.5 53.5t52 19t52 -19t20.5 -54.5t-1 -83.5t-14 -105t-17.5 -121l-10.5 2.5t-29.5 2.5q-14 0 -27 -2.5z" />
    <glyph glyph-name="quotedbl" unicode="&#x22;" horiz-adv-x="381" 
d="M39 326v76h27q27 0 38.5 6.5t11.5 26.5q-43 -1 -59.5 18t-16.5 46t15 45.5t51 18.5q28 0 45 -17t17 -70q0 -40 -10 -74t-32 -55t-59 -21h-28zM222 326v76h27q27 0 38.5 6.5t11.5 26.5q-43 -1 -59.5 18t-16.5 46t15 45.5t51 18.5q28 0 45 -17t17 -70q0 -40 -10 -74
t-32 -55t-59 -21h-28z" />
    <glyph glyph-name="numbersign" unicode="#" horiz-adv-x="689" 
d="M64 0l133 321l78 242h112l-137 -330l-75 -233h-111zM19 129v104h556v-104h-556zM265 0l133 321l78 242h112l-136 -330l-74 -233h-113zM74 320v104h553v-104h-553z" />
    <glyph glyph-name="dollar" unicode="$" horiz-adv-x="561" 
d="M287 -11q-52 0 -104.5 20t-90 64t-47.5 115l119 21q0 -2 2 -14t8.5 -28.5t20 -32.5t37 -27t59.5 -11q19 0 36 4t30.5 12t21.5 18.5t8 24.5q0 24 -18.5 39t-48.5 24t-66 17.5t-71 20.5t-64 32t-45 52t-13 80q3 46 29.5 80.5t77 53.5t123.5 19q59 0 109.5 -21.5t81.5 -65
t30 -110.5l-114 -18q0 38 -15 59.5t-37.5 31t-43.5 11.5t-32 2q-29 0 -55.5 -13.5t-28.5 -43.5q0 -26 18.5 -41t49.5 -24t67.5 -17t72 -19.5t65.5 -30.5t46.5 -50.5t13.5 -80.5q-3 -48 -36 -82.5t-85 -52.5t-111 -18zM236 -108l8 113h104l8 -113h-120zM244 550l-8 121h120
l-8 -121h-104z" />
    <glyph glyph-name="percent" unicode="%" horiz-adv-x="626" 
d="M140 0l-82 58l241 245l191 260l82 -57l-234 -235zM486 -10q-58 0 -84.5 32.5t-26.5 87.5q0 53 26 85t85 32q60 0 86.5 -32t26.5 -85t-26.5 -86.5t-86.5 -33.5zM484 66q23 0 32 12.5t9 31.5t-9 32.5t-32 13.5q-20 0 -29.5 -13t-9.5 -33q0 -19 9.5 -31.5t29.5 -12.5z
M138 336q-58 0 -84.5 32t-26.5 85q0 54 26 87t85 33t87 -33t28 -87q0 -51 -28 -84t-87 -33zM137 411q22 0 31 13t9 32t-9 32t-31 13q-21 0 -30 -13t-9 -33q0 -18 9 -31t30 -13z" />
    <glyph glyph-name="ampersand" unicode="&#x26;" horiz-adv-x="652" 
d="M592 -3q-36 16 -68.5 32.5t-63.5 35.5q-45 -37 -100 -55.5t-110 -18.5t-101 19.5t-74 57t-28 92.5q0 43 17 71.5t40.5 45t43 24.5t24.5 10q-3 4 -18.5 20.5t-29.5 44t-14 65.5q0 43 23.5 71.5t60 43.5t78.5 16t79 -13t60.5 -43t23.5 -73q0 -36 -16.5 -63t-38.5 -45
t-39.5 -27.5t-19.5 -10.5q4 -5 16.5 -17.5t33 -31t46.5 -40.5q3 4 9 14.5t10 25t1 29.5t-18 29l102 65q2 -2 10.5 -16.5t16.5 -37t11.5 -51t-3.5 -60.5t-31 -65q21 -12 46.5 -26t64.5 -30zM366 134q-25 20 -47.5 39t-42.5 40t-39 42q-27 -13 -49.5 -30t-22.5 -50
q0 -25 14 -43t36.5 -27.5t49.5 -9.5t53.5 9.5t47.5 29.5zM255 352q10 5 20 11.5t20 13.5t17.5 14.5t13 16t6.5 17.5q3 21 -8 34.5t-29 18.5t-36 1t-30 -16t-11 -34q1 -16 10 -36t27 -41z" />
    <glyph glyph-name="quotesingle" unicode="'" horiz-adv-x="236" 
d="M64 326v76h27q27 0 38.5 6.5t11.5 26.5q-43 -1 -59.5 18t-16.5 46t15 45.5t51 18.5q28 0 45 -17t17 -70q0 -40 -10 -74t-32 -55t-59 -21h-28z" />
    <glyph glyph-name="parenleft" unicode="(" horiz-adv-x="345" 
d="M233 -199l-19.5 16t-48 48t-57 79.5t-48 111.5t-19.5 144t19.5 144.5t48 113t57 80.5t48 48.5l19.5 16.5l94 -94q-3 -3 -25 -16t-52.5 -37t-60.5 -60t-49.5 -84.5t-19.5 -111.5q0 -64 21 -113.5t52 -85t61.5 -59t51.5 -34.5l21 -11z" />
    <glyph glyph-name="parenright" unicode=")" horiz-adv-x="335" 
d="M102 -199l-95 96l21 11t52 34.5t62 59t52 85t21 113.5q0 62 -20 111t-49.5 85t-60 60t-52.5 37t-26 16l95 94l19.5 -16.5t48.5 -48.5t57 -80.5t47.5 -113t19.5 -144.5t-19.5 -144t-47.5 -111.5t-57 -79.5t-48.5 -48z" />
    <glyph glyph-name="asterisk" unicode="*" horiz-adv-x="385" 
d="M355 406l-120 -11l92 -79l-88 -64l-46 111l-48 -111l-87 64l92 79l-121 11l34 101l103 -62l-27 118h108l-28 -118l103 62z" />
    <glyph glyph-name="plus" unicode="+" horiz-adv-x="408" 
d="M163 79v293h83v-293h-83zM57 183v83h294v-83h-294z" />
    <glyph glyph-name="comma" unicode="," horiz-adv-x="245" 
d="M57 -109v76h28q26 0 37.5 6.5t11.5 26.5q-42 -1 -59 18t-17 46t15 45.5t51 18.5q28 0 45.5 -17t17.5 -71q0 -39 -10 -73t-32 -55t-59 -21h-29z" />
    <glyph glyph-name="hyphen" unicode="-" horiz-adv-x="317" 
d="M40 184v82h222v-82h-222z" />
    <glyph glyph-name="period" unicode="." horiz-adv-x="228" 
d="M105 0q-42 0 -56 20.5t-14 49.5q0 28 14.5 47.5t55.5 19.5q40 0 54 -19.5t14 -47.5q0 -30 -14 -50t-54 -20z" />
    <glyph glyph-name="slash" unicode="/" horiz-adv-x="402" 
d="M25 0l254 563h113l-254 -563h-113z" />
    <glyph glyph-name="zero" unicode="0" horiz-adv-x="560" 
d="M280 -14q-127 0 -189 79.5t-62 214.5q0 89 26 154.5t82 102t143 36.5q86 0 141.5 -36t82.5 -102t27 -155q0 -87 -27 -153.5t-82.5 -103.5t-141.5 -37zM279 86q72 0 106 48.5t34 145.5q0 65 -14.5 107.5t-45.5 64t-80 21.5q-70 0 -104 -46t-34 -147q0 -64 14.5 -107.5
t45 -65t78.5 -21.5z" />
    <glyph glyph-name="one" unicode="1" horiz-adv-x="400" 
d="M357 103v-103h-289v103h94v324q-7 -38 -24.5 -58.5t-38 -28.5t-37 -9.5t-21.5 -1.5v133q6 -2 26.5 -1.5t44 9.5t42 31t20.5 62h108v-460h75z" />
    <glyph glyph-name="two" unicode="2" horiz-adv-x="533" 
d="M43 0v100q1 1 18.5 9t46.5 22.5t63.5 35t68 45t61.5 53.5t44 60q22 45 14 77.5t-34.5 50t-60.5 17.5q-52 0 -81.5 -36t-17.5 -113l-112 16q-9 74 18 126.5t81 80t124 27.5q54 0 98.5 -20t72 -55.5t32 -82t-21.5 -97.5q-20 -40 -52.5 -73t-70 -58.5t-73 -42.5t-62 -27
t-36.5 -12h325v-103h-445z" />
    <glyph glyph-name="three" unicode="3" horiz-adv-x="529" 
d="M275 -10q-72 0 -126.5 23.5t-84.5 71.5t-30 120l116 17q1 -39 16 -68t43.5 -44.5t67.5 -15.5q31 0 54.5 11.5t36.5 31.5t13 44q0 21 -8.5 35t-23.5 23t-33.5 13.5t-38.5 4.5h-60v62h62q25 0 47 6t36 19.5t14 38.5q0 41 -29.5 65.5t-78.5 24.5q-29 0 -50 -9.5t-35.5 -25
t-22 -34t-7.5 -37.5l-108 18q0 13 6.5 35.5t21 49t39.5 50t62.5 38.5t89.5 15q106 0 163 -43.5t57 -116.5q0 -49 -27.5 -86t-85.5 -43q56 -5 89.5 -42t33.5 -88q0 -52 -28 -88.5t-77.5 -56t-113.5 -19.5z" />
    <glyph glyph-name="four" unicode="4" horiz-adv-x="538" 
d="M32 106v103q53 23 93 63.5t67 91t40.5 102.5t13.5 97h131q0 -60 -27 -125.5t-77 -125t-121 -103.5h347v-103h-467zM312 0v281h120v-281h-120z" />
    <glyph glyph-name="five" unicode="5" horiz-adv-x="532" 
d="M265 -10q-72 0 -119.5 25t-72.5 63.5t-32 77.5l120 18q1 -8 7 -22t18.5 -28t32.5 -23.5t49 -9.5q33 0 55 13.5t34.5 35t14.5 44.5q3 27 -8 51.5t-34 41t-60 16.5q-24 0 -41 -7t-27 -17t-15 -18t-5 -9l-126 20l31 301h377v-103h-293l-19 -166l8.5 12t26.5 27.5t47.5 27.5
t71.5 12q66 0 108.5 -28t61.5 -71t15 -92q-3 -47 -31.5 -91.5t-77.5 -72.5t-117 -28z" />
    <glyph glyph-name="six" unicode="6" horiz-adv-x="556" 
d="M284 -10q-81 0 -135 38.5t-80.5 103.5t-26.5 144q0 58 16.5 111.5t49 95.5t80 66t108.5 24q53 0 89.5 -13.5t59.5 -33t35 -40t16.5 -33.5l4.5 -13l-119 -21l-7.5 12.5t-27.5 24.5t-57 12q-20 0 -44.5 -10t-46.5 -35t-33.5 -67t-5.5 -107q0 6 8.5 23.5t28 38t51 35
t77.5 13.5q66 0 108.5 -26.5t62 -69t15.5 -89t-30.5 -89t-75.5 -69t-121 -26.5zM292 90q35 0 59 13.5t36 36t12.5 47.5t-10.5 47.5t-33.5 37t-57.5 15.5q-36 1 -63.5 -15.5t-43.5 -43.5t-16 -58q7 -28 25 -46t42.5 -26t49.5 -8z" />
    <glyph glyph-name="seven" unicode="7" horiz-adv-x="532" 
d="M106 0q0 115 36.5 207t98.5 156.5t137 94.5h-331v105h442v-103q-24 -11 -57.5 -32t-69.5 -55.5t-66.5 -85.5t-50 -122t-19.5 -165h-120z" />
    <glyph glyph-name="eight" unicode="8" horiz-adv-x="571" 
d="M283 -11q-69 0 -124 19.5t-87 56.5t-32 90q0 56 38 95.5t106 47.5q-36 6 -58.5 21t-34 34t-15.5 37.5t-4 31.5q0 46 26.5 79.5t74.5 52.5t110 19q66 0 114 -19t74 -53t26 -79q0 -13 -4 -31.5t-15.5 -37.5t-34 -34t-58.5 -21q69 -9 107 -47.5t38 -95.5q0 -54 -32.5 -91
t-88 -56t-126.5 -19zM284 82q59 0 93.5 25.5t34.5 67.5q0 49 -34.5 72t-93.5 23q-58 0 -92.5 -23t-34.5 -72q0 -42 34.5 -67.5t92.5 -25.5zM283 326q50 0 78.5 19t28.5 54q0 42 -29.5 62t-77.5 20q-47 0 -75.5 -20t-28.5 -62q0 -24 13 -40t37 -24.5t54 -8.5z" />
    <glyph glyph-name="nine" unicode="9" horiz-adv-x="555" 
d="M263 -10q-56 0 -95 13.5t-63 33.5t-37 41t-18 34.5l-5 13.5l119 24l4.5 -7.5t15 -18t30 -18.5t49.5 -8q22 0 44.5 9.5t41.5 32.5t30 65t10 106q-1 -5 -9.5 -22t-28 -37t-50 -35t-75.5 -15q-67 0 -110 26.5t-63 69t-16.5 89.5t30.5 89t76 68.5t121 26.5q67 0 114 -23.5
t76 -64.5t42 -93t12 -108q-1 -58 -14.5 -110.5t-42.5 -94t-75.5 -64.5t-112.5 -23zM255 273q53 0 84.5 32.5t34.5 81.5q-11 48 -42 67.5t-69 19.5q-34 0 -58 -14.5t-36.5 -37t-13.5 -48t9.5 -48.5t33 -37.5t57.5 -15.5z" />
    <glyph glyph-name="colon" unicode=":" horiz-adv-x="248" 
d="M125 25q-42 0 -56 20.5t-14 49.5q0 28 14 47.5t56 19.5q40 0 54 -19.5t14 -47.5q0 -29 -14 -49.5t-54 -20.5zM125 251q-41 0 -55.5 20t-14.5 49q0 28 14.5 47.5t55.5 19.5q40 0 54 -20t14 -47q0 -28 -14 -48.5t-54 -20.5z" />
    <glyph glyph-name="semicolon" unicode=";" horiz-adv-x="256" 
d="M134 278q-41 0 -55 20.5t-14 48.5t14 47.5t55 19.5q40 0 54 -19.5t14 -47.5q0 -29 -14 -49t-54 -20zM70 -109v76h28q26 0 37.5 6.5t11.5 26.5q-43 -1 -59.5 18t-16.5 46t15 45.5t51 18.5q28 0 45.5 -17t17.5 -71q0 -39 -10.5 -73t-32.5 -55t-59 -21h-28z" />
    <glyph glyph-name="less" unicode="&#x3c;" horiz-adv-x="408" 
d="M373 416v-93l-251 -88l251 -86v-95l-337 181z" />
    <glyph glyph-name="equal" unicode="=" horiz-adv-x="408" 
d="M37 258v78h335v-78h-335zM37 109v79h335v-79h-335z" />
    <glyph glyph-name="greater" unicode="&#x3e;" horiz-adv-x="408" 
d="M36 416l337 -181l-337 -181v95l251 86l-251 88v93z" />
    <glyph glyph-name="question" unicode="?" horiz-adv-x="454" 
d="M273 181h-110q1 25 14.5 48t34.5 45t41.5 43t35.5 42.5t17 44.5q2 27 -14.5 45t-51.5 18q-29 0 -44 -11t-21.5 -28t-7.5 -32.5t-1 -25.5h-114q-7 33 -1 68.5t26.5 65.5t58.5 48.5t96 18.5q56 0 100 -19t69.5 -52.5t25.5 -78.5q0 -37 -15.5 -65t-38 -49.5t-45.5 -41
t-39 -39.5t-16 -45zM217 -9q-41 0 -55.5 20.5t-14.5 47.5q0 29 15 49t55 20t54 -20t14 -49t-14 -48.5t-54 -19.5z" />
    <glyph glyph-name="at" unicode="@" horiz-adv-x="858" 
d="M432 -180q-75 0 -144.5 19.5t-124 61.5t-86.5 107.5t-32 157.5q0 88 32 158t87.5 119t128.5 75t156 26q69 0 133.5 -19t115 -54.5t80.5 -88t30 -121.5q0 -58 -25 -109t-70.5 -83t-109.5 -32q-48 0 -66.5 21.5t-18.5 49.5q0 24 5.5 46.5t8.5 43.5l18 137h90l-30 -154
q-8 -40 -4 -66t34 -26q32 0 53.5 19t33.5 50t12 67q0 68 -37.5 119.5t-100.5 80t-138 28.5q-84 0 -149.5 -36.5t-103 -99t-37.5 -140.5q0 -79 35 -131.5t95.5 -79t137.5 -26.5q52 0 106.5 13.5t107.5 40.5l62 -105q-62 -33 -136 -51t-149 -18zM394 44q-56 0 -86 34.5
t-30 88.5q0 46 20.5 87.5t56.5 67.5t81 26q56 0 86.5 -33t30.5 -85q0 -48 -19.5 -90.5t-55.5 -69t-84 -26.5zM426 111q32 0 51.5 17t28.5 42.5t9 51.5q0 28 -14 44t-46 16q-27 0 -47.5 -14.5t-32 -38.5t-11.5 -52q0 -30 15.5 -48t46.5 -18z" />
    <glyph glyph-name="A" unicode="A" horiz-adv-x="578" 
d="M18 0l171 563h198l177 -563h-129l-144 513l-143 -513h-130zM147 150l-3 93h290l-1 -93h-286z" />
    <glyph glyph-name="B" unicode="B" horiz-adv-x="572" 
d="M53 0v563h232q23 0 52 -2t59.5 -9t56 -23t41.5 -43.5t16 -70.5q0 -32 -13 -59.5t-46 -44.5t-97 -21v-4q73 -1 112.5 -19.5t55 -47.5t15.5 -67q0 -44 -17 -73t-45 -45t-61 -23t-66.5 -9t-59.5 -2h-235zM172 97h105q36 0 66.5 3.5t50 19t19.5 50.5q0 36 -19.5 51.5
t-51 19.5t-68.5 4h-102v-148zM171 335h99q31 0 58.5 3.5t45 17t17.5 45.5t-17 45.5t-44.5 16t-59.5 2.5h-99v-130z" />
    <glyph glyph-name="C" unicode="C" horiz-adv-x="605" 
d="M302 -10q-79 0 -144 32t-103.5 96.5t-37.5 159.5q1 94 38.5 160t102.5 100.5t147 34.5q81 0 138 -29t89.5 -78t42.5 -108h-125q-6 42 -30 63.5t-55.5 29.5t-59.5 8q-83 0 -126 -45t-43 -127q0 -88 42 -136t126 -48q30 0 61.5 9t56 32.5t30.5 65.5h125q-10 -60 -43 -110.5
t-90.5 -80t-141.5 -29.5z" />
    <glyph glyph-name="D" unicode="D" horiz-adv-x="616" 
d="M181 99v360h74q60 0 103.5 -19.5t67 -58.5t23.5 -98q0 -57 -13.5 -93t-38.5 -56t-60.5 -27.5t-81.5 -7.5h-24h-50zM577 282q0 94 -44 156t-124.5 93.5t-188.5 31.5h-51h-107v-563h104.5h53.5q108 0 188.5 24t124.5 85.5t44 172.5z" />
    <glyph glyph-name="E" unicode="E" horiz-adv-x="512" 
d="M52 0v563h413v-103h-295v-126h224v-98h-224v-139h306v-97h-424z" />
    <glyph glyph-name="F" unicode="F" horiz-adv-x="472" 
d="M181 0h-118v563h406v-103h-288v-118h216v-97h-216v-245z" />
    <glyph glyph-name="G" unicode="G" horiz-adv-x="629" 
d="M290 -11q-82 0 -144.5 33t-95.5 97.5t-32 158.5q3 95 40.5 161t102.5 100t148 34q119 0 182 -50t84 -145l-116 -18q-9 39 -32.5 60.5t-54.5 30.5t-63 9q-90 0 -131.5 -48.5t-40.5 -124.5q0 -88 48.5 -134t138.5 -46q32 0 62.5 8.5t54.5 28.5t34 54h-107v87h219v-285h-81
l-27 85h-2q-8 -18 -24 -35t-39.5 -30.5t-54.5 -22t-69 -8.5z" />
    <glyph glyph-name="H" unicode="H" horiz-adv-x="591" 
d="M175 0h-121v563h121v-563zM417 563h120v-563h-120v563zM492 239h-384v92h384v-92z" />
    <glyph glyph-name="I" unicode="I" horiz-adv-x="397" 
d="M136 18v527h120v-527h-120zM62 0v103h267v-103h-267zM62 460v103h267v-103h-267z" />
    <glyph glyph-name="J" unicode="J" horiz-adv-x="489" 
d="M234 -10q-50 0 -87 13t-61 38.5t-36.5 61t-12.5 80.5h114q0 -23 6.5 -43.5t23.5 -33t48 -12.5q40 0 59 24t19 91v336h121v-316q0 -55 -7.5 -99.5t-28.5 -75.5t-59 -47.5t-99 -16.5zM191 471v92h237v-92h-237z" />
    <glyph glyph-name="K" unicode="K" horiz-adv-x="591" 
d="M180 174v134l229 255h157v-12zM63 0v563h120v-563h-120zM440 0l-199 289l87 85l250 -362v-12h-138z" />
    <glyph glyph-name="L" unicode="L" horiz-adv-x="472" 
d="M62 3v560h121v-560h-121zM62 0v103h381v-103h-381z" />
    <glyph glyph-name="M" unicode="M" horiz-adv-x="750" 
d="M59 0v563h210l108 -512h2l106 512h209v-563h-125l9 511h-2l-111 -511h-176l-110 511h-2l7 -511h-125z" />
    <glyph glyph-name="N" unicode="N" horiz-adv-x="618" 
d="M436 563h126v-563h-231l-149 510h-2v-510h-125v563h214l165 -510h2v510z" />
    <glyph glyph-name="O" unicode="O" horiz-adv-x="615" 
d="M300 -14q-138 0 -211 79.5t-73 214.5q0 89 31.5 154.5t94.5 102t158 36.5q139 0 211 -79.5t72 -213.5q0 -87 -32 -153.5t-95 -103.5t-156 -37zM298 103q56 0 93 23t55 63.5t18 90.5t-18 91t-54.5 65t-93.5 24q-80 0 -122.5 -50t-42.5 -130q0 -49 18.5 -89.5t54.5 -64
t92 -23.5z" />
    <glyph glyph-name="P" unicode="P" horiz-adv-x="503" 
d="M174 0h-121v563h121v-563zM157 563h128q95 0 149 -48.5t54 -144.5q0 -84 -55.5 -131.5t-147.5 -47.5h-127v86h110q48 0 79.5 23.5t31.5 70.5q0 49 -31 71.5t-80 22.5h-111v98z" />
    <glyph glyph-name="Q" unicode="Q" horiz-adv-x="630" 
d="M316 -14q-139 0 -212 79.5t-73 214.5q0 88 32 154t95.5 102.5t157.5 36.5q93 0 156.5 -36.5t95.5 -102t32 -154.5q0 -87 -32 -153.5t-95.5 -103.5t-156.5 -37zM393 -134q-21 0 -43 2t-40.5 15t-30.5 43t-12 84v49h115v-40q0 -26 1 -39.5t11 -18t36 -4.5l16.5 2.5
t32.5 2.5v-91q-3 0 -16.5 -0.5t-29.5 -2t-28 -2zM315 105q81 0 121.5 49t40.5 130t-40 130.5t-122 49.5q-79 0 -120 -47t-41 -133q0 -81 40 -130t121 -49z" />
    <glyph glyph-name="R" unicode="R" horiz-adv-x="566" 
d="M53 0v563h218q74 0 126 -16.5t80.5 -53t28.5 -98.5q0 -48 -15 -83t-43.5 -54t-67.5 -19q27 0 42 -10.5t23 -28t11.5 -36.5t7 -37t10 -30.5t20.5 -16t39 6.5v-68q-23 -20 -53 -26t-58 4t-46.5 39.5t-18.5 81.5q0 27 -2.5 47.5t-12 34t-29 21t-53 9t-86.5 -1.5v-228h-121z
M174 314h85q48 0 78.5 3t45.5 18t15 50q0 41 -18 57.5t-53 19.5t-87 3h-66v-151z" />
    <glyph glyph-name="S" unicode="S" horiz-adv-x="569" 
d="M279 -11q-47 0 -92.5 11t-81.5 35t-58 62.5t-22 91.5h121q0 -4 2 -14.5t10.5 -23.5t23.5 -25t41 -20t65 -8q22 0 40.5 4t32.5 11t21.5 18t7.5 24q0 25 -19.5 39.5t-51.5 23t-70.5 17t-76 20.5t-68.5 32t-48 52t-15 80q4 48 33.5 82.5t83 53t126.5 18.5q61 0 114 -21.5
t86 -65.5t33 -111h-117q0 27 -13 43.5t-33.5 25.5t-43 12.5t-39.5 3.5q-44 0 -72.5 -13t-28.5 -43q0 -26 20 -40.5t52 -23.5t71 -16.5t77.5 -19t69.5 -30.5t49 -50.5t14 -81.5q-2 -48 -34 -82t-85.5 -52.5t-124.5 -18.5z" />
    <glyph glyph-name="T" unicode="T" horiz-adv-x="472" 
d="M290 545v-545h-121v545h121zM10 460v103h440v-103h-440z" />
    <glyph glyph-name="U" unicode="U" horiz-adv-x="605" 
d="M304 -14q-123 0 -186.5 66.5t-63.5 187.5v323h129v-322q0 -44 11.5 -71.5t29.5 -42.5t39 -20.5t41 -5.5q30 0 58 10t46 40.5t18 89.5v322h129v-323q0 -123 -62.5 -188.5t-188.5 -65.5z" />
    <glyph glyph-name="V" unicode="V" horiz-adv-x="575" 
d="M440 563h132l-180 -563h-201l-180 563h132l147 -513z" />
    <glyph glyph-name="W" unicode="W" horiz-adv-x="811" 
d="M341 563h128l-64 -153l-71 -410h-194l-123 563h128l91 -513zM663 563h128l-119 -563h-194l-73 410l-66 153h130l106 -513z" />
    <glyph glyph-name="X" unicode="X" horiz-adv-x="580" 
d="M18 0l197 296l-182 267h142l121 -196l120 196h141l-180 -267l197 -296h-140l-138 221l-138 -221h-140z" />
    <glyph glyph-name="Y" unicode="Y" horiz-adv-x="455" 
d="M167 196l-192 367h136l118 -263l119 263h135l-196 -367h-120zM167 0v209h120v-209h-120z" />
    <glyph glyph-name="Z" unicode="Z" horiz-adv-x="573" 
d="M47 0v101l324 359h-302v103h457v-103l-319 -357h318v-103h-478z" />
    <glyph glyph-name="bracketleft" unicode="[" horiz-adv-x="307" 
d="M35 -199v802h254v-112h-134v-578h134v-112h-254z" />
    <glyph glyph-name="backslash" unicode="\" horiz-adv-x="382" 
d="M237 0l-254 563h113l254 -563h-113z" />
    <glyph glyph-name="bracketright" unicode="]" horiz-adv-x="310" 
d="M35 -199v112h135v578h-133v112h253v-802h-255z" />
    <glyph glyph-name="asciicircum" unicode="^" horiz-adv-x="461" 
d="M29 320v29l201 213l202 -213v-29h-113l-88 150h-2l-87 -150h-113z" />
    <glyph glyph-name="underscore" unicode="_" horiz-adv-x="594" 
d="M37 0v83h502v-83h-502z" />
    <glyph glyph-name="grave" unicode="`" horiz-adv-x="209" 
d="M122 458l-88 94v20h101l42 -99v-15h-55z" />
    <glyph glyph-name="a" unicode="a" horiz-adv-x="467" 
d="M176 -10q-56 0 -90 26t-49 73t-15 111t15.5 112t49 74.5t89.5 26.5q38 0 63 -10.5t39.5 -25.5t21.5 -27.5t9 -15.5h2v78h124v-412h-105l-19 62h-2q-1 -4 -8.5 -15.5t-22.5 -24.5t-40 -22.5t-62 -9.5zM226 91q36 0 54 14.5t24 39.5t6 54q0 30 -6 55t-24 39t-54 14
t-54.5 -15t-24.5 -39.5t-6 -53.5t6 -53.5t24.5 -39.5t54.5 -15z" />
    <glyph glyph-name="b" unicode="b" horiz-adv-x="504" 
d="M301 -10q-37 0 -62.5 11t-41 25t-22.5 25.5t-8 13.5h-2l-19 -65h-105v563h124v-233h2q1 1 7.5 13.5t21 28.5t40.5 28t64 12q62 0 98 -26t52 -73.5t16 -114.5q0 -63 -15.5 -110t-51.5 -72.5t-98 -25.5zM258 90q39 0 58.5 16t26 40.5t6.5 52.5t-7 52.5t-27 39.5t-59 15
q-36 0 -56 -14t-27 -39t-7 -54q0 -30 7.5 -54.5t28 -39.5t56.5 -15z" />
    <glyph glyph-name="c" unicode="c" horiz-adv-x="477" 
d="M240 -10q-58 0 -106.5 23.5t-77.5 70t-29 115.5q2 67 30.5 115t76.5 74t107 26q66 0 111 -25.5t68.5 -64t25.5 -79.5h-110q-6 32 -29 49t-62 17q-33 0 -55 -13t-33.5 -36t-11.5 -54q0 -52 25 -83t77 -31q32 0 57.5 17t31.5 54h110q-2 -43 -25.5 -83.5t-69 -66
t-111.5 -25.5z" />
    <glyph glyph-name="d" unicode="d" horiz-adv-x="514" 
d="M206 -10q-61 0 -97.5 25.5t-52.5 72.5t-16 110q0 67 16.5 115t53 73.5t96.5 25.5q39 0 64.5 -12t40.5 -28t21.5 -28.5t6.5 -13.5h2v233h124v-563h-105l-19 65h-2q0 -2 -7 -13.5t-23 -25.5t-41 -25t-62 -11zM249 90q37 0 57 15t27.5 39.5t7.5 54.5q0 29 -7.5 54t-27 39
t-56.5 14q-38 0 -58.5 -15t-27 -39.5t-6.5 -52.5t6.5 -52.5t26.5 -40.5t58 -16z" />
    <glyph glyph-name="e" unicode="e" 
d="M232 -10q-73 0 -118.5 30t-66.5 78t-23 100q-1 65 24 114t71.5 76t108.5 27q57 0 102 -24t71 -68.5t27 -105.5v-11v-15h-289q0 -51 24.5 -76t65.5 -25q34 0 55.5 16t25.5 42h117q-4 -43 -27 -79.5t-65 -57.5t-103 -21zM141 242h166q0 4 -2 16t-10 25.5t-24.5 23.5
t-45.5 10q-28 0 -45 -9t-25 -22.5t-11 -26t-3 -17.5z" />
    <glyph glyph-name="f" unicode="f" horiz-adv-x="299" 
d="M71 -1v470q0 64 30 90t84 26h102v-94h-96v-492h-120zM18 329v83h267v-83h-267z" />
    <glyph glyph-name="g" unicode="g" horiz-adv-x="485" 
d="M158 -191v114h169v142h-2q-1 -2 -8 -13.5t-21.5 -25.5t-39.5 -25t-62 -11q-61 0 -98 26t-53.5 73t-16.5 110q0 67 17 114.5t54 73t97 25.5q39 0 64.5 -12t39.5 -28t20 -28.5t7 -13.5h2v82h124v-430q0 -65 -17 -103t-52 -54t-88 -16h-136zM234 90q37 0 57 15t27.5 39.5
t7.5 54.5q0 29 -7 54t-27 39t-56 14q-38 0 -58.5 -15t-27.5 -39.5t-7 -52.5t6.5 -52.5t26.5 -40.5t58 -16z" />
    <glyph glyph-name="h" unicode="h" horiz-adv-x="493" 
d="M44 0v563h124v-233h2q1 1 6.5 14t19.5 28.5t39 27.5t64 12q43 0 71 -15.5t44 -40.5t23 -54.5t9 -56.5t2 -46v-199h-118v200q0 27 -5 51t-21.5 39.5t-52.5 15.5q-37 0 -54.5 -16t-23 -40.5t-5.5 -52.5v-197h-124z" />
    <glyph glyph-name="i" unicode="i" horiz-adv-x="215" 
d="M48 0v412h121v-412h-121zM108 461q-38 0 -51 19.5t-13 44.5q0 24 13 43t51 19t50 -19t12 -43q0 -25 -12 -44.5t-50 -19.5z" />
    <glyph glyph-name="j" unicode="j" horiz-adv-x="260" 
d="M118 461q-37 0 -50.5 19.5t-13.5 44.5q0 24 13.5 43t50.5 19q38 0 50 -19t12 -43q0 -25 -12 -44.5t-50 -19.5zM58 412h121v-487q0 -64 -30 -90t-84 -26h-75v93h68v510z" />
    <glyph glyph-name="k" unicode="k" horiz-adv-x="458" 
d="M159 0h-121v563h121v-563zM254 298l207 -298h-144l-151 213zM157 98v133l154 184h146z" />
    <glyph glyph-name="l" unicode="l" horiz-adv-x="211" 
d="M47 0v563h117v-563h-117z" />
    <glyph glyph-name="m" unicode="m" horiz-adv-x="687" 
d="M36 0v412h117v-82h2q1 2 7.5 14.5t20 28.5t36 27.5t55.5 11.5q32 0 53 -11.5t34 -30t20 -40.5h2q0 3 7.5 15.5t22 28t38.5 27t58 11.5q39 0 64.5 -16t41 -42.5t23 -55.5t10 -55.5t2.5 -43.5v-199h-117v200q0 15 -1.5 33t-7 35t-18.5 27.5t-37 10.5q-29 0 -44 -16.5
t-19 -41.5t-4 -51v-197h-118v200q0 15 -1 33t-7 35t-19 27.5t-37 10.5q-29 0 -43.5 -16.5t-19 -41.5t-4.5 -51v-197h-117z" />
    <glyph glyph-name="n" unicode="n" horiz-adv-x="476" 
d="M36 0v412h104l20 -82h2q1 1 7 14t20.5 28.5t40.5 27.5t66 12q44 0 72 -15t43 -39.5t20.5 -53.5t6.5 -56.5t1 -48.5v-199h-117v200q0 27 -5 51t-21.5 39.5t-53.5 15.5q-36 0 -53.5 -16t-23 -40.5t-5.5 -52.5v-197h-124z" />
    <glyph glyph-name="o" unicode="o" horiz-adv-x="479" 
d="M235 -10q-71 0 -118.5 27.5t-71 75t-23.5 108.5q0 62 23.5 109.5t71 75t118.5 27.5q104 0 158 -58t54 -154q0 -60 -23 -107.5t-70 -75.5t-119 -28zM235 91q41 0 61.5 17t27.5 43.5t7 53.5q0 28 -7 54.5t-27.5 44t-61.5 17.5t-62 -17.5t-28 -44t-7 -54.5q0 -27 7 -53.5
t28 -43.5t62 -17z" />
    <glyph glyph-name="p" unicode="p" horiz-adv-x="501" 
d="M305 -10q-37 0 -61.5 11t-39.5 25t-21.5 25.5t-6.5 13.5h-2v-256h-125v603h105l20 -82h2q0 1 6 13.5t20 28.5t39 28t64 12q62 0 99 -26t53 -74.5t16 -113.5t-16.5 -111.5t-53.5 -71.5t-98 -25zM266 90q39 0 58.5 16t26 40.5t6.5 52.5t-7 52.5t-26.5 39.5t-58.5 15
q-36 0 -56 -14t-27.5 -39t-7.5 -54q0 -30 7.5 -54.5t28 -39.5t56.5 -15z" />
    <glyph glyph-name="q" unicode="q" horiz-adv-x="501" 
d="M196 -10q-60 0 -97.5 25t-54 72t-16.5 111q0 65 16.5 113.5t54 74.5t98.5 26q38 0 63 -12t39.5 -28t20 -28.5t5.5 -13.5h2l20 82h105v-603h-124v256h-2q-1 -2 -7.5 -13.5t-21.5 -25.5t-39.5 -25t-61.5 -11zM235 90q37 0 57 15t27.5 39.5t7.5 54.5q0 29 -7.5 54t-27 39
t-56.5 14q-38 0 -58 -15t-27 -39.5t-7 -52.5t6.5 -52.5t26.5 -40.5t58 -16z" />
    <glyph glyph-name="r" unicode="r" horiz-adv-x="356" 
d="M38 0v412h114l8 -120l-1 -89v-203h-121zM159 171l-3 92q0 20 7.5 45.5t25 49t49 39t77.5 15.5h12v-134h-13q-40 0 -69.5 -4.5t-48 -16.5t-28 -33t-9.5 -53z" />
    <glyph glyph-name="s" unicode="s" horiz-adv-x="421" 
d="M217 -10q-14 0 -38 3.5t-50.5 13t-50.5 27t-38.5 44.5t-14.5 66h111q0 -1 1 -11.5t7.5 -23t22.5 -22.5t47 -10q24 0 38 6.5t20 15.5t5 17q0 19 -17.5 29.5t-45.5 18.5l-59.5 17t-59.5 23.5t-45.5 39t-16.5 64.5q0 60 46.5 89t118.5 29q41 0 76 -9.5t62 -28.5t42 -49
t16 -70h-110q1 20 -6.5 33t-19.5 20t-26.5 10.5t-29.5 3.5q-32 0 -45.5 -11.5t-13.5 -25.5q0 -21 18 -32.5t46 -19.5t60.5 -17t60.5 -23t46 -37.5t18 -61.5q0 -39 -21.5 -65t-60.5 -39.5t-93 -13.5z" />
    <glyph glyph-name="t" unicode="t" horiz-adv-x="319" 
d="M187 0q-54 0 -84 26t-30 90v225h113v-248h96v-93h-95zM14 329v83q19 0 33.5 3.5t24 13.5t14 31.5t4.5 56.5h96v-105h93v-83h-265z" />
    <glyph glyph-name="u" unicode="u" 
d="M175 -10q-44 0 -71.5 15t-42.5 39t-21 53t-7.5 57t-1.5 50v208h118v-209q0 -26 5 -50.5t21.5 -40.5t53.5 -16q36 0 53 16t22 40.5t6 48.5v211h124v-412h-104l-20 72h-2q-1 -3 -7.5 -16t-21.5 -28t-40.5 -26.5t-63.5 -11.5z" />
    <glyph glyph-name="v" unicode="v" horiz-adv-x="464" 
d="M318 412h118v-18l-135 -394h-167l-136 394v18h117l103 -312h2z" />
    <glyph glyph-name="w" unicode="w" horiz-adv-x="653" 
d="M96 0l-89 394v20h119l56 -313h2l80 313h103l84 -313h2l56 313h118v-20l-91 -394h-168l-51 205h-2l-48 -205h-171z" />
    <glyph glyph-name="x" unicode="x" horiz-adv-x="460" 
d="M-5 0l151 213l-142 199h131l87 -131l86 131h132l-141 -199l150 -213h-131l-96 143l-96 -143h-131z" />
    <glyph glyph-name="y" unicode="y" horiz-adv-x="457" 
d="M-1 -195v93h67q14 0 26.5 2t24 14t24.5 41l20 44l-161 413h124l95 -290l103 290h124l-194 -468q-20 -46 -36.5 -73.5t-34.5 -41.5t-41 -19t-56 -5h-85z" />
    <glyph glyph-name="z" unicode="z" horiz-adv-x="452" 
d="M35 0v87l234 240h-220v88h359v-86l-228 -240h228v-89h-373z" />
    <glyph glyph-name="braceleft" unicode="{" horiz-adv-x="368" 
d="M340 -196q-82 -17 -133 -10t-76.5 36.5t-29.5 81.5t9 126q6 40 -1 62.5t-21 32t-30 11.5t-27 2v116q11 0 27 2t30 11.5t21 32t1 62.5q-12 74 -8.5 124.5t29 78.5t76.5 35.5t133 -5.5v-112q-55 12 -81 6t-33 -24.5t-3.5 -44.5t7.5 -56q8 -48 1.5 -83.5t-32 -56.5
t-77.5 -29q52 -8 77.5 -28.5t32 -55.5t-1.5 -83q-4 -30 -7.5 -56.5t3.5 -45t33 -24.5t81 6v-112z" />
    <glyph glyph-name="bar" unicode="|" horiz-adv-x="241" 
d="M60 -151v752h121v-752h-121z" />
    <glyph glyph-name="braceright" unicode="}" horiz-adv-x="379" 
d="M39 -196v112q55 -12 81 -6t33 24.5t3.5 45t-7.5 56.5q-8 48 -2 83t32 55.5t78 28.5q-52 8 -78 29t-31.5 56.5t1.5 83.5q4 30 7.5 56t-3.5 44.5t-33 24.5t-81 -6v112q92 6 144 -2t74.5 -34.5t23.5 -74.5t-12 -122q-6 -40 1 -62.5t21 -32t30 -11.5t27 -2v-116q-11 0 -27 -2
t-30 -11.5t-21 -32t-1 -62.5q13 -74 12.5 -122.5t-23 -75t-75 -34.5t-144.5 -2z" />
    <glyph glyph-name="asciitilde" unicode="~" horiz-adv-x="408" 
d="M263 198q-27 0 -42.5 9.5t-25.5 21t-18.5 21t-22.5 9.5q-17 0 -20 -14.5t-3 -40.5h-69q0 13 1 33.5t7.5 41t24.5 35t51 14.5q28 0 43.5 -9.5t25.5 -21t19 -21t22 -9.5q16 0 19 15.5t3 40.5h69q0 -18 -1.5 -39.5t-9 -41t-25 -32t-48.5 -12.5z" />
    <glyph glyph-name="uni00A0" unicode="&#xa0;" horiz-adv-x="209" 
 />
    <glyph glyph-name="exclamdown" unicode="&#xa1;" horiz-adv-x="216" 
d="M106 373q38 0 51 -18.5t13 -47.5q0 -26 -13 -44.5t-51 -18.5q-39 0 -52.5 18.5t-13.5 44.5q0 28 13 47t53 19zM61 182l13.5 -3t30.5 -3q22 0 32.5 3l10.5 3q8 -82 15 -144.5t10 -107.5t-2 -73.5t-20.5 -42t-46.5 -13.5q-30 0 -45.5 13t-20.5 41.5t-2 73t10 107t15 146.5z
" />
    <glyph glyph-name="cent" unicode="&#xa2;" horiz-adv-x="472" 
d="M234 -10q-58 0 -106 23.5t-77 70t-29 115.5q2 67 30 115t76 74t107 26q66 0 109.5 -23t66.5 -60t29 -78l-110 -20q-9 40 -28.5 59t-66.5 19q-33 0 -54 -13t-31 -36t-11 -54q0 -52 23 -83t75 -31q40 0 62.5 20.5t30.5 61.5l110 -19q-7 -44 -30 -82t-66.5 -61.5
t-109.5 -23.5zM175 -103l8 116h104l8 -116h-120zM183 390l-8 116h120l-8 -116h-104z" />
    <glyph glyph-name="sterling" unicode="&#xa3;" horiz-adv-x="693" 
d="M127 -14l-55 90q20 15 40 33.5t32.5 43t12.5 55.5t-21 70q-28 53 -29.5 105.5t23 95.5t73.5 68.5t121 25.5q80 0 128 -27.5t70.5 -73t25.5 -99.5l-115 -17q-4 26 -14 45.5t-23 34t-28.5 22.5t-33.5 11.5t-36 1.5q-26 -2 -46 -15t-30 -35.5t-6.5 -56t26.5 -75.5
q27 -55 25 -91t-19 -59.5t-39 -44.5q31 16 60.5 17t56 -6t50.5 -15t44.5 -10.5t37.5 9.5q19 13 22 37t-8 50l117 18q15 -62 5.5 -105.5t-39.5 -66.5t-77 -25q-32 -6 -61 -3t-56 9.5t-53.5 12.5t-53.5 7t-57 -5.5t-64 -27.5q-1 -1 -2.5 -1.5t-3.5 -2.5zM49 212v88h362v-88
h-362z" />
    <glyph glyph-name="currency" unicode="&#xa4;" horiz-adv-x="583" 
d="M460 7h-34l-41 59q-38 -27 -93 -27q-57 0 -96 28l-42 -60h-31l54 77q-41 46 -41 126q0 90 50 135l-47 65h34l35 -50q34 20 84 20q48 0 82 -19l34 49h35l-47 -65q51 -46 51 -135q0 -79 -41 -126zM292 60q25 0 45 6.5t36 16.5q4 3 7 6l6 6q-9 -10 -9.5 -10t3.5 4l8.5 8.5
l4.5 4.5q32 40 32 108q0 78 -41 118q-8 8 -22 15q-30 16 -70 16q-42 0 -72 -16q-1 -1 -11 -8t-10 -8q-41 -38 -41 -117q0 -33 12.5 -67.5t38.5 -58.5q16 -11 36.5 -17.5t46.5 -6.5z" />
    <glyph glyph-name="yen" unicode="&#xa5;" horiz-adv-x="550" 
d="M216 196l-192 367h136l118 -263l119 263h135l-196 -367h-120zM98 83v66h360v-66h-360zM98 193v66h360v-63zM216 0v209h120v-209h-120z" />
    <glyph glyph-name="brokenbar" unicode="&#xa6;" horiz-adv-x="241" 
d="M60 303v298h121v-298h-121zM60 -151v298h121v-298h-121z" />
    <glyph glyph-name="section" unicode="&#xa7;" horiz-adv-x="600" 
d="M418 223v-2q23 -15 39 -40t15 -60q-3 -56 -51.5 -88t-116.5 -32q-47 0 -90.5 16t-71.5 50t-30 86h31q0 -2 1.5 -15t9 -31t24.5 -35.5t48 -29t80 -11.5q45 0 72 11t40.5 27t18 31t4.5 22q1 38 -21 59.5t-58 33.5t-76.5 21.5t-76.5 24t-58 40t-20 70.5q1 28 20.5 48.5
t47.5 31.5v1q-31 17 -50 42.5t-18 61.5q2 36 25 61.5t61.5 39.5t84.5 14q47 0 84.5 -16.5t59.5 -48.5t20 -81h-30q1 36 -13 59t-36 35.5t-45.5 17.5t-41.5 5q-59 0 -97.5 -25t-40.5 -63q0 -37 22.5 -58t58 -32.5t76 -20.5t76 -23.5t57.5 -41t20 -72.5q-1 -28 -16 -48
t-38 -35zM162 369q0 -35 17.5 -55.5t47.5 -32t65.5 -19.5t69.5 -18q11 -2 15 -3t6 -2q8 -2 12 -0.5t6 2.5q26 17 33 37t7 29q1 33 -16.5 54t-47 34t-64.5 21.5t-69 17.5q-14 3 -21.5 4.5t-20.5 -6.5q-39 -26 -40 -63z" />
    <glyph glyph-name="dieresis" unicode="&#xa8;" horiz-adv-x="420" 
d="M114 457q-41 0 -55 20.5t-14 48.5q0 26 14 46.5t55 20.5t54 -20.5t13 -46.5q0 -28 -13 -48.5t-54 -20.5zM308 457q-41 0 -55 20.5t-14 48.5q0 26 14 46.5t55 20.5q40 0 53.5 -20.5t13.5 -46.5q0 -28 -13.5 -48.5t-53.5 -20.5z" />
    <glyph glyph-name="copyright" unicode="&#xa9;" horiz-adv-x="609" 
d="M328 -10q-61 0 -114 22.5t-93.5 63t-63 93.5t-22.5 114q0 59 22.5 111.5t63 92.5t93.5 63t114 23q59 0 111.5 -23t92.5 -63t63 -92.5t23 -111.5q0 -61 -23 -114t-63 -93.5t-92.5 -63t-111.5 -22.5zM328 55q51 0 92.5 16t71 45.5t45.5 71.5t16 93t-16 92.5t-45.5 71.5
t-71 46t-92.5 16q-52 0 -94 -16t-71.5 -46t-45.5 -71.5t-16 -92.5t16 -93t45.5 -71.5t71.5 -45.5t94 -16zM326 116q-45 0 -82 18.5t-58.5 55t-21.5 90.5q1 79 48 123.5t117 44.5q47 0 79.5 -17.5t51 -45.5t24.5 -61l-72 -13q-7 35 -25 52.5t-58 17.5q-47 0 -69.5 -26
t-22.5 -70q0 -47 22.5 -73.5t68.5 -26.5q36 0 56.5 19.5t28.5 60.5l72 -22q-6 -34 -25.5 -63t-52.5 -46.5t-81 -17.5z" />
    <glyph glyph-name="ordfeminine" unicode="&#xaa;" horiz-adv-x="332" 
d="M130 405q-57 0 -79.5 38t-22.5 102t23 103.5t79 39.5q35 0 53.5 -12t26.5 -25t9 -16v53h86v-276h-72l-13 40h-1q0 -3 -8.5 -14.5t-27.5 -22t-53 -10.5zM164 474q36 0 46 21t10 49q0 31 -10 51.5t-46 20.5q-35 0 -45.5 -21.5t-10.5 -50.5q0 -28 10.5 -49t45.5 -21z" />
    <glyph glyph-name="guillemotleft" unicode="&#xab;" horiz-adv-x="577" 
d="M331 536v-84l-208 -157l208 -165v-79l-305 244zM514 536v-92l-208 -149l208 -157v-87l-305 244z" />
    <glyph glyph-name="logicalnot" unicode="&#xac;" horiz-adv-x="408" 
d="M93 186v76h222v-76h-222zM238 106v156h77v-156h-77z" />
    <glyph glyph-name="registered" unicode="&#xae;" horiz-adv-x="408" 
d="M203 229q-48 0 -87 23t-62.5 62t-23.5 86q0 48 23.5 87t62.5 62t87 23q47 0 85.5 -23t61.5 -62t23 -87q0 -47 -23 -86t-61.5 -62t-85.5 -23zM203 268q40 0 69.5 18t45.5 48t16 66q0 37 -16 67t-45.5 48t-69.5 18q-41 0 -71 -18t-46 -48t-16 -67q0 -36 16 -66t46 -48
t71 -18zM138 320v166h64q34 0 52.5 -11t18.5 -38q0 -22 -11 -35t-35 -13q17 0 23 -8.5t8 -18t6 -14.5t17 0v-21q-9 -8 -22 -9t-23 8t-10 30q0 12 -2 19.5t-13 11t-36 0.5v-67h-37zM175 413h24q21 0 30 3t9 17q0 18 -11 20.5t-33 2.5h-19v-43z" />
    <glyph glyph-name="macron" unicode="&#xaf;" horiz-adv-x="369" 
d="M40 479v82h289v-82h-289z" />
    <glyph glyph-name="degree" unicode="&#xb0;" horiz-adv-x="295" 
d="M143 346q-59 0 -86 31t-27 81q0 53 26.5 84t86.5 31q59 0 87.5 -31.5t28.5 -83.5q0 -48 -28.5 -80t-87.5 -32zM142 422q22 0 31 11.5t9 27.5q0 17 -9 29t-32 12q-21 0 -30 -12.5t-9 -28.5t9.5 -27.5t30.5 -11.5z" />
    <glyph glyph-name="plusminus" unicode="&#xb1;" horiz-adv-x="408" 
d="M93 39v68h222v-68h-222zM173 151v217h68v-217h-68zM93 227v67h222v-67h-222z" />
    <glyph glyph-name="uni00B2" unicode="&#xb2;" horiz-adv-x="247" 
d="M15 412v51l18.5 8t43.5 22.5t48.5 33.5t34.5 42q16 32 1.5 50.5t-39.5 18.5q-24 0 -38 -17.5t-8 -54.5l-56 8q-8 55 25 85t83 30q36 0 62 -17t35 -45.5t-7 -61.5q-13 -24 -34 -42.5t-44 -31t-41 -19t-24 -7.5h157v-53h-217z" />
    <glyph glyph-name="uni00B3" unicode="&#xb3;" horiz-adv-x="250" 
d="M130 402q-52 0 -84 26t-31 77l58 9q0 -28 15.5 -44t43.5 -16q22 0 34.5 11.5t12.5 28.5q0 13 -6.5 20t-18 10.5t-24.5 3.5h-27v31h29q17 0 31 6t14 23q0 19 -13.5 30.5t-36.5 11.5q-17 0 -28.5 -7.5t-18 -19t-6.5 -22.5l-53 8q0 8 4.5 22.5t16.5 30.5t32.5 26.5
t51.5 10.5q50 0 77.5 -20.5t27.5 -55.5q0 -22 -13.5 -40.5t-41.5 -20.5q27 -2 43 -20t16 -42q0 -37 -29 -57.5t-76 -20.5z" />
    <glyph glyph-name="acute" unicode="&#xb4;" horiz-adv-x="229" 
d="M88 458h-54v15l42 99h101v-20z" />
    <glyph glyph-name="uni00B5" unicode="&#xb5;" horiz-adv-x="572" 
d="M83 -157v568h119v-209q0 -26 5 -50.5t21.5 -40t53.5 -15.5q36 0 53 15.5t22 40t5 49.5v210h124v-411h-104l-12 43h-3q-8 -13 -17.5 -25.5t-24.5 -20.5t-41 -8q-31 0 -49.5 10.5t-29.5 26.5h-3v-183h-119z" />
    <glyph glyph-name="paragraph" unicode="&#xb6;" horiz-adv-x="537" 
d="M244 -89v403h-24q-56 1 -102.5 18.5t-74 59.5t-27.5 115q0 71 27 112.5t73.5 61t101.5 19.5h55h53v-789h-82zM382 -90v789h84v-789h-84zM257 616l-4 83h268v-83h-264z" />
    <glyph glyph-name="periodcentered" unicode="&#xb7;" horiz-adv-x="263" 
d="M127 187q-49 0 -65.5 24t-16.5 58q0 32 17 56.5t66 24.5q48 0 64 -24.5t16 -56.5q0 -33 -16 -57.5t-65 -24.5z" />
    <glyph glyph-name="cedilla" unicode="&#xb8;" horiz-adv-x="317" 
d="M38 -119l35 56q11 -9 37.5 -17.5t48.5 -8.5q17 0 28.5 5.5t11.5 20.5q0 10 -10.5 16t-25.5 6q-10 0 -20 -3t-18 -11l-50 24l45 97l53 -21l-37 -61q11 8 26 13t32 5q30 0 57.5 -17t27.5 -53q0 -41 -35.5 -63t-85.5 -22q-30 0 -61 8.5t-59 25.5z" />
    <glyph glyph-name="uni00B9" unicode="&#xb9;" horiz-adv-x="188" 
d="M75 424v209q-5 -26 -18 -39t-25.5 -17.5t-16.5 -4.5v68q5 -1 20.5 0t29.5 11.5t16 37.5h55v-265h-61zM29 412v53h144v-53h-144z" />
    <glyph glyph-name="ordmasculine" unicode="&#xba;" horiz-adv-x="323" 
d="M162 413q-74 0 -110.5 41t-36.5 106q-1 63 36 103t111 41q71 0 108.5 -39.5t37.5 -104.5q0 -64 -35.5 -105.5t-110.5 -41.5zM162 483q28 0 42.5 11.5t19.5 30t5 36.5q0 20 -5 38.5t-19.5 30.5t-42.5 12q-29 0 -43 -12t-19 -30.5t-5 -38.5q0 -18 5 -36.5t19 -30t43 -11.5z
" />
    <glyph glyph-name="guillemotright" unicode="&#xbb;" horiz-adv-x="518" 
d="M198 536l305 -241l-305 -244v79l208 165l-208 157v84zM15 536l305 -241l-305 -244v87l208 157l-208 149v92z" />
    <glyph glyph-name="onequarter" unicode="&#xbc;" horiz-adv-x="646" 
d="M75 306v209q-5 -26 -18 -38.5t-25.5 -17.5t-16.5 -5v68q5 -1 20.5 0t29.5 11.5t16 37.5h55v-265h-61zM29 294v53h144v-53h-144zM97 6l-54 44l229 253l205 257l54 -44l-220 -245zM401 52v52q35 15 58 45t34.5 64.5t11.5 63.5h68q0 -44 -29 -92t-82 -81h170v-52h-231z
M538 0v138h61v-138h-61z" />
    <glyph glyph-name="onehalf" unicode="&#xbd;" horiz-adv-x="633" 
d="M75 306v209q-5 -26 -18 -38.5t-25.5 -17.5t-16.5 -5v68q5 -1 20.5 0t29.5 11.5t16 37.5h55v-265h-61zM29 294v53h144v-53h-144zM97 6l-54 44l229 253l205 257l54 -44l-220 -245zM401 0v50q9 4 32.5 15.5t50 28.5t46.5 39t22 46q3 23 -10 35t-34 12q-24 0 -38 -17.5
t-8 -55.5l-56 8q-8 56 25 86t83 30q30 0 52.5 -12t35.5 -32t10 -46q-2 -24 -16.5 -46.5t-37.5 -41t-48.5 -30.5t-48.5 -17h157v-52h-217z" />
    <glyph glyph-name="threequarters" unicode="&#xbe;" horiz-adv-x="709" 
d="M130 281q-52 0 -84 25.5t-31 76.5l58 9q0 -28 15.5 -44t43.5 -16q22 0 34.5 12t12.5 29q0 13 -6.5 22t-18 14t-24.5 5h-27v31h29q17 0 31 9t14 26q0 19 -13.5 30t-36.5 11q-17 0 -28.5 -7t-18 -18.5t-6.5 -23.5l-53 9q0 8 4.5 22.5t16.5 30.5t32.5 26.5t51.5 10.5
q50 0 77.5 -21.5t27.5 -57.5q0 -22 -13.5 -42t-41.5 -22q27 -2 43 -21.5t16 -44.5q0 -36 -29 -58.5t-76 -22.5zM159 6l-54 44l229 253l205 257l54 -44l-220 -245zM463 52v52q35 15 58 45t34.5 64.5t11.5 63.5h68q0 -44 -29 -92t-82 -81h170v-52h-231zM600 0v138h61v-138h-61
z" />
    <glyph glyph-name="questiondown" unicode="&#xbf;" horiz-adv-x="448" 
d="M196 192h110q-1 -25 -14.5 -48t-34.5 -45.5t-41.5 -43.5t-35.5 -42.5t-17 -44.5q-2 -26 14.5 -44.5t51.5 -18.5q29 0 44 11t21.5 28t7.5 33t1 25h113q8 -32 2 -67.5t-26.5 -65.5t-58.5 -49t-96 -19q-55 0 -99.5 19t-70 53t-25.5 79q0 37 15.5 64.5t38.5 49.5t45.5 41.5
t38.5 39.5t16 45zM252 381q41 0 55.5 -20t14.5 -48t-14.5 -48t-55.5 -20t-54.5 20t-13.5 48q0 29 13.5 48.5t54.5 19.5z" />
    <glyph glyph-name="Agrave" unicode="&#xc0;" horiz-adv-x="578" 
d="M18 0l171 563h198l177 -563h-129l-144 513l-143 -513h-130zM147 150l-3 93h290l-1 -93h-286zM260 609l-88 94v20h101l42 -99v-15h-55z" />
    <glyph glyph-name="Aacute" unicode="&#xc1;" horiz-adv-x="578" 
d="M18 0l171 563h198l177 -563h-129l-144 513l-143 -513h-130zM147 150l-3 93h290l-1 -93h-286zM317 609h-54v15l42 99h101v-20z" />
    <glyph glyph-name="Acircumflex" unicode="&#xc2;" horiz-adv-x="578" 
d="M18 0l171 563h198l177 -563h-129l-144 513l-143 -513h-130zM147 150l-3 93h290l-1 -93h-286zM141 618v9l123 111h50l122 -111v-9h-105l-39 44h-6l-36 -44h-109z" />
    <glyph glyph-name="Atilde" unicode="&#xc3;" horiz-adv-x="578" 
d="M18 0l171 563h198l177 -563h-129l-144 513l-143 -513h-130zM147 150l-3 93h290l-1 -93h-286zM149 626q0 13 0.5 33t7.5 40.5t24.5 34.5t50.5 14q27 0 42.5 -9t25.5 -19.5t19 -19.5t22 -9q15 0 17.5 14.5t2.5 39.5h70q0 -19 -1.5 -40t-9.5 -40t-25 -31t-48 -12
q-26 0 -41.5 8.5t-25.5 19.5t-18.5 20t-22.5 9q-16 0 -18.5 -13.5t-2.5 -39.5h-69z" />
    <glyph glyph-name="Adieresis" unicode="&#xc4;" horiz-adv-x="578" 
d="M18 0l171 563h198l177 -563h-129l-144 513l-143 -513h-130zM147 150l-3 93h290l-1 -93h-286zM194 608q-41 0 -55 20.5t-14 48.5q0 26 14 46.5t55 20.5t54 -20.5t13 -46.5q0 -28 -13 -48.5t-54 -20.5zM388 608q-41 0 -55 20.5t-14 48.5q0 26 14 46.5t55 20.5
q40 0 53.5 -20.5t13.5 -46.5q0 -28 -13.5 -48.5t-53.5 -20.5z" />
    <glyph glyph-name="Aring" unicode="&#xc5;" horiz-adv-x="578" 
d="M18 0l171 563h198l177 -563h-129l-144 513l-143 -513h-130zM147 150l-3 93h290l-1 -93h-286zM288 622q-53 0 -78 27.5t-25 74.5q0 48 24.5 76t77.5 28q54 0 80 -28t26 -76q0 -45 -26 -73.5t-79 -28.5zM286 692q19 0 27.5 9.5t8.5 24.5t-8.5 26t-27.5 11q-18 0 -27 -11
t-9 -26t9 -24.5t27 -9.5z" />
    <glyph glyph-name="AE" unicode="&#xc6;" horiz-adv-x="867" 
d="M407 0v563h413v-103h-295v-126h223v-98h-223v-139h306v-97h-424zM158 150l-2 93h285l-4 -93h-279zM18 0l300 563h115l-285 -563h-130z" />
    <glyph glyph-name="Ccedilla" unicode="&#xc7;" horiz-adv-x="605" 
d="M302 -10q-79 0 -144 32t-103.5 96.5t-37.5 159.5q1 94 38.5 160t102.5 100.5t147 34.5q81 0 138 -29t89.5 -78t42.5 -108h-125q-6 42 -30 63.5t-55.5 29.5t-59.5 8q-83 0 -126 -45t-43 -127q0 -88 42 -136t126 -48q30 0 61.5 9t56 32.5t30.5 65.5h125q-10 -60 -43 -110.5
t-90.5 -80t-141.5 -29.5zM192 -145l35 56q11 -9 37.5 -17.5t48.5 -8.5q17 0 28.5 5.5t11.5 20.5q0 10 -10.5 16t-25.5 6q-10 0 -20 -3t-18 -11l-50 24l45 97l53 -21l-37 -61q11 8 26 13t32 5q30 0 57.5 -17t27.5 -53q0 -41 -35.5 -63t-85.5 -22q-30 0 -61 8.5t-59 25.5z" />
    <glyph glyph-name="Egrave" unicode="&#xc8;" horiz-adv-x="512" 
d="M52 0v563h413v-103h-295v-126h224v-98h-224v-139h306v-97h-424zM227 609l-88 94v20h101l42 -99v-15h-55z" />
    <glyph glyph-name="Eacute" unicode="&#xc9;" horiz-adv-x="512" 
d="M52 0v563h413v-103h-295v-126h224v-98h-224v-139h306v-97h-424zM284 609h-54v15l42 99h101v-20z" />
    <glyph glyph-name="Ecircumflex" unicode="&#xca;" horiz-adv-x="512" 
d="M52 0v563h413v-103h-295v-126h224v-98h-224v-139h306v-97h-424zM108 618v9l123 111h50l122 -111v-9h-105l-39 44h-6l-36 -44h-109z" />
    <glyph glyph-name="Edieresis" unicode="&#xcb;" horiz-adv-x="512" 
d="M52 0v563h413v-103h-295v-126h224v-98h-224v-139h306v-97h-424zM161 608q-41 0 -55 20.5t-14 48.5q0 26 14 46.5t55 20.5t54 -20.5t13 -46.5q0 -28 -13 -48.5t-54 -20.5zM355 608q-41 0 -55 20.5t-14 48.5q0 26 14 46.5t55 20.5q40 0 53.5 -20.5t13.5 -46.5
q0 -28 -13.5 -48.5t-53.5 -20.5z" />
    <glyph glyph-name="Igrave" unicode="&#xcc;" horiz-adv-x="397" 
d="M136 18v527h120v-527h-120zM62 0v103h267v-103h-267zM62 460v103h267v-103h-267zM167 609l-88 94v20h101l42 -99v-15h-55z" />
    <glyph glyph-name="Iacute" unicode="&#xcd;" horiz-adv-x="397" 
d="M136 18v527h120v-527h-120zM62 0v103h267v-103h-267zM62 460v103h267v-103h-267zM224 609h-54v15l42 99h101v-20z" />
    <glyph glyph-name="Icircumflex" unicode="&#xce;" horiz-adv-x="397" 
d="M136 18v527h120v-527h-120zM62 0v103h267v-103h-267zM62 460v103h267v-103h-267zM48 618v9l123 111h50l122 -111v-9h-105l-39 44h-6l-36 -44h-109z" />
    <glyph glyph-name="Idieresis" unicode="&#xcf;" horiz-adv-x="397" 
d="M136 18v527h120v-527h-120zM62 0v103h267v-103h-267zM62 460v103h267v-103h-267zM100 608q-41 0 -55 20.5t-14 48.5q0 26 14 46.5t55 20.5t54 -20.5t13 -46.5q0 -28 -13 -48.5t-54 -20.5zM294 608q-41 0 -55 20.5t-14 48.5q0 26 14 46.5t55 20.5q40 0 53.5 -20.5
t13.5 -46.5q0 -28 -13.5 -48.5t-53.5 -20.5z" />
    <glyph glyph-name="Eth" unicode="&#xd0;" horiz-adv-x="600" 
d="M62 0v563h107h51q108 0 188.5 -31.5t124.5 -93.5t44 -156q0 -111 -44 -172.5t-124.5 -85.5t-188.5 -24h-53.5h-104.5zM0 247v79h311v-79h-311zM181 99h50h24q46 0 81.5 7.5t60.5 27.5t38.5 56t13.5 93q0 59 -23.5 98t-67 58.5t-103.5 19.5h-74v-360z" />
    <glyph glyph-name="Ntilde" unicode="&#xd1;" horiz-adv-x="618" 
d="M436 563h126v-563h-231l-149 510h-2v-510h-125v563h214l165 -510h2v510zM169 626q0 13 0.5 33t7.5 40.5t24.5 34.5t50.5 14q27 0 42.5 -9t25.5 -19.5t19 -19.5t22 -9q15 0 17.5 14.5t2.5 39.5h70q0 -19 -1.5 -40t-9.5 -40t-25 -31t-48 -12q-26 0 -41.5 8.5t-25.5 19.5
t-18.5 20t-22.5 9q-16 0 -18.5 -13.5t-2.5 -39.5h-69z" />
    <glyph glyph-name="Ograve" unicode="&#xd2;" horiz-adv-x="615" 
d="M300 -14q-138 0 -211 79.5t-73 214.5q0 89 31.5 154.5t94.5 102t158 36.5q139 0 211 -79.5t72 -213.5q0 -87 -32 -153.5t-95 -103.5t-156 -37zM298 103q56 0 93 23t55 63.5t18 90.5t-18 91t-54.5 65t-93.5 24q-80 0 -122.5 -50t-42.5 -130q0 -49 18.5 -89.5t54.5 -64
t92 -23.5zM279 609l-88 94v20h101l42 -99v-15h-55z" />
    <glyph glyph-name="Oacute" unicode="&#xd3;" horiz-adv-x="615" 
d="M300 -14q-138 0 -211 79.5t-73 214.5q0 89 31.5 154.5t94.5 102t158 36.5q139 0 211 -79.5t72 -213.5q0 -87 -32 -153.5t-95 -103.5t-156 -37zM298 103q56 0 93 23t55 63.5t18 90.5t-18 91t-54.5 65t-93.5 24q-80 0 -122.5 -50t-42.5 -130q0 -49 18.5 -89.5t54.5 -64
t92 -23.5zM336 609h-54v15l42 99h101v-20z" />
    <glyph glyph-name="Ocircumflex" unicode="&#xd4;" horiz-adv-x="615" 
d="M300 -14q-138 0 -211 79.5t-73 214.5q0 89 31.5 154.5t94.5 102t158 36.5q139 0 211 -79.5t72 -213.5q0 -87 -32 -153.5t-95 -103.5t-156 -37zM298 103q56 0 93 23t55 63.5t18 90.5t-18 91t-54.5 65t-93.5 24q-80 0 -122.5 -50t-42.5 -130q0 -49 18.5 -89.5t54.5 -64
t92 -23.5zM160 618v9l123 111h50l122 -111v-9h-105l-39 44h-6l-36 -44h-109z" />
    <glyph glyph-name="Otilde" unicode="&#xd5;" horiz-adv-x="615" 
d="M300 -14q-138 0 -211 79.5t-73 214.5q0 89 31.5 154.5t94.5 102t158 36.5q139 0 211 -79.5t72 -213.5q0 -87 -32 -153.5t-95 -103.5t-156 -37zM298 103q56 0 93 23t55 63.5t18 90.5t-18 91t-54.5 65t-93.5 24q-80 0 -122.5 -50t-42.5 -130q0 -49 18.5 -89.5t54.5 -64
t92 -23.5zM168 626q0 13 0.5 33t7.5 40.5t24.5 34.5t50.5 14q27 0 42.5 -9t25.5 -19.5t19 -19.5t22 -9q15 0 17.5 14.5t2.5 39.5h70q0 -19 -1.5 -40t-9.5 -40t-25 -31t-48 -12q-26 0 -41.5 8.5t-25.5 19.5t-18.5 20t-22.5 9q-16 0 -18.5 -13.5t-2.5 -39.5h-69z" />
    <glyph glyph-name="Odieresis" unicode="&#xd6;" horiz-adv-x="615" 
d="M300 -14q-138 0 -211 79.5t-73 214.5q0 89 31.5 154.5t94.5 102t158 36.5q139 0 211 -79.5t72 -213.5q0 -87 -32 -153.5t-95 -103.5t-156 -37zM298 103q56 0 93 23t55 63.5t18 90.5t-18 91t-54.5 65t-93.5 24q-80 0 -122.5 -50t-42.5 -130q0 -49 18.5 -89.5t54.5 -64
t92 -23.5zM212 608q-41 0 -55 20.5t-14 48.5q0 26 14 46.5t55 20.5t54 -20.5t13 -46.5q0 -28 -13 -48.5t-54 -20.5zM406 608q-41 0 -55 20.5t-14 48.5q0 26 14 46.5t55 20.5q40 0 53.5 -20.5t13.5 -46.5q0 -28 -13.5 -48.5t-53.5 -20.5z" />
    <glyph glyph-name="multiply" unicode="&#xd7;" horiz-adv-x="408" 
d="M276 89l-71 72l-73 -73l-54 55l72 72l-72 73l54 54l73 -72l71 72l54 -55l-71 -72l71 -71z" />
    <glyph glyph-name="Oslash" unicode="&#xd8;" horiz-adv-x="600" 
d="M83 -26l428 620l28 -16l-428 -620zM300 -14q-138 0 -211 79.5t-73 214.5q0 89 31.5 154.5t94.5 102t158 36.5q139 0 211 -79.5t72 -213.5q0 -87 -32 -153.5t-95 -103.5t-156 -37zM298 103q56 0 93 23t55 63.5t18 90.5t-18 91t-54.5 65t-93.5 24q-80 0 -122.5 -50
t-42.5 -130q0 -49 18.5 -89.5t54.5 -64t92 -23.5z" />
    <glyph glyph-name="Ugrave" unicode="&#xd9;" horiz-adv-x="605" 
d="M304 -14q-123 0 -186.5 66.5t-63.5 187.5v323h129v-322q0 -44 11.5 -71.5t29.5 -42.5t39 -20.5t41 -5.5q30 0 58 10t46 40.5t18 89.5v322h129v-323q0 -123 -62.5 -188.5t-188.5 -65.5zM273 609l-88 94v20h101l42 -99v-15h-55z" />
    <glyph glyph-name="Uacute" unicode="&#xda;" horiz-adv-x="605" 
d="M304 -14q-123 0 -186.5 66.5t-63.5 187.5v323h129v-322q0 -44 11.5 -71.5t29.5 -42.5t39 -20.5t41 -5.5q30 0 58 10t46 40.5t18 89.5v322h129v-323q0 -123 -62.5 -188.5t-188.5 -65.5zM330 609h-54v15l42 99h101v-20z" />
    <glyph glyph-name="Ucircumflex" unicode="&#xdb;" horiz-adv-x="605" 
d="M304 -14q-123 0 -186.5 66.5t-63.5 187.5v323h129v-322q0 -44 11.5 -71.5t29.5 -42.5t39 -20.5t41 -5.5q30 0 58 10t46 40.5t18 89.5v322h129v-323q0 -123 -62.5 -188.5t-188.5 -65.5zM154 618v9l123 111h50l122 -111v-9h-105l-39 44h-6l-36 -44h-109z" />
    <glyph glyph-name="Udieresis" unicode="&#xdc;" horiz-adv-x="605" 
d="M304 -14q-123 0 -186.5 66.5t-63.5 187.5v323h129v-322q0 -44 11.5 -71.5t29.5 -42.5t39 -20.5t41 -5.5q30 0 58 10t46 40.5t18 89.5v322h129v-323q0 -123 -62.5 -188.5t-188.5 -65.5zM206 608q-41 0 -55 20.5t-14 48.5q0 26 14 46.5t55 20.5t54 -20.5t13 -46.5
q0 -28 -13 -48.5t-54 -20.5zM400 608q-41 0 -55 20.5t-14 48.5q0 26 14 46.5t55 20.5q40 0 53.5 -20.5t13.5 -46.5q0 -28 -13.5 -48.5t-53.5 -20.5z" />
    <glyph glyph-name="Yacute" unicode="&#xdd;" horiz-adv-x="455" 
d="M167 196l-192 367h136l118 -263l119 263h135l-196 -367h-120zM167 0v209h120v-209h-120zM255 609h-54v15l42 99h101v-20z" />
    <glyph glyph-name="Thorn" unicode="&#xde;" horiz-adv-x="496" 
d="M174 0h-121v563h121v-563zM157 468h121q95 0 149 -48.5t54 -145.5q0 -83 -55.5 -131t-147.5 -48h-120v86h102q48 0 80 24t32 71q0 48 -31 71t-81 23h-103v98z" />
    <glyph glyph-name="germandbls" unicode="&#xdf;" horiz-adv-x="610" 
d="M403 -10q-55 0 -92 15t-58.5 39.5t-31 53.5t-10.5 58h103l2 -9.5t8.5 -21t21.5 -21t41 -9.5q28 0 45.5 10.5t25.5 27t8 33.5q0 28 -19 46.5t-47 31.5t-56 25t-47.5 27t-19.5 38q0 20 11.5 31t28.5 17.5t33.5 13.5t27.5 20t11 38q0 4 -10.5 6t-26 3.5t-29.5 2t-19 0.5
h-128v-466h-121v563h249q24 0 57.5 -0.5t65.5 -7.5t53.5 -24.5t21.5 -52.5q0 -31 -13 -49.5t-32.5 -30t-39 -19.5t-32.5 -17.5t-13 -25.5q0 -17 21.5 -28t53 -21.5t64 -27t53.5 -44t21 -72.5q0 -47 -26 -81t-67.5 -53t-88.5 -19z" />
    <glyph glyph-name="agrave" unicode="&#xe0;" horiz-adv-x="467" 
d="M176 -10q-56 0 -90 26t-49 73t-15 111t15.5 112t49 74.5t89.5 26.5q38 0 63 -10.5t39.5 -25.5t21.5 -27.5t9 -15.5h2v78h124v-412h-105l-19 62h-2q-1 -4 -8.5 -15.5t-22.5 -24.5t-40 -22.5t-62 -9.5zM226 91q36 0 54 14.5t24 39.5t6 54q0 30 -6 55t-24 39t-54 14
t-54.5 -15t-24.5 -39.5t-6 -53.5t6 -53.5t24.5 -39.5t54.5 -15zM204 458l-88 94v20h101l42 -99v-15h-55z" />
    <glyph glyph-name="aacute" unicode="&#xe1;" horiz-adv-x="467" 
d="M176 -10q-56 0 -90 26t-49 73t-15 111t15.5 112t49 74.5t89.5 26.5q38 0 63 -10.5t39.5 -25.5t21.5 -27.5t9 -15.5h2v78h124v-412h-105l-19 62h-2q-1 -4 -8.5 -15.5t-22.5 -24.5t-40 -22.5t-62 -9.5zM226 91q36 0 54 14.5t24 39.5t6 54q0 30 -6 55t-24 39t-54 14
t-54.5 -15t-24.5 -39.5t-6 -53.5t6 -53.5t24.5 -39.5t54.5 -15zM261 458h-54v15l42 99h101v-20z" />
    <glyph glyph-name="acircumflex" unicode="&#xe2;" horiz-adv-x="467" 
d="M176 -10q-56 0 -90 26t-49 73t-15 111t15.5 112t49 74.5t89.5 26.5q38 0 63 -10.5t39.5 -25.5t21.5 -27.5t9 -15.5h2v78h124v-412h-105l-19 62h-2q-1 -4 -8.5 -15.5t-22.5 -24.5t-40 -22.5t-62 -9.5zM226 91q36 0 54 14.5t24 39.5t6 54q0 30 -6 55t-24 39t-54 14
t-54.5 -15t-24.5 -39.5t-6 -53.5t6 -53.5t24.5 -39.5t54.5 -15zM85 467v9l123 111h50l122 -111v-9h-105l-39 44h-6l-36 -44h-109z" />
    <glyph glyph-name="atilde" unicode="&#xe3;" horiz-adv-x="467" 
d="M176 -10q-56 0 -90 26t-49 73t-15 111t15.5 112t49 74.5t89.5 26.5q38 0 63 -10.5t39.5 -25.5t21.5 -27.5t9 -15.5h2v78h124v-412h-105l-19 62h-2q-1 -4 -8.5 -15.5t-22.5 -24.5t-40 -22.5t-62 -9.5zM226 91q36 0 54 14.5t24 39.5t6 54q0 30 -6 55t-24 39t-54 14
t-54.5 -15t-24.5 -39.5t-6 -53.5t6 -53.5t24.5 -39.5t54.5 -15zM93 475q0 13 0.5 33t7.5 40.5t24.5 34.5t50.5 14q27 0 42.5 -9t25.5 -19.5t19 -19.5t22 -9q15 0 17.5 14.5t2.5 39.5h70q0 -19 -1.5 -40t-9.5 -40t-25 -31t-48 -12q-26 0 -41.5 8.5t-25.5 19.5t-18.5 20
t-22.5 9q-16 0 -18.5 -13.5t-2.5 -39.5h-69z" />
    <glyph glyph-name="adieresis" unicode="&#xe4;" horiz-adv-x="467" 
d="M176 -10q-56 0 -90 26t-49 73t-15 111t15.5 112t49 74.5t89.5 26.5q38 0 63 -10.5t39.5 -25.5t21.5 -27.5t9 -15.5h2v78h124v-412h-105l-19 62h-2q-1 -4 -8.5 -15.5t-22.5 -24.5t-40 -22.5t-62 -9.5zM226 91q36 0 54 14.5t24 39.5t6 54q0 30 -6 55t-24 39t-54 14
t-54.5 -15t-24.5 -39.5t-6 -53.5t6 -53.5t24.5 -39.5t54.5 -15zM137 457q-41 0 -55 20.5t-14 48.5q0 26 14 46.5t55 20.5t54 -20.5t13 -46.5q0 -28 -13 -48.5t-54 -20.5zM331 457q-41 0 -55 20.5t-14 48.5q0 26 14 46.5t55 20.5q40 0 53.5 -20.5t13.5 -46.5
q0 -28 -13.5 -48.5t-53.5 -20.5z" />
    <glyph glyph-name="aring" unicode="&#xe5;" horiz-adv-x="467" 
d="M176 -10q-56 0 -90 26t-49 73t-15 111t15.5 112t49 74.5t89.5 26.5q38 0 63 -10.5t39.5 -25.5t21.5 -27.5t9 -15.5h2v78h124v-412h-105l-19 62h-2q-1 -4 -8.5 -15.5t-22.5 -24.5t-40 -22.5t-62 -9.5zM226 91q36 0 54 14.5t24 39.5t6 54q0 30 -6 55t-24 39t-54 14
t-54.5 -15t-24.5 -39.5t-6 -53.5t6 -53.5t24.5 -39.5t54.5 -15zM232 471q-53 0 -78 27.5t-25 74.5q0 48 24.5 76t77.5 28q54 0 80 -28t26 -76q0 -45 -26 -73.5t-79 -28.5zM230 541q19 0 27.5 9.5t8.5 24.5t-8.5 26t-27.5 11q-18 0 -27 -11t-9 -26t9 -24.5t27 -9.5z" />
    <glyph glyph-name="ae" unicode="&#xe6;" horiz-adv-x="727" 
d="M143 0q-56 0 -90 30t-34 79q0 31 14 52.5t38 35t54.5 22.5t61.5 16q43 10 65 17t29 15.5t7 21.5q0 15 -8 25t-21.5 16t-30.5 6q-18 0 -35.5 -7.5t-28 -24t-8.5 -46.5h-112q1 61 28 97.5t69 52.5t88 16q37 0 73 -11.5t59 -34.5q24 22 59 34.5t81 12.5q53 0 96 -26
t68.5 -70.5t26.5 -101.5v-26h-288q0 -47 26 -72t70 -25q36 0 55 16.5t25 44.5l115 -23q-11 -38 -35 -70.5t-63.5 -52t-96.5 -19.5q-58 0 -99 19t-66 50.5t-36 69.5q-1 -13 -10 -36.5t-27 -47t-47.5 -39.5t-71.5 -16zM193 85q26 3 47.5 23.5t34.5 52.5t13 68q-7 -8 -27.5 -14
t-35.5 -11q-22 -7 -42 -18t-31.5 -26.5t-10.5 -36.5q1 -22 18 -30.5t34 -7.5zM405 262h166q0 4 -1 16t-7.5 27t-22 25.5t-44.5 10.5q-28 0 -46 -10t-27.5 -24t-13 -27t-4.5 -18z" />
    <glyph glyph-name="ccedilla" unicode="&#xe7;" horiz-adv-x="477" 
d="M240 -10q-58 0 -106.5 23.5t-77.5 70t-29 115.5q2 67 30.5 115t76.5 74t107 26q66 0 111 -25.5t68.5 -64t25.5 -79.5h-110q-6 32 -29 49t-62 17q-33 0 -55 -13t-33.5 -36t-11.5 -54q0 -52 25 -83t77 -31q32 0 57.5 17t31.5 54h110q-2 -43 -25.5 -83.5t-69 -66
t-111.5 -25.5zM128 -145l35 56q11 -9 37.5 -17.5t48.5 -8.5q17 0 28.5 5.5t11.5 20.5q0 10 -10.5 16t-25.5 6q-10 0 -20 -3t-18 -11l-50 24l45 97l53 -21l-37 -61q11 8 26 13t32 5q30 0 57.5 -17t27.5 -53q0 -41 -35.5 -63t-85.5 -22q-30 0 -61 8.5t-59 25.5z" />
    <glyph glyph-name="egrave" unicode="&#xe8;" 
d="M232 -10q-73 0 -118.5 30t-66.5 78t-23 100q-1 65 24 114t71.5 76t108.5 27q57 0 102 -24t71 -68.5t27 -105.5v-11v-15h-289q0 -51 24.5 -76t65.5 -25q34 0 55.5 16t25.5 42h117q-4 -43 -27 -79.5t-65 -57.5t-103 -21zM141 242h166q0 4 -2 16t-10 25.5t-24.5 23.5
t-45.5 10q-28 0 -45 -9t-25 -22.5t-11 -26t-3 -17.5zM205 458l-88 94v20h101l42 -99v-15h-55z" />
    <glyph glyph-name="eacute" unicode="&#xe9;" 
d="M232 -10q-73 0 -118.5 30t-66.5 78t-23 100q-1 65 24 114t71.5 76t108.5 27q57 0 102 -24t71 -68.5t27 -105.5v-11v-15h-289q0 -51 24.5 -76t65.5 -25q34 0 55.5 16t25.5 42h117q-4 -43 -27 -79.5t-65 -57.5t-103 -21zM141 242h166q0 4 -2 16t-10 25.5t-24.5 23.5
t-45.5 10q-28 0 -45 -9t-25 -22.5t-11 -26t-3 -17.5zM262 458h-54v15l42 99h101v-20z" />
    <glyph glyph-name="ecircumflex" unicode="&#xea;" 
d="M232 -10q-73 0 -118.5 30t-66.5 78t-23 100q-1 65 24 114t71.5 76t108.5 27q57 0 102 -24t71 -68.5t27 -105.5v-11v-15h-289q0 -51 24.5 -76t65.5 -25q34 0 55.5 16t25.5 42h117q-4 -43 -27 -79.5t-65 -57.5t-103 -21zM141 242h166q0 4 -2 16t-10 25.5t-24.5 23.5
t-45.5 10q-28 0 -45 -9t-25 -22.5t-11 -26t-3 -17.5zM86 467v9l123 111h50l122 -111v-9h-105l-39 44h-6l-36 -44h-109z" />
    <glyph glyph-name="edieresis" unicode="&#xeb;" 
d="M232 -10q-73 0 -118.5 30t-66.5 78t-23 100q-1 65 24 114t71.5 76t108.5 27q57 0 102 -24t71 -68.5t27 -105.5v-11v-15h-289q0 -51 24.5 -76t65.5 -25q34 0 55.5 16t25.5 42h117q-4 -43 -27 -79.5t-65 -57.5t-103 -21zM141 242h166q0 4 -2 16t-10 25.5t-24.5 23.5
t-45.5 10q-28 0 -45 -9t-25 -22.5t-11 -26t-3 -17.5zM138 457q-41 0 -55 20.5t-14 48.5q0 26 14 46.5t55 20.5t54 -20.5t13 -46.5q0 -28 -13 -48.5t-54 -20.5zM332 457q-41 0 -55 20.5t-14 48.5q0 26 14 46.5t55 20.5q40 0 53.5 -20.5t13.5 -46.5q0 -28 -13.5 -48.5
t-53.5 -20.5z" />
    <glyph glyph-name="igrave" unicode="&#xec;" horiz-adv-x="215" 
d="M47 0v412h121v-412h-121zM78 458l-88 94v20h101l42 -99v-15h-55z" />
    <glyph glyph-name="iacute" unicode="&#xed;" horiz-adv-x="215" 
d="M47 0v412h121v-412h-121zM135 458h-54v15l42 99h101v-20z" />
    <glyph glyph-name="icircumflex" unicode="&#xee;" horiz-adv-x="215" 
d="M47 0v412h121v-412h-121zM-41 467v9l123 111h50l122 -111v-9h-105l-39 44h-6l-36 -44h-109z" />
    <glyph glyph-name="idieresis" unicode="&#xef;" horiz-adv-x="215" 
d="M47 0v412h121v-412h-121zM11 457q-41 0 -55 20.5t-14 48.5q0 26 14 46.5t55 20.5t54 -20.5t13 -46.5q0 -28 -13 -48.5t-54 -20.5zM205 457q-41 0 -55 20.5t-14 48.5q0 26 14 46.5t55 20.5q40 0 53.5 -20.5t13.5 -46.5q0 -28 -13.5 -48.5t-53.5 -20.5z" />
    <glyph glyph-name="eth" unicode="&#xf0;" horiz-adv-x="527" 
d="M256 -10q-74 0 -122 31.5t-72 80.5t-24 101q0 48 20 91.5t59 71t96 27.5q38 0 65.5 -10.5t47.5 -25.5t32 -30.5t18 -26l6 -10.5h1q-8 34 -30.5 67t-51.5 61t-58.5 50t-52 36t-30.5 17l90 101q58 -29 102 -72.5t74.5 -95t45.5 -106.5t15 -109q0 -67 -25 -124t-76.5 -91
t-129.5 -34zM387 177q0 42 -19.5 70t-49 42t-61.5 14q-28 0 -51 -10.5t-36.5 -33t-13.5 -55.5q0 -38 18 -63.5t45.5 -38.5t54.5 -13q38 0 71.5 22t41.5 66zM210 419l-44 35l233 141l44 -35z" />
    <glyph glyph-name="ntilde" unicode="&#xf1;" horiz-adv-x="476" 
d="M36 0v412h104l20 -82h2q1 1 7 14t20.5 28.5t40.5 27.5t66 12q44 0 72 -15t43 -39.5t20.5 -53.5t6.5 -56.5t1 -48.5v-199h-117v200q0 27 -5 51t-21.5 39.5t-53.5 15.5q-36 0 -53.5 -16t-23 -40.5t-5.5 -52.5v-197h-124zM98 475q0 13 0.5 33t7.5 40.5t24.5 34.5t50.5 14
q27 0 42.5 -9t25.5 -19.5t19 -19.5t22 -9q15 0 17.5 14.5t2.5 39.5h70q0 -19 -1.5 -40t-9.5 -40t-25 -31t-48 -12q-26 0 -41.5 8.5t-25.5 19.5t-18.5 20t-22.5 9q-16 0 -18.5 -13.5t-2.5 -39.5h-69z" />
    <glyph glyph-name="ograve" unicode="&#xf2;" horiz-adv-x="479" 
d="M235 -10q-71 0 -118.5 27.5t-71 75t-23.5 108.5q0 62 23.5 109.5t71 75t118.5 27.5q104 0 158 -58t54 -154q0 -60 -23 -107.5t-70 -75.5t-119 -28zM235 91q41 0 61.5 17t27.5 43.5t7 53.5q0 28 -7 54.5t-27.5 44t-61.5 17.5t-62 -17.5t-28 -44t-7 -54.5q0 -27 7 -53.5
t28 -43.5t62 -17zM211 458l-88 94v20h101l42 -99v-15h-55z" />
    <glyph glyph-name="oacute" unicode="&#xf3;" horiz-adv-x="479" 
d="M235 -10q-71 0 -118.5 27.5t-71 75t-23.5 108.5q0 62 23.5 109.5t71 75t118.5 27.5q104 0 158 -58t54 -154q0 -60 -23 -107.5t-70 -75.5t-119 -28zM235 91q41 0 61.5 17t27.5 43.5t7 53.5q0 28 -7 54.5t-27.5 44t-61.5 17.5t-62 -17.5t-28 -44t-7 -54.5q0 -27 7 -53.5
t28 -43.5t62 -17zM268 458h-54v15l42 99h101v-20z" />
    <glyph glyph-name="ocircumflex" unicode="&#xf4;" horiz-adv-x="479" 
d="M235 -10q-71 0 -118.5 27.5t-71 75t-23.5 108.5q0 62 23.5 109.5t71 75t118.5 27.5q104 0 158 -58t54 -154q0 -60 -23 -107.5t-70 -75.5t-119 -28zM235 91q41 0 61.5 17t27.5 43.5t7 53.5q0 28 -7 54.5t-27.5 44t-61.5 17.5t-62 -17.5t-28 -44t-7 -54.5q0 -27 7 -53.5
t28 -43.5t62 -17zM92 467v9l123 111h50l122 -111v-9h-105l-39 44h-6l-36 -44h-109z" />
    <glyph glyph-name="otilde" unicode="&#xf5;" horiz-adv-x="479" 
d="M235 -10q-71 0 -118.5 27.5t-71 75t-23.5 108.5q0 62 23.5 109.5t71 75t118.5 27.5q104 0 158 -58t54 -154q0 -60 -23 -107.5t-70 -75.5t-119 -28zM235 91q41 0 61.5 17t27.5 43.5t7 53.5q0 28 -7 54.5t-27.5 44t-61.5 17.5t-62 -17.5t-28 -44t-7 -54.5q0 -27 7 -53.5
t28 -43.5t62 -17zM100 475q0 13 0.5 33t7.5 40.5t24.5 34.5t50.5 14q27 0 42.5 -9t25.5 -19.5t19 -19.5t22 -9q15 0 17.5 14.5t2.5 39.5h70q0 -19 -1.5 -40t-9.5 -40t-25 -31t-48 -12q-26 0 -41.5 8.5t-25.5 19.5t-18.5 20t-22.5 9q-16 0 -18.5 -13.5t-2.5 -39.5h-69z" />
    <glyph glyph-name="odieresis" unicode="&#xf6;" horiz-adv-x="479" 
d="M235 -10q-71 0 -118.5 27.5t-71 75t-23.5 108.5q0 62 23.5 109.5t71 75t118.5 27.5q104 0 158 -58t54 -154q0 -60 -23 -107.5t-70 -75.5t-119 -28zM235 91q41 0 61.5 17t27.5 43.5t7 53.5q0 28 -7 54.5t-27.5 44t-61.5 17.5t-62 -17.5t-28 -44t-7 -54.5q0 -27 7 -53.5
t28 -43.5t62 -17zM144 457q-41 0 -55 20.5t-14 48.5q0 26 14 46.5t55 20.5t54 -20.5t13 -46.5q0 -28 -13 -48.5t-54 -20.5zM338 457q-41 0 -55 20.5t-14 48.5q0 26 14 46.5t55 20.5q40 0 53.5 -20.5t13.5 -46.5q0 -28 -13.5 -48.5t-53.5 -20.5z" />
    <glyph glyph-name="divide" unicode="&#xf7;" horiz-adv-x="408" 
d="M93 184v82h222v-82h-222zM203 301q-21 0 -31.5 12t-10.5 30q-1 19 10 30.5t32 11.5t32 -11.5t11 -30.5q0 -18 -10.5 -30t-32.5 -12zM203 61q-21 0 -31.5 12t-10.5 30q-1 18 10 30t32 12t32 -11.5t11 -30.5q0 -18 -10.5 -30t-32.5 -12z" />
    <glyph glyph-name="oslash" unicode="&#xf8;" horiz-adv-x="472" 
d="M61 -26l303 482l28 -17l-302 -481zM235 -10q-71 0 -118.5 27.5t-71 75t-23.5 108.5q0 62 23.5 109.5t71 75t118.5 27.5q104 0 158 -58t54 -154q0 -60 -23 -107.5t-70 -75.5t-119 -28zM235 91q41 0 61.5 17t27.5 43.5t7 53.5q0 28 -7 54.5t-27.5 44t-61.5 17.5t-62 -17.5
t-28 -44t-7 -54.5q0 -27 7 -53.5t28 -43.5t62 -17z" />
    <glyph glyph-name="ugrave" unicode="&#xf9;" 
d="M175 -10q-44 0 -71.5 15t-42.5 39t-21 53t-7.5 57t-1.5 50v208h118v-209q0 -26 5 -50.5t21.5 -40.5t53.5 -16q36 0 53 16t22 40.5t6 48.5v211h124v-412h-104l-20 72h-2q-1 -3 -7.5 -16t-21.5 -28t-40.5 -26.5t-63.5 -11.5zM205 458l-88 94v20h101l42 -99v-15h-55z" />
    <glyph glyph-name="uacute" unicode="&#xfa;" 
d="M175 -10q-44 0 -71.5 15t-42.5 39t-21 53t-7.5 57t-1.5 50v208h118v-209q0 -26 5 -50.5t21.5 -40.5t53.5 -16q36 0 53 16t22 40.5t6 48.5v211h124v-412h-104l-20 72h-2q-1 -3 -7.5 -16t-21.5 -28t-40.5 -26.5t-63.5 -11.5zM262 458h-54v15l42 99h101v-20z" />
    <glyph glyph-name="ucircumflex" unicode="&#xfb;" 
d="M175 -10q-44 0 -71.5 15t-42.5 39t-21 53t-7.5 57t-1.5 50v208h118v-209q0 -26 5 -50.5t21.5 -40.5t53.5 -16q36 0 53 16t22 40.5t6 48.5v211h124v-412h-104l-20 72h-2q-1 -3 -7.5 -16t-21.5 -28t-40.5 -26.5t-63.5 -11.5zM86 467v9l123 111h50l122 -111v-9h-105l-39 44
h-6l-36 -44h-109z" />
    <glyph glyph-name="udieresis" unicode="&#xfc;" 
d="M175 -10q-44 0 -71.5 15t-42.5 39t-21 53t-7.5 57t-1.5 50v208h118v-209q0 -26 5 -50.5t21.5 -40.5t53.5 -16q36 0 53 16t22 40.5t6 48.5v211h124v-412h-104l-20 72h-2q-1 -3 -7.5 -16t-21.5 -28t-40.5 -26.5t-63.5 -11.5zM138 457q-41 0 -55 20.5t-14 48.5q0 26 14 46.5
t55 20.5t54 -20.5t13 -46.5q0 -28 -13 -48.5t-54 -20.5zM332 457q-41 0 -55 20.5t-14 48.5q0 26 14 46.5t55 20.5q40 0 53.5 -20.5t13.5 -46.5q0 -28 -13.5 -48.5t-53.5 -20.5z" />
    <glyph glyph-name="yacute" unicode="&#xfd;" horiz-adv-x="457" 
d="M-1 -195v93h67q14 0 26.5 2t24 14t24.5 41l20 44l-161 413h124l95 -290l103 290h124l-194 -468q-20 -46 -36.5 -73.5t-34.5 -41.5t-41 -19t-56 -5h-85zM256 458h-54v15l42 99h101v-20z" />
    <glyph glyph-name="thorn" unicode="&#xfe;" horiz-adv-x="503" 
d="M316 -10q-30 0 -52.5 9.5t-39 23t-28 27t-16.5 23t-6 10.5v218l7 17t23.5 38.5t44 38t67.5 16.5q54 0 87.5 -30t49 -77t15.5 -99q0 -53 -15 -102.5t-48.5 -81t-88.5 -31.5zM50 -199v762h125v-481v-281h-125zM253 90q35 0 52.5 15.5t23.5 40t6 51.5q0 28 -6 52.5t-24 41
t-52 16.5q-31 0 -49 -14t-25.5 -38t-7.5 -58q0 -31 7 -55.5t24.5 -38t50.5 -13.5z" />
    <glyph glyph-name="ydieresis" unicode="&#xff;" horiz-adv-x="457" 
d="M-1 -195v93h67q14 0 26.5 2t24 14t24.5 41l20 44l-161 413h124l95 -290l103 290h124l-194 -468q-20 -46 -36.5 -73.5t-34.5 -41.5t-41 -19t-56 -5h-85zM133 457q-41 0 -55 20.5t-14 48.5q0 26 14 46.5t55 20.5t54 -20.5t13 -46.5q0 -28 -13 -48.5t-54 -20.5zM327 457
q-41 0 -55 20.5t-14 48.5q0 26 14 46.5t55 20.5q40 0 53.5 -20.5t13.5 -46.5q0 -28 -13.5 -48.5t-53.5 -20.5z" />
    <glyph glyph-name="Amacron" unicode="&#x100;" horiz-adv-x="578" 
d="M18 0l171 563h198l177 -563h-129l-144 513l-143 -513h-130zM147 150l-3 93h290l-1 -93h-286zM145 630v82h289v-82h-289z" />
    <glyph glyph-name="amacron" unicode="&#x101;" horiz-adv-x="467" 
d="M176 -10q-56 0 -90 26t-49 73t-15 111t15.5 112t49 74.5t89.5 26.5q38 0 63 -10.5t39.5 -25.5t21.5 -27.5t9 -15.5h2v78h124v-412h-105l-19 62h-2q-1 -4 -8.5 -15.5t-22.5 -24.5t-40 -22.5t-62 -9.5zM226 91q36 0 54 14.5t24 39.5t6 54q0 30 -6 55t-24 39t-54 14
t-54.5 -15t-24.5 -39.5t-6 -53.5t6 -53.5t24.5 -39.5t54.5 -15zM89 479v82h289v-82h-289z" />
    <glyph glyph-name="Abreve" unicode="&#x102;" horiz-adv-x="578" 
d="M18 0l171 563h198l177 -563h-129l-144 513l-143 -513h-130zM147 150l-3 93h290l-1 -93h-286zM289 614q-66 0 -102.5 30t-36.5 82h84q0 -27 16 -37t39 -10q25 0 39.5 10t14.5 37h85q0 -52 -36 -82t-103 -30z" />
    <glyph glyph-name="abreve" unicode="&#x103;" horiz-adv-x="467" 
d="M176 -10q-56 0 -90 26t-49 73t-15 111t15.5 112t49 74.5t89.5 26.5q38 0 63 -10.5t39.5 -25.5t21.5 -27.5t9 -15.5h2v78h124v-412h-105l-19 62h-2q-1 -4 -8.5 -15.5t-22.5 -24.5t-40 -22.5t-62 -9.5zM226 91q36 0 54 14.5t24 39.5t6 54q0 30 -6 55t-24 39t-54 14
t-54.5 -15t-24.5 -39.5t-6 -53.5t6 -53.5t24.5 -39.5t54.5 -15zM233 463q-66 0 -102.5 30t-36.5 82h84q0 -27 16 -37t39 -10q25 0 39.5 10t14.5 37h85q0 -52 -36 -82t-103 -30z" />
    <glyph glyph-name="Aogonek" unicode="&#x104;" horiz-adv-x="578" 
d="M487 -183q-24 0 -48.5 9t-41 29t-16.5 54q0 30 16 54t40 41t48 28t40 16.5l16 5.5l23 -54l-14.5 -5t-33.5 -14t-33.5 -21.5t-14.5 -30.5q0 -12 8.5 -19t21.5 -7t22.5 6.5t14.5 13.5l5 7l62 -56l-12.5 -14t-37.5 -28.5t-65 -14.5zM18 0l171 563h198l177 -563h-129
l-144 513l-143 -513h-130zM147 150l-3 93h290l-1 -93h-286z" />
    <glyph glyph-name="aogonek" unicode="&#x105;" horiz-adv-x="467" 
d="M176 -10q-56 0 -90 26t-49 73t-15 111t15.5 112t49 74.5t89.5 26.5q38 0 63 -10.5t39.5 -25.5t21.5 -27.5t9 -15.5h2v78h124v-412h-105l-19 62h-2q-1 -4 -8.5 -15.5t-22.5 -24.5t-40 -22.5t-62 -9.5zM226 91q36 0 54 14.5t24 39.5t6 54q0 30 -6 55t-24 39t-54 14
t-54.5 -15t-24.5 -39.5t-6 -53.5t6 -53.5t24.5 -39.5t54.5 -15zM383 -199q-24 0 -48.5 9t-41 29t-16.5 54q0 30 16 54t39.5 41t47 28t39.5 16.5l16 5.5v-54l-10.5 -4.5t-24.5 -14t-25 -22t-11 -30.5q0 -12 8 -19t22 -7q13 0 22.5 6.5t14 13.5l4.5 7l63 -56l-12.5 -14
t-37.5 -28.5t-65 -14.5z" />
    <glyph glyph-name="Cacute" unicode="&#x106;" horiz-adv-x="605" 
d="M302 -10q-79 0 -144 32t-103.5 96.5t-37.5 159.5q1 94 38.5 160t102.5 100.5t147 34.5q81 0 138 -29t89.5 -78t42.5 -108h-125q-6 42 -30 63.5t-55.5 29.5t-59.5 8q-83 0 -126 -45t-43 -127q0 -88 42 -136t126 -48q30 0 61.5 9t56 32.5t30.5 65.5h125q-10 -60 -43 -110.5
t-90.5 -80t-141.5 -29.5zM330 609h-54v15l42 99h101v-20z" />
    <glyph glyph-name="cacute" unicode="&#x107;" horiz-adv-x="477" 
d="M240 -10q-58 0 -106.5 23.5t-77.5 70t-29 115.5q2 67 30.5 115t76.5 74t107 26q66 0 111 -25.5t68.5 -64t25.5 -79.5h-110q-6 32 -29 49t-62 17q-33 0 -55 -13t-33.5 -36t-11.5 -54q0 -52 25 -83t77 -31q32 0 57.5 17t31.5 54h110q-2 -43 -25.5 -83.5t-69 -66
t-111.5 -25.5zM266 458h-54v15l42 99h101v-20z" />
    <glyph glyph-name="Cdotaccent" unicode="&#x10a;" horiz-adv-x="605" 
d="M302 -10q-79 0 -144 32t-103.5 96.5t-37.5 159.5q1 94 38.5 160t102.5 100.5t147 34.5q81 0 138 -29t89.5 -78t42.5 -108h-125q-6 42 -30 63.5t-55.5 29.5t-59.5 8q-83 0 -126 -45t-43 -127q0 -88 42 -136t126 -48q30 0 61.5 9t56 32.5t30.5 65.5h125q-10 -60 -43 -110.5
t-90.5 -80t-141.5 -29.5zM303 612q-38 0 -51 19.5t-13 44.5q0 24 13 43t51 19t50 -19t12 -43q0 -25 -12 -44.5t-50 -19.5z" />
    <glyph glyph-name="cdotaccent" unicode="&#x10b;" horiz-adv-x="477" 
d="M240 -10q-58 0 -106.5 23.5t-77.5 70t-29 115.5q2 67 30.5 115t76.5 74t107 26q66 0 111 -25.5t68.5 -64t25.5 -79.5h-110q-6 32 -29 49t-62 17q-33 0 -55 -13t-33.5 -36t-11.5 -54q0 -52 25 -83t77 -31q32 0 57.5 17t31.5 54h110q-2 -43 -25.5 -83.5t-69 -66
t-111.5 -25.5zM240 461q-38 0 -51 19.5t-13 44.5q0 24 13 43t51 19t50 -19t12 -43q0 -25 -12 -44.5t-50 -19.5z" />
    <glyph glyph-name="Ccaron" unicode="&#x10c;" horiz-adv-x="605" 
d="M302 -10q-79 0 -144 32t-103.5 96.5t-37.5 159.5q1 94 38.5 160t102.5 100.5t147 34.5q81 0 138 -29t89.5 -78t42.5 -108h-125q-6 42 -30 63.5t-55.5 29.5t-59.5 8q-83 0 -126 -45t-43 -127q0 -88 42 -136t126 -48q30 0 61.5 9t56 32.5t30.5 65.5h125q-10 -60 -43 -110.5
t-90.5 -80t-141.5 -29.5zM277 609l-122 113v9h108l37 -45h5l40 45h105v-9l-122 -113h-51z" />
    <glyph glyph-name="ccaron" unicode="&#x10d;" horiz-adv-x="477" 
d="M240 -10q-58 0 -106.5 23.5t-77.5 70t-29 115.5q2 67 30.5 115t76.5 74t107 26q66 0 111 -25.5t68.5 -64t25.5 -79.5h-110q-6 32 -29 49t-62 17q-33 0 -55 -13t-33.5 -36t-11.5 -54q0 -52 25 -83t77 -31q32 0 57.5 17t31.5 54h110q-2 -43 -25.5 -83.5t-69 -66
t-111.5 -25.5zM213 458l-122 113v9h108l37 -45h5l40 45h105v-9l-122 -113h-51z" />
    <glyph glyph-name="Dcaron" unicode="&#x10e;" horiz-adv-x="616" 
d="M181 99v360h74q60 0 103.5 -19.5t67 -58.5t23.5 -98q0 -57 -13.5 -93t-38.5 -56t-60.5 -27.5t-81.5 -7.5h-24h-50zM577 282q0 94 -44 156t-124.5 93.5t-188.5 31.5h-51h-107v-563h104.5h53.5q108 0 188.5 24t124.5 85.5t44 172.5zM242 609l-122 113v9h108l37 -45h5l40 45
h105v-9l-122 -113h-51z" />
    <glyph glyph-name="dcaron" unicode="&#x10f;" horiz-adv-x="643" 
d="M206 -10q-61 0 -97.5 25.5t-52.5 72.5t-16 110q0 67 16.5 115t53 73.5t96.5 25.5q39 0 64.5 -12t40.5 -28t21.5 -28.5t6.5 -13.5h2v233h124v-563h-105l-19 65h-2q0 -2 -7 -13.5t-23 -25.5t-41 -25t-62 -11zM249 90q37 0 57 15t27.5 39.5t7.5 54.5q0 29 -7.5 54t-27 39
t-56.5 14q-38 0 -58.5 -15t-27 -39.5t-6.5 -52.5t6.5 -52.5t26.5 -40.5t58 -16zM504 398l29 167h113l-72 -167h-70z" />
    <glyph glyph-name="Dcroat" unicode="&#x110;" horiz-adv-x="600" 
d="M62 0v563h107h51q108 0 188.5 -31.5t124.5 -93.5t44 -156q0 -111 -44 -172.5t-124.5 -85.5t-188.5 -24h-53.5h-104.5zM0 247v79h311v-79h-311zM181 99h50h24q46 0 81.5 7.5t60.5 27.5t38.5 56t13.5 93q0 59 -23.5 98t-67 58.5t-103.5 19.5h-74v-360z" />
    <glyph glyph-name="dcroat" unicode="&#x111;" horiz-adv-x="513" 
d="M202 -10q-61 0 -97.5 25.5t-52.5 72.5t-16 110q0 67 16.5 115t53 73.5t96.5 25.5q39 0 64.5 -12t40 -28t21 -28.5t7.5 -13.5h2v233h124v-563h-105l-19 65h-2q0 -2 -7.5 -13.5t-23 -25.5t-40.5 -25t-62 -11zM244 90q37 0 57 15t28 39.5t8 54.5q0 29 -7.5 54t-27 39
t-56.5 14q-38 0 -58.5 -15t-27 -39.5t-6.5 -52.5t6.5 -52.5t26 -40.5t57.5 -16zM202 451v71h299v-71h-299z" />
    <glyph glyph-name="Emacron" unicode="&#x112;" horiz-adv-x="512" 
d="M52 0v563h413v-103h-295v-126h224v-98h-224v-139h306v-97h-424zM112 630v82h289v-82h-289z" />
    <glyph glyph-name="emacron" unicode="&#x113;" 
d="M232 -10q-73 0 -118.5 30t-66.5 78t-23 100q-1 65 24 114t71.5 76t108.5 27q57 0 102 -24t71 -68.5t27 -105.5v-11v-15h-289q0 -51 24.5 -76t65.5 -25q34 0 55.5 16t25.5 42h117q-4 -43 -27 -79.5t-65 -57.5t-103 -21zM141 242h166q0 4 -2 16t-10 25.5t-24.5 23.5
t-45.5 10q-28 0 -45 -9t-25 -22.5t-11 -26t-3 -17.5zM90 479v82h289v-82h-289z" />
    <glyph glyph-name="Edotaccent" unicode="&#x116;" horiz-adv-x="512" 
d="M52 0v563h413v-103h-295v-126h224v-98h-224v-139h306v-97h-424zM257 612q-38 0 -51 19.5t-13 44.5q0 24 13 43t51 19t50 -19t12 -43q0 -25 -12 -44.5t-50 -19.5z" />
    <glyph glyph-name="edotaccent" unicode="&#x117;" 
d="M232 -10q-73 0 -118.5 30t-66.5 78t-23 100q-1 65 24 114t71.5 76t108.5 27q57 0 102 -24t71 -68.5t27 -105.5v-11v-15h-289q0 -51 24.5 -76t65.5 -25q34 0 55.5 16t25.5 42h117q-4 -43 -27 -79.5t-65 -57.5t-103 -21zM141 242h166q0 4 -2 16t-10 25.5t-24.5 23.5
t-45.5 10q-28 0 -45 -9t-25 -22.5t-11 -26t-3 -17.5zM235 461q-38 0 -51 19.5t-13 44.5q0 24 13 43t51 19t50 -19t12 -43q0 -25 -12 -44.5t-50 -19.5z" />
    <glyph glyph-name="Eogonek" unicode="&#x118;" horiz-adv-x="512" 
d="M52 0v563h413v-103h-295v-126h224v-98h-224v-139h306v-97h-424zM420 -183q-24 0 -48.5 9t-41 29t-16.5 54q0 30 16 54t39.5 41t47 28t39.5 16.5l16 5.5v-54l-10.5 -4.5t-24.5 -14t-25 -22t-11 -30.5q0 -12 8 -19t22 -7q13 0 22.5 6.5t14 13.5l4.5 7l63 -56l-12.5 -14
t-37.5 -28.5t-65 -14.5z" />
    <glyph glyph-name="eogonek" unicode="&#x119;" 
d="M250 -184q-24 0 -48.5 9t-41 29t-16.5 54q0 30 16 54t39.5 41t47 28t39.5 16.5l16 5.5v-54l-10.5 -5t-25 -14t-25 -21.5t-10.5 -30.5q0 -12 8 -19t21 -7q14 0 23 6.5t14 13.5l5 7l63 -56l-12.5 -14t-37.5 -28.5t-65 -14.5zM232 -10q-73 0 -118.5 30t-66.5 78t-23 100
q-1 65 24 114t71.5 76t108.5 27q57 0 102 -24t71 -68.5t27 -105.5v-11v-15h-289q0 -51 24.5 -76t65.5 -25q34 0 55.5 16t25.5 42h117q-4 -43 -27 -79.5t-65 -57.5t-103 -21zM141 242h166q0 4 -2 16t-10 25.5t-24.5 23.5t-45.5 10q-28 0 -45 -9t-25 -22.5t-11 -26t-3 -17.5z
" />
    <glyph glyph-name="Ecaron" unicode="&#x11a;" horiz-adv-x="512" 
d="M52 0v563h413v-103h-295v-126h224v-98h-224v-139h306v-97h-424zM231 609l-122 113v9h108l37 -45h5l40 45h105v-9l-122 -113h-51z" />
    <glyph glyph-name="ecaron" unicode="&#x11b;" 
d="M232 -10q-73 0 -118.5 30t-66.5 78t-23 100q-1 65 24 114t71.5 76t108.5 27q57 0 102 -24t71 -68.5t27 -105.5v-11v-15h-289q0 -51 24.5 -76t65.5 -25q34 0 55.5 16t25.5 42h117q-4 -43 -27 -79.5t-65 -57.5t-103 -21zM141 242h166q0 4 -2 16t-10 25.5t-24.5 23.5
t-45.5 10q-28 0 -45 -9t-25 -22.5t-11 -26t-3 -17.5zM209 458l-122 113v9h108l37 -45h5l40 45h105v-9l-122 -113h-51z" />
    <glyph glyph-name="Gbreve" unicode="&#x11e;" horiz-adv-x="629" 
d="M290 -11q-82 0 -144.5 33t-95.5 97.5t-32 158.5q3 95 40.5 161t102.5 100t148 34q119 0 182 -50t84 -145l-116 -18q-9 39 -32.5 60.5t-54.5 30.5t-63 9q-90 0 -131.5 -48.5t-40.5 -124.5q0 -88 48.5 -134t138.5 -46q32 0 62.5 8.5t54.5 28.5t34 54h-107v87h219v-285h-81
l-27 85h-2q-8 -18 -24 -35t-39.5 -30.5t-54.5 -22t-69 -8.5zM314 614q-66 0 -102.5 30t-36.5 82h84q0 -27 16 -37t39 -10q25 0 39.5 10t14.5 37h85q0 -52 -36 -82t-103 -30z" />
    <glyph glyph-name="gbreve" unicode="&#x11f;" horiz-adv-x="485" 
d="M158 -191v114h169v142h-2q-1 -2 -8 -13.5t-21.5 -25.5t-39.5 -25t-62 -11q-61 0 -98 26t-53.5 73t-16.5 110q0 67 17 114.5t54 73t97 25.5q39 0 64.5 -12t39.5 -28t20 -28.5t7 -13.5h2v82h124v-430q0 -65 -17 -103t-52 -54t-88 -16h-136zM234 90q37 0 57 15t27.5 39.5
t7.5 54.5q0 29 -7 54t-27 39t-56 14q-38 0 -58.5 -15t-27.5 -39.5t-7 -52.5t6.5 -52.5t26.5 -40.5t58 -16zM243 463q-66 0 -102.5 30t-36.5 82h84q0 -27 16 -37t39 -10q25 0 39.5 10t14.5 37h85q0 -52 -36 -82t-103 -30z" />
    <glyph glyph-name="Gdotaccent" unicode="&#x120;" horiz-adv-x="629" 
d="M290 -11q-82 0 -144.5 33t-95.5 97.5t-32 158.5q3 95 40.5 161t102.5 100t148 34q119 0 182 -50t84 -145l-116 -18q-9 39 -32.5 60.5t-54.5 30.5t-63 9q-90 0 -131.5 -48.5t-40.5 -124.5q0 -88 48.5 -134t138.5 -46q32 0 62.5 8.5t54.5 28.5t34 54h-107v87h219v-285h-81
l-27 85h-2q-8 -18 -24 -35t-39.5 -30.5t-54.5 -22t-69 -8.5zM316 612q-38 0 -51 19.5t-13 44.5q0 24 13 43t51 19t50 -19t12 -43q0 -25 -12 -44.5t-50 -19.5z" />
    <glyph glyph-name="gdotaccent" unicode="&#x121;" horiz-adv-x="485" 
d="M158 -191v114h169v142h-2q-1 -2 -8 -13.5t-21.5 -25.5t-39.5 -25t-62 -11q-61 0 -98 26t-53.5 73t-16.5 110q0 67 17 114.5t54 73t97 25.5q39 0 64.5 -12t39.5 -28t20 -28.5t7 -13.5h2v82h124v-430q0 -65 -17 -103t-52 -54t-88 -16h-136zM234 90q37 0 57 15t27.5 39.5
t7.5 54.5q0 29 -7 54t-27 39t-56 14q-38 0 -58.5 -15t-27.5 -39.5t-7 -52.5t6.5 -52.5t26.5 -40.5t58 -16zM244 461q-38 0 -51 19.5t-13 44.5q0 24 13 43t51 19t50 -19t12 -43q0 -25 -12 -44.5t-50 -19.5z" />
    <glyph glyph-name="uni0122" unicode="&#x122;" horiz-adv-x="629" 
d="M290 -11q-82 0 -144.5 33t-95.5 97.5t-32 158.5q3 95 40.5 161t102.5 100t148 34q119 0 182 -50t84 -145l-116 -18q-9 39 -32.5 60.5t-54.5 30.5t-63 9q-90 0 -131.5 -48.5t-40.5 -124.5q0 -88 48.5 -134t138.5 -46q32 0 62.5 8.5t54.5 28.5t34 54h-107v87h219v-285h-81
l-27 85h-2q-8 -18 -24 -35t-39.5 -30.5t-54.5 -22t-69 -8.5zM250 -275v76h27q27 0 38 6.5t11 26.5q-42 -1 -58.5 18t-16.5 46t15 45.5t51 18.5q27 0 44.5 -17t17.5 -70q0 -40 -10 -74t-32 -55t-59 -21h-28z" />
    <glyph glyph-name="uni0123" unicode="&#x123;" horiz-adv-x="485" 
d="M158 -191v114h169v142h-2q-1 -2 -8 -13.5t-21.5 -25.5t-39.5 -25t-62 -11q-61 0 -98 26t-53.5 73t-16.5 110q0 67 17 114.5t54 73t97 25.5q39 0 64.5 -12t39.5 -28t20 -28.5t7 -13.5h2v82h124v-430q0 -65 -17 -103t-52 -54t-88 -16h-136zM234 90q37 0 57 15t27.5 39.5
t7.5 54.5q0 29 -7 54t-27 39t-56 14q-38 0 -58.5 -15t-27.5 -39.5t-7 -52.5t6.5 -52.5t26.5 -40.5t58 -16zM261 461h-55v15l42 99h101v-20z" />
    <glyph glyph-name="Hbar" unicode="&#x126;" horiz-adv-x="596" 
d="M8 409v84h576v-84h-576zM175 0h-121v563h121v-563zM417 563h120v-563h-120v563zM492 239h-384v92h384v-92z" />
    <glyph glyph-name="hbar" unicode="&#x127;" horiz-adv-x="485" 
d="M317 0v143q0 46 -2 83.5t-18 60t-56 22.5q-27 0 -42.5 -17t-23 -51.5t-7.5 -84.5v138q-1 -7 1.5 3.5t10 29.5t22 39t37.5 34.5t55 14.5q48 0 77 -18.5t43 -48.5t19 -64.5t5 -68.5v-60v-155h-121zM48 0v563h120v-563h-120zM295 451h-298v71h298v-71z" />
    <glyph glyph-name="Itilde" unicode="&#x128;" horiz-adv-x="397" 
d="M136 18v527h120v-527h-120zM62 0v103h267v-103h-267zM62 460v103h267v-103h-267zM56 626q0 13 0.5 33t7.5 40.5t24.5 34.5t50.5 14q27 0 42.5 -9t25.5 -19.5t19 -19.5t22 -9q15 0 17.5 14.5t2.5 39.5h70q0 -19 -1.5 -40t-9.5 -40t-25 -31t-48 -12q-26 0 -41.5 8.5
t-25.5 19.5t-18.5 20t-22.5 9q-16 0 -18.5 -13.5t-2.5 -39.5h-69z" />
    <glyph glyph-name="itilde" unicode="&#x129;" horiz-adv-x="215" 
d="M47 0v412h121v-412h-121zM-33 475q0 13 0.5 33t7.5 40.5t24.5 34.5t50.5 14q27 0 42.5 -9t25.5 -19.5t19 -19.5t22 -9q15 0 17.5 14.5t2.5 39.5h70q0 -19 -1.5 -40t-9.5 -40t-25 -31t-48 -12q-26 0 -41.5 8.5t-25.5 19.5t-18.5 20t-22.5 9q-16 0 -18.5 -13.5t-2.5 -39.5
h-69z" />
    <glyph glyph-name="Imacron" unicode="&#x12a;" horiz-adv-x="397" 
d="M136 18v527h120v-527h-120zM62 0v103h267v-103h-267zM62 460v103h267v-103h-267zM52 630v82h289v-82h-289z" />
    <glyph glyph-name="imacron" unicode="&#x12b;" horiz-adv-x="215" 
d="M47 0v412h121v-412h-121zM18 479v82h178v-82h-178z" />
    <glyph glyph-name="Iogonek" unicode="&#x12e;" horiz-adv-x="397" 
d="M136 18v527h120v-527h-120zM62 0v103h267v-103h-267zM62 460v103h267v-103h-267zM200 -183q-24 0 -48.5 9t-41 29t-16.5 54q0 30 16 54t39.5 41t47 28t39.5 16.5l16 5.5v-54l-10.5 -4.5t-24.5 -14t-25 -22t-11 -30.5q0 -12 8 -19t22 -7q13 0 22.5 6.5t14 13.5l4.5 7
l63 -56l-12.5 -14t-37.5 -28.5t-65 -14.5z" />
    <glyph glyph-name="iogonek" unicode="&#x12f;" horiz-adv-x="215" 
d="M47 0v412h121v-412h-121zM108 461q-38 0 -51 19.5t-13 44.5q0 24 13 43t51 19t50 -19t12 -43q0 -25 -12 -44.5t-50 -19.5zM114 -183q-24 0 -48.5 9t-41 29t-16.5 54q0 30 16 54t39.5 41t47 28t39.5 16.5l16 5.5v-54l-10.5 -4.5t-24.5 -14t-25 -22t-11 -30.5q0 -12 8 -19
t22 -7q13 0 22.5 6.5t14 13.5l4.5 7l63 -56l-12.5 -14t-37.5 -28.5t-65 -14.5z" />
    <glyph glyph-name="Idotaccent" unicode="&#x130;" horiz-adv-x="397" 
d="M136 18v527h120v-527h-120zM62 0v103h267v-103h-267zM62 460v103h267v-103h-267zM197 612q-38 0 -51 19.5t-13 44.5q0 24 13 43t51 19t50 -19t12 -43q0 -25 -12 -44.5t-50 -19.5z" />
    <glyph glyph-name="dotlessi" unicode="&#x131;" horiz-adv-x="215" 
d="M47 0v412h121v-412h-121z" />
    <glyph glyph-name="IJ" unicode="&#x132;" horiz-adv-x="886" 
d="M136 18v527h120v-527h-120zM62 0v103h267v-103h-267zM62 460v103h267v-103h-267zM631 -10q-50 0 -87 13t-61 38.5t-36.5 61t-12.5 80.5h114q0 -23 6.5 -43.5t23.5 -33t48 -12.5q40 0 59 24t19 91v336h121v-316q0 -55 -7.5 -99.5t-28.5 -75.5t-59 -47.5t-99 -16.5z
M588 471v92h237v-92h-237z" />
    <glyph glyph-name="ij" unicode="&#x133;" horiz-adv-x="475" 
d="M48 0v412h121v-412h-121zM108 461q-38 0 -51 19.5t-13 44.5q0 24 13 43t51 19t50 -19t12 -43q0 -25 -12 -44.5t-50 -19.5zM333 461q-37 0 -50.5 19.5t-13.5 44.5q0 24 13.5 43t50.5 19q38 0 50 -19t12 -43q0 -25 -12 -44.5t-50 -19.5zM273 412h121v-487q0 -64 -30 -90
t-84 -26h-75v93h68v510z" />
    <glyph glyph-name="uni0136" unicode="&#x136;" horiz-adv-x="591" 
d="M180 174v134l229 255h157v-12zM63 0v563h120v-563h-120zM440 0l-199 289l87 85l250 -362v-12h-138zM231 -275v76h27q27 0 38 6.5t11 26.5q-42 -1 -58.5 18t-16.5 46t15 45.5t51 18.5q27 0 44.5 -17t17.5 -70q0 -40 -10 -74t-32 -55t-59 -21h-28z" />
    <glyph glyph-name="uni0137" unicode="&#x137;" horiz-adv-x="458" 
d="M159 0h-121v563h121v-563zM254 298l207 -298h-144l-151 213zM157 98v133l154 184h146zM165 -275v76h27q27 0 38 6.5t11 26.5q-42 -1 -58.5 18t-16.5 46t15 45.5t51 18.5q27 0 44.5 -17t17.5 -70q0 -40 -10 -74t-32 -55t-59 -21h-28z" />
    <glyph glyph-name="Lacute" unicode="&#x139;" horiz-adv-x="472" 
d="M62 3v560h121v-560h-121zM62 0v103h381v-103h-381zM140 610h-54v15l42 99h101v-20z" />
    <glyph glyph-name="lacute" unicode="&#x13a;" horiz-adv-x="211" 
d="M47 0v563h117v-563h-117zM133 609h-54v15l42 99h101v-20z" />
    <glyph glyph-name="uni013B" unicode="&#x13b;" horiz-adv-x="472" 
d="M62 3v560h121v-560h-121zM62 0v103h381v-103h-381zM172 -275v76h27q27 0 38 6.5t11 26.5q-42 -1 -58.5 18t-16.5 46t15 45.5t51 18.5q27 0 44.5 -17t17.5 -70q0 -40 -10 -74t-32 -55t-59 -21h-28z" />
    <glyph glyph-name="uni013C" unicode="&#x13c;" horiz-adv-x="211" 
d="M47 0v563h117v-563h-117zM41 -275v76h27q27 0 38 6.5t11 26.5q-42 -1 -58.5 18t-16.5 46t15 45.5t51 18.5q27 0 44.5 -17t17.5 -70q0 -40 -10 -74t-32 -55t-59 -21h-28z" />
    <glyph glyph-name="Lcaron" unicode="&#x13d;" horiz-adv-x="472" 
d="M62 3v560h121v-560h-121zM62 0v103h381v-103h-381zM290 396l29 167h113l-72 -167h-70z" />
    <glyph glyph-name="lcaron" unicode="&#x13e;" horiz-adv-x="357" 
d="M47 0v563h117v-563h-117zM215 398l29 167h113l-72 -167h-70z" />
    <glyph glyph-name="Lslash" unicode="&#x141;" horiz-adv-x="472" 
d="M0 173v105l293 134v-105zM62 3v560h121v-560h-121zM62 0v103h381v-103h-381z" />
    <glyph glyph-name="lslash" unicode="&#x142;" horiz-adv-x="269" 
d="M-8 173v105l245 134v-105zM47 0v563h117v-563h-117z" />
    <glyph glyph-name="Nacute" unicode="&#x143;" horiz-adv-x="618" 
d="M436 563h126v-563h-231l-149 510h-2v-510h-125v563h214l165 -510h2v510zM337 609h-54v15l42 99h101v-20z" />
    <glyph glyph-name="nacute" unicode="&#x144;" horiz-adv-x="476" 
d="M36 0v412h104l20 -82h2q1 1 7 14t20.5 28.5t40.5 27.5t66 12q44 0 72 -15t43 -39.5t20.5 -53.5t6.5 -56.5t1 -48.5v-199h-117v200q0 27 -5 51t-21.5 39.5t-53.5 15.5q-36 0 -53.5 -16t-23 -40.5t-5.5 -52.5v-197h-124zM266 458h-54v15l42 99h101v-20z" />
    <glyph glyph-name="uni0145" unicode="&#x145;" horiz-adv-x="618" 
d="M436 563h126v-563h-231l-149 510h-2v-510h-125v563h214l165 -510h2v510zM245 -275v76h27q27 0 38 6.5t11 26.5q-42 -1 -58.5 18t-16.5 46t15 45.5t51 18.5q27 0 44.5 -17t17.5 -70q0 -40 -10 -74t-32 -55t-59 -21h-28z" />
    <glyph glyph-name="uni0146" unicode="&#x146;" horiz-adv-x="476" 
d="M36 0v412h104l20 -82h2q1 1 7 14t20.5 28.5t40.5 27.5t66 12q44 0 72 -15t43 -39.5t20.5 -53.5t6.5 -56.5t1 -48.5v-199h-117v200q0 27 -5 51t-21.5 39.5t-53.5 15.5q-36 0 -53.5 -16t-23 -40.5t-5.5 -52.5v-197h-124zM174 -275v76h27q27 0 38 6.5t11 26.5
q-42 -1 -58.5 18t-16.5 46t15 45.5t51 18.5q27 0 44.5 -17t17.5 -70q0 -40 -10 -74t-32 -55t-59 -21h-28z" />
    <glyph glyph-name="Ncaron" unicode="&#x147;" horiz-adv-x="618" 
d="M436 563h126v-563h-231l-149 510h-2v-510h-125v563h214l165 -510h2v510zM283 609l-122 113v9h108l37 -45h5l40 45h105v-9l-122 -113h-51z" />
    <glyph glyph-name="ncaron" unicode="&#x148;" horiz-adv-x="476" 
d="M36 0v412h104l20 -82h2q1 1 7 14t20.5 28.5t40.5 27.5t66 12q44 0 72 -15t43 -39.5t20.5 -53.5t6.5 -56.5t1 -48.5v-199h-117v200q0 27 -5 51t-21.5 39.5t-53.5 15.5q-36 0 -53.5 -16t-23 -40.5t-5.5 -52.5v-197h-124zM212 458l-122 113v9h108l37 -45h5l40 45h105v-9
l-122 -113h-51z" />
    <glyph glyph-name="Eng" unicode="&#x14a;" horiz-adv-x="600" 
d="M416 -206q-36 0 -61 11.5t-38 22.5t-15 13l66 80q1 -1 11 -8.5t26 -7.5q14 0 25 9.5t11 34.5v57h121v-75q0 -35 -15 -66.5t-47 -51t-84 -19.5zM436 563h126v-563h-231l-149 510h-2v-510h-125v563h214l165 -510h2v510z" />
    <glyph glyph-name="eng" unicode="&#x14b;" horiz-adv-x="519" 
d="M296 -198q-35 0 -60 11t-38.5 22.5t-14.5 12.5l65 81q1 -2 11 -9.5t26 -7.5q15 0 26 9.5t11 34.5v57h117v-74q0 -36 -14 -67t-45 -50.5t-84 -19.5zM36 0v412h104l20 -82h2q1 1 7 14t20.5 28.5t40.5 27.5t66 12q44 0 72 -15t43 -39.5t20.5 -53.5t6.5 -56.5t1 -48.5v-199
h-117v200q0 27 -5 51t-21.5 39.5t-53.5 15.5q-36 0 -53.5 -16t-23 -40.5t-5.5 -52.5v-197h-124z" />
    <glyph glyph-name="Omacron" unicode="&#x14c;" horiz-adv-x="615" 
d="M300 -14q-138 0 -211 79.5t-73 214.5q0 89 31.5 154.5t94.5 102t158 36.5q139 0 211 -79.5t72 -213.5q0 -87 -32 -153.5t-95 -103.5t-156 -37zM298 103q56 0 93 23t55 63.5t18 90.5t-18 91t-54.5 65t-93.5 24q-80 0 -122.5 -50t-42.5 -130q0 -49 18.5 -89.5t54.5 -64
t92 -23.5zM164 630v82h289v-82h-289z" />
    <glyph glyph-name="omacron" unicode="&#x14d;" horiz-adv-x="479" 
d="M235 -10q-71 0 -118.5 27.5t-71 75t-23.5 108.5q0 62 23.5 109.5t71 75t118.5 27.5q104 0 158 -58t54 -154q0 -60 -23 -107.5t-70 -75.5t-119 -28zM235 91q41 0 61.5 17t27.5 43.5t7 53.5q0 28 -7 54.5t-27.5 44t-61.5 17.5t-62 -17.5t-28 -44t-7 -54.5q0 -27 7 -53.5
t28 -43.5t62 -17zM96 479v82h289v-82h-289z" />
    <glyph glyph-name="Ohungarumlaut" unicode="&#x150;" horiz-adv-x="615" 
d="M300 -14q-138 0 -211 79.5t-73 214.5q0 89 31.5 154.5t94.5 102t158 36.5q139 0 211 -79.5t72 -213.5q0 -87 -32 -153.5t-95 -103.5t-156 -37zM298 103q56 0 93 23t55 63.5t18 90.5t-18 91t-54.5 65t-93.5 24q-80 0 -122.5 -50t-42.5 -130q0 -49 18.5 -89.5t54.5 -64
t92 -23.5zM165 638l70 153l94 -47l-109 -132zM351 638l70 153l94 -47l-109 -132z" />
    <glyph glyph-name="ohungarumlaut" unicode="&#x151;" horiz-adv-x="479" 
d="M235 -10q-71 0 -118.5 27.5t-71 75t-23.5 108.5q0 62 23.5 109.5t71 75t118.5 27.5q104 0 158 -58t54 -154q0 -60 -23 -107.5t-70 -75.5t-119 -28zM235 91q41 0 61.5 17t27.5 43.5t7 53.5q0 28 -7 54.5t-27.5 44t-61.5 17.5t-62 -17.5t-28 -44t-7 -54.5q0 -27 7 -53.5
t28 -43.5t62 -17zM97 487l70 153l94 -47l-109 -132zM283 487l70 153l94 -47l-109 -132z" />
    <glyph glyph-name="OE" unicode="&#x152;" horiz-adv-x="852" 
d="M388 0q-108 0 -186.5 24t-121 85.5t-42.5 172.5q0 94 42.5 156t121 93.5t186.5 31.5h21h32.5h70.5v-563h-68h-33h-23zM360 99q5 0 3.5 0t3 0h25.5v360h-32q-60 0 -103 -19.5t-66.5 -58.5t-23.5 -98q0 -57 13 -93t38.5 -56t61.5 -27.5t80 -7.5zM392 0v563h414v-103h-295
v-126h223v-98h-223v-139h306v-97h-425z" />
    <glyph glyph-name="oe" unicode="&#x153;" horiz-adv-x="757" 
d="M228 -10q-71 0 -118.5 27.5t-71 75t-23.5 108.5q0 62 23.5 109.5t71 75t118.5 27.5q104 0 158 -58t54 -154q0 -60 -23 -107.5t-69.5 -75.5t-119.5 -28zM228 91q41 0 61.5 17t27.5 43.5t7 53.5q0 28 -7 54.5t-27.5 44t-61.5 17.5t-62 -17.5t-28 -44t-7 -54.5
q0 -27 7 -53.5t28 -43.5t62 -17zM537 -10q-75 0 -122 30t-68.5 78t-21.5 100q0 40 11 78.5t35.5 69.5t65.5 50t101 19q53 0 96.5 -26t69 -70.5t25.5 -101.5v-11v-15h-288q0 -47 25.5 -72t69.5 -25q36 0 55 16.5t26 44.5l115 -23q-11 -38 -35 -70.5t-63.5 -52t-96.5 -19.5z
M441 252h167q0 4 -1.5 16t-7.5 27t-21.5 25.5t-44.5 10.5q-31 0 -48.5 -10t-26.5 -24t-12.5 -27t-4.5 -18z" />
    <glyph glyph-name="Racute" unicode="&#x154;" horiz-adv-x="566" 
d="M53 0v563h218q74 0 126 -16.5t80.5 -53t28.5 -98.5q0 -48 -15 -83t-43.5 -54t-67.5 -19q27 0 42 -10.5t23 -28t11.5 -36.5t7 -37t10 -30.5t20.5 -16t39 6.5v-68q-23 -20 -53 -26t-58 4t-46.5 39.5t-18.5 81.5q0 27 -2.5 47.5t-12 34t-29 21t-53 9t-86.5 -1.5v-228h-121z
M174 314h85q48 0 78.5 3t45.5 18t15 50q0 41 -18 57.5t-53 19.5t-87 3h-66v-151zM283 609h-54v15l42 99h101v-20z" />
    <glyph glyph-name="racute" unicode="&#x155;" horiz-adv-x="356" 
d="M38 0v412h114l8 -120l-1 -89v-203h-121zM159 171l-3 92q0 20 7.5 45.5t25 49t49 39t77.5 15.5h12v-134h-13q-40 0 -69.5 -4.5t-48 -16.5t-28 -33t-9.5 -53zM206 458h-54v15l42 99h101v-20z" />
    <glyph glyph-name="uni0156" unicode="&#x156;" horiz-adv-x="566" 
d="M53 0v563h218q74 0 126 -16.5t80.5 -53t28.5 -98.5q0 -48 -15 -83t-43.5 -54t-67.5 -19q27 0 42 -10.5t23 -28t11.5 -36.5t7 -37t10 -30.5t20.5 -16t39 6.5v-68q-23 -20 -53 -26t-58 4t-46.5 39.5t-18.5 81.5q0 27 -2.5 47.5t-12 34t-29 21t-53 9t-86.5 -1.5v-228h-121z
M174 314h85q48 0 78.5 3t45.5 18t15 50q0 41 -18 57.5t-53 19.5t-87 3h-66v-151zM219 -275v76h27q27 0 38 6.5t11 26.5q-42 -1 -58.5 18t-16.5 46t15 45.5t51 18.5q27 0 44.5 -17t17.5 -70q0 -40 -10 -74t-32 -55t-59 -21h-28z" />
    <glyph glyph-name="uni0157" unicode="&#x157;" horiz-adv-x="356" 
d="M38 0v412h114l8 -120l-1 -89v-203h-121zM159 171l-3 92q0 20 7.5 45.5t25 49t49 39t77.5 15.5h12v-134h-13q-40 0 -69.5 -4.5t-48 -16.5t-28 -33t-9.5 -53zM34 -275v76h27q27 0 38 6.5t11 26.5q-42 -1 -58.5 18t-16.5 46t15 45.5t51 18.5q27 0 44.5 -17t17.5 -70
q0 -40 -10 -74t-32 -55t-59 -21h-28z" />
    <glyph glyph-name="Rcaron" unicode="&#x158;" horiz-adv-x="566" 
d="M53 0v563h218q74 0 126 -16.5t80.5 -53t28.5 -98.5q0 -48 -15 -83t-43.5 -54t-67.5 -19q27 0 42 -10.5t23 -28t11.5 -36.5t7 -37t10 -30.5t20.5 -16t39 6.5v-68q-23 -20 -53 -26t-58 4t-46.5 39.5t-18.5 81.5q0 27 -2.5 47.5t-12 34t-29 21t-53 9t-86.5 -1.5v-228h-121z
M174 314h85q48 0 78.5 3t45.5 18t15 50q0 41 -18 57.5t-53 19.5t-87 3h-66v-151zM230 609l-122 113v9h108l37 -45h5l40 45h105v-9l-122 -113h-51z" />
    <glyph glyph-name="rcaron" unicode="&#x159;" horiz-adv-x="356" 
d="M38 0v412h114l8 -120l-1 -89v-203h-121zM159 171l-3 92q0 20 7.5 45.5t25 49t49 39t77.5 15.5h12v-134h-13q-40 0 -69.5 -4.5t-48 -16.5t-28 -33t-9.5 -53zM152 458l-122 113v9h108l37 -45h5l40 45h105v-9l-122 -113h-51z" />
    <glyph glyph-name="Sacute" unicode="&#x15a;" horiz-adv-x="569" 
d="M279 -11q-47 0 -92.5 11t-81.5 35t-58 62.5t-22 91.5h121q0 -4 2 -14.5t10.5 -23.5t23.5 -25t41 -20t65 -8q22 0 40.5 4t32.5 11t21.5 18t7.5 24q0 25 -19.5 39.5t-51.5 23t-70.5 17t-76 20.5t-68.5 32t-48 52t-15 80q4 48 33.5 82.5t83 53t126.5 18.5q61 0 114 -21.5
t86 -65.5t33 -111h-117q0 27 -13 43.5t-33.5 25.5t-43 12.5t-39.5 3.5q-44 0 -72.5 -13t-28.5 -43q0 -26 20 -40.5t52 -23.5t71 -16.5t77.5 -19t69.5 -30.5t49 -50.5t14 -81.5q-2 -48 -34 -82t-85.5 -52.5t-124.5 -18.5zM312 609h-54v15l42 99h101v-20z" />
    <glyph glyph-name="sacute" unicode="&#x15b;" horiz-adv-x="421" 
d="M217 -10q-14 0 -38 3.5t-50.5 13t-50.5 27t-38.5 44.5t-14.5 66h111q0 -1 1 -11.5t7.5 -23t22.5 -22.5t47 -10q24 0 38 6.5t20 15.5t5 17q0 19 -17.5 29.5t-45.5 18.5l-59.5 17t-59.5 23.5t-45.5 39t-16.5 64.5q0 60 46.5 89t118.5 29q41 0 76 -9.5t62 -28.5t42 -49
t16 -70h-110q1 20 -6.5 33t-19.5 20t-26.5 10.5t-29.5 3.5q-32 0 -45.5 -11.5t-13.5 -25.5q0 -21 18 -32.5t46 -19.5t60.5 -17t60.5 -23t46 -37.5t18 -61.5q0 -39 -21.5 -65t-60.5 -39.5t-93 -13.5zM238 458h-54v15l42 99h101v-20z" />
    <glyph glyph-name="Scedilla" unicode="&#x15e;" horiz-adv-x="569" 
d="M279 -11q-47 0 -92.5 11t-81.5 35t-58 62.5t-22 91.5h121q0 -4 2 -14.5t10.5 -23.5t23.5 -25t41 -20t65 -8q22 0 40.5 4t32.5 11t21.5 18t7.5 24q0 25 -19.5 39.5t-51.5 23t-70.5 17t-76 20.5t-68.5 32t-48 52t-15 80q4 48 33.5 82.5t83 53t126.5 18.5q61 0 114 -21.5
t86 -65.5t33 -111h-117q0 27 -13 43.5t-33.5 25.5t-43 12.5t-39.5 3.5q-44 0 -72.5 -13t-28.5 -43q0 -26 20 -40.5t52 -23.5t71 -16.5t77.5 -19t69.5 -30.5t49 -50.5t14 -81.5q-2 -48 -34 -82t-85.5 -52.5t-124.5 -18.5zM174 -145l35 56q11 -9 37.5 -17.5t48.5 -8.5
q17 0 28.5 5.5t11.5 20.5q0 10 -10.5 16t-25.5 6q-10 0 -20 -3t-18 -11l-50 24l45 97l53 -21l-37 -61q11 8 26 13t32 5q30 0 57.5 -17t27.5 -53q0 -41 -35.5 -63t-85.5 -22q-30 0 -61 8.5t-59 25.5z" />
    <glyph glyph-name="scedilla" unicode="&#x15f;" horiz-adv-x="421" 
d="M217 -10q-14 0 -38 3.5t-50.5 13t-50.5 27t-38.5 44.5t-14.5 66h111q0 -1 1 -11.5t7.5 -23t22.5 -22.5t47 -10q24 0 38 6.5t20 15.5t5 17q0 19 -17.5 29.5t-45.5 18.5l-59.5 17t-59.5 23.5t-45.5 39t-16.5 64.5q0 60 46.5 89t118.5 29q41 0 76 -9.5t62 -28.5t42 -49
t16 -70h-110q1 20 -6.5 33t-19.5 20t-26.5 10.5t-29.5 3.5q-32 0 -45.5 -11.5t-13.5 -25.5q0 -21 18 -32.5t46 -19.5t60.5 -17t60.5 -23t46 -37.5t18 -61.5q0 -39 -21.5 -65t-60.5 -39.5t-93 -13.5zM100 -145l35 56q11 -9 37.5 -17.5t48.5 -8.5q17 0 28.5 5.5t11.5 20.5
q0 10 -10.5 16t-25.5 6q-10 0 -20 -3t-18 -11l-50 24l45 97l53 -21l-37 -61q11 8 26 13t32 5q30 0 57.5 -17t27.5 -53q0 -41 -35.5 -63t-85.5 -22q-30 0 -61 8.5t-59 25.5z" />
    <glyph glyph-name="Scaron" unicode="&#x160;" horiz-adv-x="569" 
d="M279 -11q-47 0 -92.5 11t-81.5 35t-58 62.5t-22 91.5h121q0 -4 2 -14.5t10.5 -23.5t23.5 -25t41 -20t65 -8q22 0 40.5 4t32.5 11t21.5 18t7.5 24q0 25 -19.5 39.5t-51.5 23t-70.5 17t-76 20.5t-68.5 32t-48 52t-15 80q4 48 33.5 82.5t83 53t126.5 18.5q61 0 114 -21.5
t86 -65.5t33 -111h-117q0 27 -13 43.5t-33.5 25.5t-43 12.5t-39.5 3.5q-44 0 -72.5 -13t-28.5 -43q0 -26 20 -40.5t52 -23.5t71 -16.5t77.5 -19t69.5 -30.5t49 -50.5t14 -81.5q-2 -48 -34 -82t-85.5 -52.5t-124.5 -18.5zM259 609l-122 113v9h108l37 -45h5l40 45h105v-9
l-122 -113h-51z" />
    <glyph glyph-name="scaron" unicode="&#x161;" horiz-adv-x="421" 
d="M217 -10q-14 0 -38 3.5t-50.5 13t-50.5 27t-38.5 44.5t-14.5 66h111q0 -1 1 -11.5t7.5 -23t22.5 -22.5t47 -10q24 0 38 6.5t20 15.5t5 17q0 19 -17.5 29.5t-45.5 18.5l-59.5 17t-59.5 23.5t-45.5 39t-16.5 64.5q0 60 46.5 89t118.5 29q41 0 76 -9.5t62 -28.5t42 -49
t16 -70h-110q1 20 -6.5 33t-19.5 20t-26.5 10.5t-29.5 3.5q-32 0 -45.5 -11.5t-13.5 -25.5q0 -21 18 -32.5t46 -19.5t60.5 -17t60.5 -23t46 -37.5t18 -61.5q0 -39 -21.5 -65t-60.5 -39.5t-93 -13.5zM185 458l-122 113v9h108l37 -45h5l40 45h105v-9l-122 -113h-51z" />
    <glyph glyph-name="uni0162" unicode="&#x162;" horiz-adv-x="472" 
d="M290 545v-545h-121v545h121zM10 460v103h440v-103h-440zM126 -145l35 56q11 -9 37.5 -17.5t48.5 -8.5q17 0 28.5 5.5t11.5 20.5q0 10 -10.5 16t-25.5 6q-10 0 -20 -3t-18 -11l-50 24l45 97l53 -21l-37 -61q11 8 26 13t32 5q30 0 57.5 -17t27.5 -53q0 -41 -35.5 -63
t-85.5 -22q-30 0 -61 8.5t-59 25.5z" />
    <glyph glyph-name="uni0163" unicode="&#x163;" horiz-adv-x="319" 
d="M187 0q-54 0 -84 26t-30 90v225h113v-248h96v-93h-95zM14 329v83q19 0 33.5 3.5t24 13.5t14 31.5t4.5 56.5h96v-105h93v-83h-265zM49 -145l35 56q11 -9 37.5 -17.5t48.5 -8.5q17 0 28.5 5.5t11.5 20.5q0 10 -10.5 16t-25.5 6q-10 0 -20 -3t-18 -11l-50 24l45 97l53 -21
l-37 -61q11 8 26 13t32 5q30 0 57.5 -17t27.5 -53q0 -41 -35.5 -63t-85.5 -22q-30 0 -61 8.5t-59 25.5z" />
    <glyph glyph-name="Tcaron" unicode="&#x164;" horiz-adv-x="472" 
d="M290 545v-545h-121v545h121zM10 460v103h440v-103h-440zM211 609l-122 113v9h108l37 -45h5l40 45h105v-9l-122 -113h-51z" />
    <glyph glyph-name="tcaron" unicode="&#x165;" horiz-adv-x="319" 
d="M187 0q-54 0 -84 26t-30 90v225h113v-248h96v-93h-95zM14 329v83q19 0 33.5 3.5t24 13.5t14 31.5t4.5 56.5h96v-105h93v-83h-265zM227 463l29 167h113l-72 -167h-70z" />
    <glyph glyph-name="Tbar" unicode="&#x166;" horiz-adv-x="472" 
d="M10 460v103h440v-103h-440zM57 248v84h346v-84h-346zM291 545v-545h-121v545h121z" />
    <glyph glyph-name="tbar" unicode="&#x167;" horiz-adv-x="319" 
d="M279 18q-33 -23 -69 -26.5t-67 11t-50.5 47t-19.5 82.5v212h113v-178q0 -39 10 -59t25.5 -26t31.5 -3t27 8zM16 168v84h260v-84h-260zM14 322v93q19 0 33.5 3t24 13.5t14 31.5t4.5 57h96v-105h93v-93h-265z" />
    <glyph glyph-name="Utilde" unicode="&#x168;" horiz-adv-x="605" 
d="M304 -14q-123 0 -186.5 66.5t-63.5 187.5v323h129v-322q0 -44 11.5 -71.5t29.5 -42.5t39 -20.5t41 -5.5q30 0 58 10t46 40.5t18 89.5v322h129v-323q0 -123 -62.5 -188.5t-188.5 -65.5zM162 626q0 13 0.5 33t7.5 40.5t24.5 34.5t50.5 14q27 0 42.5 -9t25.5 -19.5t19 -19.5
t22 -9q15 0 17.5 14.5t2.5 39.5h70q0 -19 -1.5 -40t-9.5 -40t-25 -31t-48 -12q-26 0 -41.5 8.5t-25.5 19.5t-18.5 20t-22.5 9q-16 0 -18.5 -13.5t-2.5 -39.5h-69z" />
    <glyph glyph-name="utilde" unicode="&#x169;" 
d="M175 -10q-44 0 -71.5 15t-42.5 39t-21 53t-7.5 57t-1.5 50v208h118v-209q0 -26 5 -50.5t21.5 -40.5t53.5 -16q36 0 53 16t22 40.5t6 48.5v211h124v-412h-104l-20 72h-2q-1 -3 -7.5 -16t-21.5 -28t-40.5 -26.5t-63.5 -11.5zM94 475q0 13 0.5 33t7.5 40.5t24.5 34.5
t50.5 14q27 0 42.5 -9t25.5 -19.5t19 -19.5t22 -9q15 0 17.5 14.5t2.5 39.5h70q0 -19 -1.5 -40t-9.5 -40t-25 -31t-48 -12q-26 0 -41.5 8.5t-25.5 19.5t-18.5 20t-22.5 9q-16 0 -18.5 -13.5t-2.5 -39.5h-69z" />
    <glyph glyph-name="Umacron" unicode="&#x16a;" horiz-adv-x="605" 
d="M304 -14q-123 0 -186.5 66.5t-63.5 187.5v323h129v-322q0 -44 11.5 -71.5t29.5 -42.5t39 -20.5t41 -5.5q30 0 58 10t46 40.5t18 89.5v322h129v-323q0 -123 -62.5 -188.5t-188.5 -65.5zM158 630v82h289v-82h-289z" />
    <glyph glyph-name="umacron" unicode="&#x16b;" 
d="M175 -10q-44 0 -71.5 15t-42.5 39t-21 53t-7.5 57t-1.5 50v208h118v-209q0 -26 5 -50.5t21.5 -40.5t53.5 -16q36 0 53 16t22 40.5t6 48.5v211h124v-412h-104l-20 72h-2q-1 -3 -7.5 -16t-21.5 -28t-40.5 -26.5t-63.5 -11.5zM90 479v82h289v-82h-289z" />
    <glyph glyph-name="Ubreve" unicode="&#x16c;" horiz-adv-x="605" 
d="M304 -14q-123 0 -186.5 66.5t-63.5 187.5v323h129v-322q0 -44 11.5 -71.5t29.5 -42.5t39 -20.5t41 -5.5q30 0 58 10t46 40.5t18 89.5v322h129v-323q0 -123 -62.5 -188.5t-188.5 -65.5zM302 614q-66 0 -102.5 30t-36.5 82h84q0 -27 16 -37t39 -10q25 0 39.5 10t14.5 37h85
q0 -52 -36 -82t-103 -30z" />
    <glyph glyph-name="ubreve" unicode="&#x16d;" 
d="M175 -10q-44 0 -71.5 15t-42.5 39t-21 53t-7.5 57t-1.5 50v208h118v-209q0 -26 5 -50.5t21.5 -40.5t53.5 -16q36 0 53 16t22 40.5t6 48.5v211h124v-412h-104l-20 72h-2q-1 -3 -7.5 -16t-21.5 -28t-40.5 -26.5t-63.5 -11.5zM234 463q-66 0 -102.5 30t-36.5 82h84
q0 -27 16 -37t39 -10q25 0 39.5 10t14.5 37h85q0 -52 -36 -82t-103 -30z" />
    <glyph glyph-name="Uring" unicode="&#x16e;" horiz-adv-x="605" 
d="M304 -14q-123 0 -186.5 66.5t-63.5 187.5v323h129v-322q0 -44 11.5 -71.5t29.5 -42.5t39 -20.5t41 -5.5q30 0 58 10t46 40.5t18 89.5v322h129v-323q0 -123 -62.5 -188.5t-188.5 -65.5zM301 622q-53 0 -78 27.5t-25 74.5q0 48 24.5 76t77.5 28q54 0 80 -28t26 -76
q0 -45 -26 -73.5t-79 -28.5zM299 692q19 0 27.5 9.5t8.5 24.5t-8.5 26t-27.5 11q-18 0 -27 -11t-9 -26t9 -24.5t27 -9.5z" />
    <glyph glyph-name="uring" unicode="&#x16f;" 
d="M175 -10q-44 0 -71.5 15t-42.5 39t-21 53t-7.5 57t-1.5 50v208h118v-209q0 -26 5 -50.5t21.5 -40.5t53.5 -16q36 0 53 16t22 40.5t6 48.5v211h124v-412h-104l-20 72h-2q-1 -3 -7.5 -16t-21.5 -28t-40.5 -26.5t-63.5 -11.5zM233 471q-53 0 -78 27.5t-25 74.5q0 48 24.5 76
t77.5 28q54 0 80 -28t26 -76q0 -45 -26 -73.5t-79 -28.5zM231 541q19 0 27.5 9.5t8.5 24.5t-8.5 26t-27.5 11q-18 0 -27 -11t-9 -26t9 -24.5t27 -9.5z" />
    <glyph glyph-name="Uhungarumlaut" unicode="&#x170;" horiz-adv-x="605" 
d="M304 -14q-123 0 -186.5 66.5t-63.5 187.5v323h129v-322q0 -44 11.5 -71.5t29.5 -42.5t39 -20.5t41 -5.5q30 0 58 10t46 40.5t18 89.5v322h129v-323q0 -123 -62.5 -188.5t-188.5 -65.5zM159 638l70 153l94 -47l-109 -132zM345 638l70 153l94 -47l-109 -132z" />
    <glyph glyph-name="uhungarumlaut" unicode="&#x171;" 
d="M175 -10q-44 0 -71.5 15t-42.5 39t-21 53t-7.5 57t-1.5 50v208h118v-209q0 -26 5 -50.5t21.5 -40.5t53.5 -16q36 0 53 16t22 40.5t6 48.5v211h124v-412h-104l-20 72h-2q-1 -3 -7.5 -16t-21.5 -28t-40.5 -26.5t-63.5 -11.5zM91 487l70 153l94 -47l-109 -132zM277 487
l70 153l94 -47l-109 -132z" />
    <glyph glyph-name="Uogonek" unicode="&#x172;" horiz-adv-x="605" 
d="M311 -188q-24 0 -48.5 9t-41 29t-16.5 54q0 30 16 53.5t40.5 40.5t48.5 28.5t40 16.5l16 5l1 -54l-11 -4.5t-26 -13.5t-26.5 -21.5t-11.5 -30.5q0 -12 8 -19t21 -7q14 0 23 6.5t14 13.5l5 7l63 -56l-12.5 -14t-37.5 -28.5t-65 -14.5zM304 -14q-123 0 -186.5 66.5
t-63.5 187.5v323h129v-322q0 -44 11.5 -71.5t29.5 -42.5t39 -20.5t41 -5.5q30 0 58 10t46 40.5t18 89.5v322h129v-323q0 -123 -62.5 -188.5t-188.5 -65.5z" />
    <glyph glyph-name="uogonek" unicode="&#x173;" 
d="M175 -10q-44 0 -71.5 15t-42.5 39t-21 53t-7.5 57t-1.5 50v208h118v-209q0 -26 5 -50.5t21.5 -40.5t53.5 -16q36 0 53 16t22 40.5t6 48.5v211h124v-412h-104l-20 72h-2q-1 -3 -7.5 -16t-21.5 -28t-40.5 -26.5t-63.5 -11.5zM372 -183q-24 0 -48.5 9t-41 29t-16.5 54
q0 30 16 54t39.5 41t47 28t39.5 16.5l16 5.5v-54l-10.5 -4.5t-24.5 -14t-25 -22t-11 -30.5q0 -12 8 -19t22 -7q13 0 22.5 6.5t14 13.5l4.5 7l63 -56l-12.5 -14t-37.5 -28.5t-65 -14.5z" />
    <glyph glyph-name="Wcircumflex" unicode="&#x174;" horiz-adv-x="811" 
d="M341 563h128l-64 -153l-71 -410h-194l-123 563h128l91 -513zM663 563h128l-119 -563h-194l-73 410l-66 153h130l106 -513zM257 618v9l123 111h50l122 -111v-9h-105l-39 44h-6l-36 -44h-109z" />
    <glyph glyph-name="wcircumflex" unicode="&#x175;" horiz-adv-x="653" 
d="M96 0l-89 394v20h119l56 -313h2l80 313h103l84 -313h2l56 313h118v-20l-91 -394h-168l-51 205h-2l-48 -205h-171zM179 467v9l123 111h50l122 -111v-9h-105l-39 44h-6l-36 -44h-109z" />
    <glyph glyph-name="Ycircumflex" unicode="&#x176;" horiz-adv-x="455" 
d="M167 196l-192 367h136l118 -263l119 263h135l-196 -367h-120zM167 0v209h120v-209h-120zM80 618v9l123 111h50l122 -111v-9h-105l-39 44h-6l-36 -44h-109z" />
    <glyph glyph-name="ycircumflex" unicode="&#x177;" horiz-adv-x="457" 
d="M-1 -195v93h67q14 0 26.5 2t24 14t24.5 41l20 44l-161 413h124l95 -290l103 290h124l-194 -468q-20 -46 -36.5 -73.5t-34.5 -41.5t-41 -19t-56 -5h-85zM80 467v9l123 111h50l122 -111v-9h-105l-39 44h-6l-36 -44h-109z" />
    <glyph glyph-name="Ydieresis" unicode="&#x178;" horiz-adv-x="455" 
d="M167 196l-192 367h136l118 -263l119 263h135l-196 -367h-120zM167 0v209h120v-209h-120zM132 608q-41 0 -55 20.5t-14 48.5q0 26 14 46.5t55 20.5t54 -20.5t13 -46.5q0 -28 -13 -48.5t-54 -20.5zM326 608q-41 0 -55 20.5t-14 48.5q0 26 14 46.5t55 20.5q40 0 53.5 -20.5
t13.5 -46.5q0 -28 -13.5 -48.5t-53.5 -20.5z" />
    <glyph glyph-name="Zacute" unicode="&#x179;" horiz-adv-x="573" 
d="M47 0v101l324 359h-302v103h457v-103l-319 -357h318v-103h-478zM315 609h-54v15l42 99h101v-20z" />
    <glyph glyph-name="zacute" unicode="&#x17a;" horiz-adv-x="452" 
d="M35 0v87l234 240h-220v88h359v-86l-228 -240h228v-89h-373zM254 458h-54v15l42 99h101v-20z" />
    <glyph glyph-name="Zdotaccent" unicode="&#x17b;" horiz-adv-x="573" 
d="M47 0v101l324 359h-302v103h457v-103l-319 -357h318v-103h-478zM288 612q-38 0 -51 19.5t-13 44.5q0 24 13 43t51 19t50 -19t12 -43q0 -25 -12 -44.5t-50 -19.5z" />
    <glyph glyph-name="zdotaccent" unicode="&#x17c;" horiz-adv-x="452" 
d="M35 0v87l234 240h-220v88h359v-86l-228 -240h228v-89h-373zM227 461q-38 0 -51 19.5t-13 44.5q0 24 13 43t51 19t50 -19t12 -43q0 -25 -12 -44.5t-50 -19.5z" />
    <glyph glyph-name="Zcaron" unicode="&#x17d;" horiz-adv-x="573" 
d="M47 0v101l324 359h-302v103h457v-103l-319 -357h318v-103h-478zM262 609l-122 113v9h108l37 -45h5l40 45h105v-9l-122 -113h-51z" />
    <glyph glyph-name="zcaron" unicode="&#x17e;" horiz-adv-x="452" 
d="M35 0v87l234 240h-220v88h359v-86l-228 -240h228v-89h-373zM201 458l-122 113v9h108l37 -45h5l40 45h105v-9l-122 -113h-51z" />
    <glyph glyph-name="Ohorn" unicode="&#x1a0;" horiz-adv-x="615" 
d="M300 -14q-138 0 -211 79.5t-73 214.5q0 89 31.5 154.5t94.5 102t158 36.5q139 0 211 -79.5t72 -213.5q0 -87 -32 -153.5t-95 -103.5t-156 -37zM298 103q56 0 93 23t55 63.5t18 90.5t-18 91t-54.5 65t-93.5 24q-80 0 -122.5 -50t-42.5 -130q0 -49 18.5 -89.5t54.5 -64
t92 -23.5zM375 493l1 70h47q16 0 22 3.5t7 15t1 36.5h79q0 -46 -10 -73.5t-36.5 -39.5t-74.5 -12h-36z" />
    <glyph glyph-name="ohorn" unicode="&#x1a1;" horiz-adv-x="479" 
d="M235 -10q-71 0 -118.5 27.5t-71 75t-23.5 108.5q0 62 23.5 109.5t71 75t118.5 27.5q104 0 158 -58t54 -154q0 -60 -23 -107.5t-70 -75.5t-119 -28zM235 91q41 0 61.5 17t27.5 43.5t7 53.5q0 28 -7 54.5t-27.5 44t-61.5 17.5t-62 -17.5t-28 -44t-7 -54.5q0 -27 7 -53.5
t28 -43.5t62 -17zM271 339l1 70h47q16 0 22 3.5t7 15t1 36.5h79q0 -46 -10 -73.5t-36.5 -39.5t-74.5 -12h-36z" />
    <glyph glyph-name="Uhorn" unicode="&#x1af;" horiz-adv-x="605" 
d="M304 -14q-123 0 -186.5 66.5t-63.5 187.5v323h129v-322q0 -44 11.5 -71.5t29.5 -42.5t39 -20.5t41 -5.5q30 0 58 10t46 40.5t18 89.5v322h129v-323q0 -123 -62.5 -188.5t-188.5 -65.5zM505 493l1 70h47q16 0 22 3.5t7 15t1 36.5h79q0 -46 -10 -73.5t-36.5 -39.5
t-74.5 -12h-36z" />
    <glyph glyph-name="uhorn" unicode="&#x1b0;" 
d="M175 -10q-44 0 -71.5 15t-42.5 39t-21 53t-7.5 57t-1.5 50v208h118v-209q0 -26 5 -50.5t21.5 -40.5t53.5 -16q36 0 53 16t22 40.5t6 48.5v211h124v-412h-104l-20 72h-2q-1 -3 -7.5 -16t-21.5 -28t-40.5 -26.5t-63.5 -11.5zM364 342l1 70h47q16 0 22 3.5t7 15t1 36.5h79
q0 -46 -10 -73.5t-36.5 -39.5t-74.5 -12h-36z" />
    <glyph glyph-name="uni0218" unicode="&#x218;" horiz-adv-x="569" 
d="M279 -11q-47 0 -92.5 11t-81.5 35t-58 62.5t-22 91.5h121q0 -4 2 -14.5t10.5 -23.5t23.5 -25t41 -20t65 -8q22 0 40.5 4t32.5 11t21.5 18t7.5 24q0 25 -19.5 39.5t-51.5 23t-70.5 17t-76 20.5t-68.5 32t-48 52t-15 80q4 48 33.5 82.5t83 53t126.5 18.5q61 0 114 -21.5
t86 -65.5t33 -111h-117q0 27 -13 43.5t-33.5 25.5t-43 12.5t-39.5 3.5q-44 0 -72.5 -13t-28.5 -43q0 -26 20 -40.5t52 -23.5t71 -16.5t77.5 -19t69.5 -30.5t49 -50.5t14 -81.5q-2 -48 -34 -82t-85.5 -52.5t-124.5 -18.5zM220 -275v76h27q27 0 38 6.5t11 26.5
q-42 -1 -58.5 18t-16.5 46t15 45.5t51 18.5q27 0 44.5 -17t17.5 -70q0 -40 -10 -74t-32 -55t-59 -21h-28z" />
    <glyph glyph-name="uni0219" unicode="&#x219;" horiz-adv-x="421" 
d="M217 -10q-14 0 -38 3.5t-50.5 13t-50.5 27t-38.5 44.5t-14.5 66h111q0 -1 1 -11.5t7.5 -23t22.5 -22.5t47 -10q24 0 38 6.5t20 15.5t5 17q0 19 -17.5 29.5t-45.5 18.5l-59.5 17t-59.5 23.5t-45.5 39t-16.5 64.5q0 60 46.5 89t118.5 29q41 0 76 -9.5t62 -28.5t42 -49
t16 -70h-110q1 20 -6.5 33t-19.5 20t-26.5 10.5t-29.5 3.5q-32 0 -45.5 -11.5t-13.5 -25.5q0 -21 18 -32.5t46 -19.5t60.5 -17t60.5 -23t46 -37.5t18 -61.5q0 -39 -21.5 -65t-60.5 -39.5t-93 -13.5zM146 -275v76h27q27 0 38 6.5t11 26.5q-42 -1 -58.5 18t-16.5 46t15 45.5
t51 18.5q27 0 44.5 -17t17.5 -70q0 -40 -10 -74t-32 -55t-59 -21h-28z" />
    <glyph glyph-name="uni021A" unicode="&#x21a;" horiz-adv-x="472" 
d="M290 545v-545h-121v545h121zM10 460v103h440v-103h-440zM172 -275v76h27q27 0 38 6.5t11 26.5q-42 -1 -58.5 18t-16.5 46t15 45.5t51 18.5q27 0 44.5 -17t17.5 -70q0 -40 -10 -74t-32 -55t-59 -21h-28z" />
    <glyph glyph-name="uni021B" unicode="&#x21b;" horiz-adv-x="319" 
d="M187 0q-54 0 -84 26t-30 90v225h113v-248h96v-93h-95zM14 329v83q19 0 33.5 3.5t24 13.5t14 31.5t4.5 56.5h96v-105h93v-83h-265zM95 -275v76h27q27 0 38 6.5t11 26.5q-42 -1 -58.5 18t-16.5 46t15 45.5t51 18.5q27 0 44.5 -17t17.5 -70q0 -40 -10 -74t-32 -55t-59 -21
h-28z" />
    <glyph glyph-name="uni0237" unicode="&#x237;" horiz-adv-x="260" 
d="M58 412h121v-487q0 -64 -30 -90t-84 -26h-75v93h68v510z" />
    <glyph glyph-name="circumflex" unicode="&#x2c6;" horiz-adv-x="472" 
d="M88 467v9l123 111h50l122 -111v-9h-105l-39 44h-6l-36 -44h-109z" />
    <glyph glyph-name="caron" unicode="&#x2c7;" horiz-adv-x="438" 
d="M194 458l-122 113v9h108l37 -45h5l40 45h105v-9l-122 -113h-51z" />
    <glyph glyph-name="breve" unicode="&#x2d8;" horiz-adv-x="386" 
d="M193 463q-66 0 -102.5 30t-36.5 82h84q0 -27 16 -37t39 -10q25 0 39.5 10t14.5 37h85q0 -52 -36 -82t-103 -30z" />
    <glyph glyph-name="dotaccent" unicode="&#x2d9;" horiz-adv-x="226" 
d="M114 461q-38 0 -51 19.5t-13 44.5q0 24 13 43t51 19t50 -19t12 -43q0 -25 -12 -44.5t-50 -19.5z" />
    <glyph glyph-name="ring" unicode="&#x2da;" horiz-adv-x="272" 
d="M135 471q-53 0 -78 27.5t-25 74.5q0 48 24.5 76t77.5 28q54 0 80 -28t26 -76q0 -45 -26 -73.5t-79 -28.5zM133 541q19 0 27.5 9.5t8.5 24.5t-8.5 26t-27.5 11q-18 0 -27 -11t-9 -26t9 -24.5t27 -9.5z" />
    <glyph glyph-name="ogonek" unicode="&#x2db;" horiz-adv-x="309" 
d="M150 -199q-24 0 -48.5 9t-41 29t-16.5 54q0 30 16 54t39.5 41t47 28t39.5 16.5l16 5.5v-54l-10.5 -4.5t-24.5 -14t-25 -22t-11 -30.5q0 -12 8 -19t22 -7q13 0 22.5 6.5t14 13.5l4.5 7l63 -56l-12.5 -14t-37.5 -28.5t-65 -14.5z" />
    <glyph glyph-name="tilde" unicode="&#x2dc;" horiz-adv-x="381" 
d="M50 475q0 13 0.5 33t7.5 40.5t24.5 34.5t50.5 14q27 0 42.5 -9t25.5 -19.5t19 -19.5t22 -9q15 0 17.5 14.5t2.5 39.5h70q0 -19 -1.5 -40t-9.5 -40t-25 -31t-48 -12q-26 0 -41.5 8.5t-25.5 19.5t-18.5 20t-22.5 9q-16 0 -18.5 -13.5t-2.5 -39.5h-69z" />
    <glyph glyph-name="hungarumlaut" unicode="&#x2dd;" horiz-adv-x="414" 
d="M32 487l70 153l94 -47l-109 -132zM218 487l70 153l94 -47l-109 -132z" />
    <glyph glyph-name="gravecomb" unicode="&#x300;" horiz-adv-x="0" 
d="M122 458l-88 94v20h101l42 -99v-15h-55z" />
    <glyph glyph-name="acutecomb" unicode="&#x301;" horiz-adv-x="0" 
d="M88 458h-54v15l42 99h101v-20z" />
    <glyph glyph-name="uni0302" unicode="&#x302;" horiz-adv-x="0" 
d="M88 467v9l123 111h50l122 -111v-9h-105l-39 44h-6l-36 -44h-109z" />
    <glyph glyph-name="tildecomb" unicode="&#x303;" horiz-adv-x="0" 
d="M50 475q0 13 0.5 33t7.5 40.5t24.5 34.5t50.5 14q27 0 42.5 -9t25.5 -19.5t19 -19.5t22 -9q15 0 17.5 14.5t2.5 39.5h70q0 -19 -1.5 -40t-9.5 -40t-25 -31t-48 -12q-26 0 -41.5 8.5t-25.5 19.5t-18.5 20t-22.5 9q-16 0 -18.5 -13.5t-2.5 -39.5h-69z" />
    <glyph glyph-name="uni0304" unicode="&#x304;" horiz-adv-x="0" 
d="M40 479v82h289v-82h-289z" />
    <glyph glyph-name="uni0306" unicode="&#x306;" horiz-adv-x="0" 
d="M193 463q-66 0 -102.5 30t-36.5 82h84q0 -27 16 -37t39 -10q25 0 39.5 10t14.5 37h85q0 -52 -36 -82t-103 -30z" />
    <glyph glyph-name="uni0307" unicode="&#x307;" horiz-adv-x="0" 
d="M114 461q-38 0 -51 19.5t-13 44.5q0 24 13 43t51 19t50 -19t12 -43q0 -25 -12 -44.5t-50 -19.5z" />
    <glyph glyph-name="uni0308" unicode="&#x308;" horiz-adv-x="0" 
d="M114 457q-41 0 -55 20.5t-14 48.5q0 26 14 46.5t55 20.5t54 -20.5t13 -46.5q0 -28 -13 -48.5t-54 -20.5zM308 457q-41 0 -55 20.5t-14 48.5q0 26 14 46.5t55 20.5q40 0 53.5 -20.5t13.5 -46.5q0 -28 -13.5 -48.5t-53.5 -20.5z" />
    <glyph glyph-name="hookabovecomb" unicode="&#x309;" horiz-adv-x="0" 
d="M101 459v17q6 14 21.5 23t29.5 20t14 28q0 13 -9.5 18.5t-21.5 5.5q-13 0 -25.5 -6.5t-17.5 -19.5l-47 32q10 34 39 51t61 17q36 0 65 -21t29 -64q0 -31 -13 -47.5t-28 -27.5t-22 -26h-75z" />
    <glyph glyph-name="uni030A" unicode="&#x30a;" horiz-adv-x="0" 
d="M135 471q-53 0 -78 27.5t-25 74.5q0 48 24.5 76t77.5 28q54 0 80 -28t26 -76q0 -45 -26 -73.5t-79 -28.5zM133 541q19 0 27.5 9.5t8.5 24.5t-8.5 26t-27.5 11q-18 0 -27 -11t-9 -26t9 -24.5t27 -9.5z" />
    <glyph glyph-name="uni030B" unicode="&#x30b;" horiz-adv-x="0" 
d="M32 487l70 153l94 -47l-109 -132zM218 487l70 153l94 -47l-109 -132z" />
    <glyph glyph-name="uni030C" unicode="&#x30c;" horiz-adv-x="0" 
d="M194 458l-122 113v9h108l37 -45h5l40 45h105v-9l-122 -113h-51z" />
    <glyph glyph-name="uni0312" unicode="&#x312;" horiz-adv-x="0" 
d="M109 461h-55v15l42 99h101v-20z" />
    <glyph glyph-name="uni031B" unicode="&#x31b;" horiz-adv-x="0" 
d="M44 588l1 70h47q16 0 22 3.5t7 15t1 36.5h79q0 -46 -10 -73.5t-36.5 -39.5t-74.5 -12h-36z" />
    <glyph glyph-name="dotbelowcomb" unicode="&#x323;" horiz-adv-x="0" 
d="M105 -195q-38 0 -51 19t-13 45q0 24 13 43t51 19q37 0 49.5 -19t12.5 -43q0 -26 -12.5 -45t-49.5 -19z" />
    <glyph glyph-name="uni0326" unicode="&#x326;" horiz-adv-x="0" 
d="M57 -275v76h27q27 0 38 6.5t11 26.5q-42 -1 -58.5 18t-16.5 46t15 45.5t51 18.5q27 0 44.5 -17t17.5 -70q0 -40 -10 -74t-32 -55t-59 -21h-28z" />
    <glyph glyph-name="uni0327" unicode="&#x327;" horiz-adv-x="0" 
d="M38 -119l35 56q11 -9 37.5 -17.5t48.5 -8.5q17 0 28.5 5.5t11.5 20.5q0 10 -10.5 16t-25.5 6q-10 0 -20 -3t-18 -11l-50 24l45 97l53 -21l-37 -61q11 8 26 13t32 5q30 0 57.5 -17t27.5 -53q0 -41 -35.5 -63t-85.5 -22q-30 0 -61 8.5t-59 25.5z" />
    <glyph glyph-name="uni0328" unicode="&#x328;" horiz-adv-x="0" 
d="M150 -199q-24 0 -48.5 9t-41 29t-16.5 54q0 30 16 54t39.5 41t47 28t39.5 16.5l16 5.5v-54l-10.5 -4.5t-24.5 -14t-25 -22t-11 -30.5q0 -12 8 -19t22 -7q13 0 22.5 6.5t14 13.5l4.5 7l63 -56l-12.5 -14t-37.5 -28.5t-65 -14.5z" />
    <glyph glyph-name="Wgrave" unicode="&#x1e80;" horiz-adv-x="811" 
d="M341 563h128l-64 -153l-71 -410h-194l-123 563h128l91 -513zM663 563h128l-119 -563h-194l-73 410l-66 153h130l106 -513zM376 609l-88 94v20h101l42 -99v-15h-55z" />
    <glyph glyph-name="wgrave" unicode="&#x1e81;" horiz-adv-x="653" 
d="M96 0l-89 394v20h119l56 -313h2l80 313h103l84 -313h2l56 313h118v-20l-91 -394h-168l-51 205h-2l-48 -205h-171zM297 458l-88 94v20h101l42 -99v-15h-55z" />
    <glyph glyph-name="Wacute" unicode="&#x1e82;" horiz-adv-x="811" 
d="M341 563h128l-64 -153l-71 -410h-194l-123 563h128l91 -513zM663 563h128l-119 -563h-194l-73 410l-66 153h130l106 -513zM433 609h-54v15l42 99h101v-20z" />
    <glyph glyph-name="wacute" unicode="&#x1e83;" horiz-adv-x="653" 
d="M96 0l-89 394v20h119l56 -313h2l80 313h103l84 -313h2l56 313h118v-20l-91 -394h-168l-51 205h-2l-48 -205h-171zM354 458h-54v15l42 99h101v-20z" />
    <glyph glyph-name="Wdieresis" unicode="&#x1e84;" horiz-adv-x="811" 
d="M341 563h128l-64 -153l-71 -410h-194l-123 563h128l91 -513zM663 563h128l-119 -563h-194l-73 410l-66 153h130l106 -513zM310 608q-41 0 -55 20.5t-14 48.5q0 26 14 46.5t55 20.5t54 -20.5t13 -46.5q0 -28 -13 -48.5t-54 -20.5zM504 608q-41 0 -55 20.5t-14 48.5
q0 26 14 46.5t55 20.5q40 0 53.5 -20.5t13.5 -46.5q0 -28 -13.5 -48.5t-53.5 -20.5z" />
    <glyph glyph-name="wdieresis" unicode="&#x1e85;" horiz-adv-x="653" 
d="M96 0l-89 394v20h119l56 -313h2l80 313h103l84 -313h2l56 313h118v-20l-91 -394h-168l-51 205h-2l-48 -205h-171zM231 457q-41 0 -55 20.5t-14 48.5q0 26 14 46.5t55 20.5t54 -20.5t13 -46.5q0 -28 -13 -48.5t-54 -20.5zM425 457q-41 0 -55 20.5t-14 48.5q0 26 14 46.5
t55 20.5q40 0 53.5 -20.5t13.5 -46.5q0 -28 -13.5 -48.5t-53.5 -20.5z" />
    <glyph glyph-name="uni1E9E" unicode="&#x1e9e;" horiz-adv-x="585" 
d="M62 -128v748h461v-748h-461zM183 -25h219v542h-219v-542z" />
    <glyph glyph-name="uni1EA0" unicode="&#x1ea0;" horiz-adv-x="578" 
d="M18 0l171 563h198l177 -563h-129l-144 513l-143 -513h-130zM147 150l-3 93h290l-1 -93h-286zM291 -195q-38 0 -51 19t-13 45q0 24 13 43t51 19q37 0 49.5 -19t12.5 -43q0 -26 -12.5 -45t-49.5 -19z" />
    <glyph glyph-name="uni1EA1" unicode="&#x1ea1;" horiz-adv-x="467" 
d="M176 -10q-56 0 -90 26t-49 73t-15 111t15.5 112t49 74.5t89.5 26.5q38 0 63 -10.5t39.5 -25.5t21.5 -27.5t9 -15.5h2v78h124v-412h-105l-19 62h-2q-1 -4 -8.5 -15.5t-22.5 -24.5t-40 -22.5t-62 -9.5zM226 91q36 0 54 14.5t24 39.5t6 54q0 30 -6 55t-24 39t-54 14
t-54.5 -15t-24.5 -39.5t-6 -53.5t6 -53.5t24.5 -39.5t54.5 -15zM234 -195q-38 0 -51 19t-13 45q0 24 13 43t51 19q37 0 49.5 -19t12.5 -43q0 -26 -12.5 -45t-49.5 -19z" />
    <glyph glyph-name="uni1EA2" unicode="&#x1ea2;" horiz-adv-x="578" 
d="M18 0l171 563h198l177 -563h-129l-144 513l-143 -513h-130zM147 150l-3 93h290l-1 -93h-286zM251 610v17q6 14 21.5 23t29.5 20t14 28q0 13 -9.5 18.5t-21.5 5.5q-13 0 -25.5 -6.5t-17.5 -19.5l-47 32q10 34 39 51t61 17q36 0 65 -21t29 -64q0 -31 -13 -47.5t-28 -27.5
t-22 -26h-75z" />
    <glyph glyph-name="uni1EA3" unicode="&#x1ea3;" horiz-adv-x="467" 
d="M176 -10q-56 0 -90 26t-49 73t-15 111t15.5 112t49 74.5t89.5 26.5q38 0 63 -10.5t39.5 -25.5t21.5 -27.5t9 -15.5h2v78h124v-412h-105l-19 62h-2q-1 -4 -8.5 -15.5t-22.5 -24.5t-40 -22.5t-62 -9.5zM226 91q36 0 54 14.5t24 39.5t6 54q0 30 -6 55t-24 39t-54 14
t-54.5 -15t-24.5 -39.5t-6 -53.5t6 -53.5t24.5 -39.5t54.5 -15zM195 459v17q6 14 21.5 23t29.5 20t14 28q0 13 -9.5 18.5t-21.5 5.5q-13 0 -25.5 -6.5t-17.5 -19.5l-47 32q10 34 39 51t61 17q36 0 65 -21t29 -64q0 -31 -13 -47.5t-28 -27.5t-22 -26h-75z" />
    <glyph glyph-name="uni1EA4" unicode="&#x1ea4;" horiz-adv-x="578" 
d="M18 0l171 563h198l177 -563h-129l-144 513l-143 -513h-130zM147 150l-3 93h290l-1 -93h-286zM144 618v9l123 111h50l122 -111v-9h-105l-39 44h-6l-36 -44h-109zM439 711h-54v15l42 99h101v-20z" />
    <glyph glyph-name="uni1EA5" unicode="&#x1ea5;" horiz-adv-x="467" 
d="M176 -10q-56 0 -90 26t-49 73t-15 111t15.5 112t49 74.5t89.5 26.5q38 0 63 -10.5t39.5 -25.5t21.5 -27.5t9 -15.5h2v78h124v-412h-105l-19 62h-2q-1 -4 -8.5 -15.5t-22.5 -24.5t-40 -22.5t-62 -9.5zM226 91q36 0 54 14.5t24 39.5t6 54q0 30 -6 55t-24 39t-54 14
t-54.5 -15t-24.5 -39.5t-6 -53.5t6 -53.5t24.5 -39.5t54.5 -15zM88 467v9l123 111h50l122 -111v-9h-105l-39 44h-6l-36 -44h-109zM383 560h-54v15l42 99h101v-20z" />
    <glyph glyph-name="uni1EA6" unicode="&#x1ea6;" horiz-adv-x="578" 
d="M18 0l171 563h198l177 -563h-129l-144 513l-143 -513h-130zM147 150l-3 93h290l-1 -93h-286zM434 710l-88 94v20h101l42 -99v-15h-55zM140 614v9l123 111h50l122 -111v-9h-105l-39 44h-6l-36 -44h-109z" />
    <glyph glyph-name="uni1EA7" unicode="&#x1ea7;" horiz-adv-x="467" 
d="M176 -10q-56 0 -90 26t-49 73t-15 111t15.5 112t49 74.5t89.5 26.5q38 0 63 -10.5t39.5 -25.5t21.5 -27.5t9 -15.5h2v78h124v-412h-105l-19 62h-2q-1 -4 -8.5 -15.5t-22.5 -24.5t-40 -22.5t-62 -9.5zM226 91q36 0 54 14.5t24 39.5t6 54q0 30 -6 55t-24 39t-54 14
t-54.5 -15t-24.5 -39.5t-6 -53.5t6 -53.5t24.5 -39.5t54.5 -15zM378 559l-88 94v20h101l42 -99v-15h-55zM84 464v9l123 111h50l122 -111v-9h-105l-39 44h-6l-36 -44h-109z" />
    <glyph glyph-name="uni1EA8" unicode="&#x1ea8;" horiz-adv-x="578" 
d="M18 0l171 563h198l177 -563h-129l-144 513l-143 -513h-130zM147 150l-3 93h290l-1 -93h-286zM140 614v9l123 111h50l122 -111v-9h-105l-39 44h-6l-36 -44h-109zM376 701v17q6 14 21.5 23t29.5 20t14 28q0 13 -9.5 18.5t-21.5 5.5q-13 0 -25.5 -6.5t-17.5 -19.5l-47 32
q10 34 39 51t61 17q36 0 65 -21t29 -64q0 -31 -13 -47.5t-28 -27.5t-22 -26h-75z" />
    <glyph glyph-name="uni1EA9" unicode="&#x1ea9;" horiz-adv-x="467" 
d="M176 -10q-56 0 -90 26t-49 73t-15 111t15.5 112t49 74.5t89.5 26.5q38 0 63 -10.5t39.5 -25.5t21.5 -27.5t9 -15.5h2v78h124v-412h-105l-19 62h-2q-1 -4 -8.5 -15.5t-22.5 -24.5t-40 -22.5t-62 -9.5zM226 91q36 0 54 14.5t24 39.5t6 54q0 30 -6 55t-24 39t-54 14
t-54.5 -15t-24.5 -39.5t-6 -53.5t6 -53.5t24.5 -39.5t54.5 -15zM84 464v9l123 111h50l122 -111v-9h-105l-39 44h-6l-36 -44h-109zM320 550v17q6 14 21.5 23t29.5 20t14 28q0 13 -9.5 18.5t-21.5 5.5q-13 0 -25.5 -6.5t-17.5 -19.5l-47 32q10 34 39 51t61 17q36 0 65 -21
t29 -64q0 -31 -13 -47.5t-28 -27.5t-22 -26h-75z" />
    <glyph glyph-name="uni1EAA" unicode="&#x1eaa;" horiz-adv-x="578" 
d="M18 0l171 563h198l177 -563h-129l-144 513l-143 -513h-130zM147 150l-3 93h290l-1 -93h-286zM142 614v9l123 111h50l122 -111v-9h-105l-39 44h-6l-36 -44h-109zM144 767q0 13 0.5 33t7.5 40.5t24.5 34.5t50.5 14q27 0 42.5 -9t25.5 -19.5t19 -19.5t22 -9q15 0 17.5 14.5
t2.5 39.5h70q0 -19 -1.5 -40t-9.5 -40t-25 -31t-48 -12q-26 0 -41.5 8.5t-25.5 19.5t-18.5 20t-22.5 9q-16 0 -18.5 -13.5t-2.5 -39.5h-69z" />
    <glyph glyph-name="uni1EAB" unicode="&#x1eab;" horiz-adv-x="467" 
d="M176 -10q-56 0 -90 26t-49 73t-15 111t15.5 112t49 74.5t89.5 26.5q38 0 63 -10.5t39.5 -25.5t21.5 -27.5t9 -15.5h2v78h124v-412h-105l-19 62h-2q-1 -4 -8.5 -15.5t-22.5 -24.5t-40 -22.5t-62 -9.5zM226 91q36 0 54 14.5t24 39.5t6 54q0 30 -6 55t-24 39t-54 14
t-54.5 -15t-24.5 -39.5t-6 -53.5t6 -53.5t24.5 -39.5t54.5 -15zM86 464v9l123 111h50l122 -111v-9h-105l-39 44h-6l-36 -44h-109zM88 617q0 13 0.5 33t7.5 40.5t24.5 34.5t50.5 14q27 0 42.5 -9t25.5 -19.5t19 -19.5t22 -9q15 0 17.5 14.5t2.5 39.5h70q0 -19 -1.5 -40
t-9.5 -40t-25 -31t-48 -12q-26 0 -41.5 8.5t-25.5 19.5t-18.5 20t-22.5 9q-16 0 -18.5 -13.5t-2.5 -39.5h-69z" />
    <glyph glyph-name="uni1EAC" unicode="&#x1eac;" horiz-adv-x="578" 
d="M18 0l171 563h198l177 -563h-129l-144 513l-143 -513h-130zM147 150l-3 93h290l-1 -93h-286zM291 -195q-38 0 -51 19t-13 45q0 24 13 43t51 19q37 0 49.5 -19t12.5 -43q0 -26 -12.5 -45t-49.5 -19zM141 618v9l123 111h50l122 -111v-9h-105l-39 44h-6l-36 -44h-109z" />
    <glyph glyph-name="uni1EAD" unicode="&#x1ead;" horiz-adv-x="467" 
d="M176 -10q-56 0 -90 26t-49 73t-15 111t15.5 112t49 74.5t89.5 26.5q38 0 63 -10.5t39.5 -25.5t21.5 -27.5t9 -15.5h2v78h124v-412h-105l-19 62h-2q-1 -4 -8.5 -15.5t-22.5 -24.5t-40 -22.5t-62 -9.5zM226 91q36 0 54 14.5t24 39.5t6 54q0 30 -6 55t-24 39t-54 14
t-54.5 -15t-24.5 -39.5t-6 -53.5t6 -53.5t24.5 -39.5t54.5 -15zM234 -195q-38 0 -51 19t-13 45q0 24 13 43t51 19q37 0 49.5 -19t12.5 -43q0 -26 -12.5 -45t-49.5 -19zM85 467v9l123 111h50l122 -111v-9h-105l-39 44h-6l-36 -44h-109z" />
    <glyph glyph-name="uni1EAE" unicode="&#x1eae;" horiz-adv-x="578" 
d="M18 0l171 563h198l177 -563h-129l-144 513l-143 -513h-130zM147 150l-3 93h290l-1 -93h-286zM289 614q-66 0 -102.5 30t-36.5 82h84q0 -27 16 -37t39 -10q25 0 39.5 10t14.5 37h85q0 -52 -36 -82t-103 -30zM317 764h-54v15l42 99h101v-20z" />
    <glyph glyph-name="uni1EAF" unicode="&#x1eaf;" horiz-adv-x="467" 
d="M176 -10q-56 0 -90 26t-49 73t-15 111t15.5 112t49 74.5t89.5 26.5q38 0 63 -10.5t39.5 -25.5t21.5 -27.5t9 -15.5h2v78h124v-412h-105l-19 62h-2q-1 -4 -8.5 -15.5t-22.5 -24.5t-40 -22.5t-62 -9.5zM226 91q36 0 54 14.5t24 39.5t6 54q0 30 -6 55t-24 39t-54 14
t-54.5 -15t-24.5 -39.5t-6 -53.5t6 -53.5t24.5 -39.5t54.5 -15zM233 463q-66 0 -102.5 30t-36.5 82h84q0 -27 16 -37t39 -10q25 0 39.5 10t14.5 37h85q0 -52 -36 -82t-103 -30zM261 613h-54v15l42 99h101v-20z" />
    <glyph glyph-name="uni1EB0" unicode="&#x1eb0;" horiz-adv-x="578" 
d="M18 0l171 563h198l177 -563h-129l-144 513l-143 -513h-130zM147 150l-3 93h290l-1 -93h-286zM289 614q-66 0 -102.5 30t-36.5 82h84q0 -27 16 -37t39 -10q25 0 39.5 10t14.5 37h85q0 -52 -36 -82t-103 -30zM260 764l-88 94v20h101l42 -99v-15h-55z" />
    <glyph glyph-name="uni1EB1" unicode="&#x1eb1;" horiz-adv-x="467" 
d="M176 -10q-56 0 -90 26t-49 73t-15 111t15.5 112t49 74.5t89.5 26.5q38 0 63 -10.5t39.5 -25.5t21.5 -27.5t9 -15.5h2v78h124v-412h-105l-19 62h-2q-1 -4 -8.5 -15.5t-22.5 -24.5t-40 -22.5t-62 -9.5zM226 91q36 0 54 14.5t24 39.5t6 54q0 30 -6 55t-24 39t-54 14
t-54.5 -15t-24.5 -39.5t-6 -53.5t6 -53.5t24.5 -39.5t54.5 -15zM233 463q-66 0 -102.5 30t-36.5 82h84q0 -27 16 -37t39 -10q25 0 39.5 10t14.5 37h85q0 -52 -36 -82t-103 -30zM204 613l-88 94v20h101l42 -99v-15h-55z" />
    <glyph glyph-name="uni1EB2" unicode="&#x1eb2;" horiz-adv-x="578" 
d="M18 0l171 563h198l177 -563h-129l-144 513l-143 -513h-130zM147 150l-3 93h290l-1 -93h-286zM289 614q-66 0 -102.5 30t-36.5 82h84q0 -27 16 -37t39 -10q25 0 39.5 10t14.5 37h85q0 -52 -36 -82t-103 -30zM251 765v17q6 14 21.5 23t29.5 20t14 28q0 13 -9.5 18.5
t-21.5 5.5q-13 0 -25.5 -6.5t-17.5 -19.5l-47 32q10 34 39 51t61 17q36 0 65 -21t29 -64q0 -31 -13 -47.5t-28 -27.5t-22 -26h-75z" />
    <glyph glyph-name="uni1EB3" unicode="&#x1eb3;" horiz-adv-x="467" 
d="M176 -10q-56 0 -90 26t-49 73t-15 111t15.5 112t49 74.5t89.5 26.5q38 0 63 -10.5t39.5 -25.5t21.5 -27.5t9 -15.5h2v78h124v-412h-105l-19 62h-2q-1 -4 -8.5 -15.5t-22.5 -24.5t-40 -22.5t-62 -9.5zM226 91q36 0 54 14.5t24 39.5t6 54q0 30 -6 55t-24 39t-54 14
t-54.5 -15t-24.5 -39.5t-6 -53.5t6 -53.5t24.5 -39.5t54.5 -15zM233 463q-66 0 -102.5 30t-36.5 82h84q0 -27 16 -37t39 -10q25 0 39.5 10t14.5 37h85q0 -52 -36 -82t-103 -30zM195 614v17q6 14 21.5 23t29.5 20t14 28q0 13 -9.5 18.5t-21.5 5.5q-13 0 -25.5 -6.5
t-17.5 -19.5l-47 32q10 34 39 51t61 17q36 0 65 -21t29 -64q0 -31 -13 -47.5t-28 -27.5t-22 -26h-75z" />
    <glyph glyph-name="uni1EB4" unicode="&#x1eb4;" horiz-adv-x="578" 
d="M18 0l171 563h198l177 -563h-129l-144 513l-143 -513h-130zM147 150l-3 93h290l-1 -93h-286zM293 614q-66 0 -102.5 30t-36.5 82h84q0 -27 16 -37t39 -10q25 0 39.5 10t14.5 37h85q0 -52 -36 -82t-103 -30zM153 781q0 13 0.5 33t7.5 40.5t24.5 34.5t50.5 14q27 0 42.5 -9
t25.5 -19.5t19 -19.5t22 -9q15 0 17.5 14.5t2.5 39.5h70q0 -19 -1.5 -40t-9.5 -40t-25 -31t-48 -12q-26 0 -41.5 8.5t-25.5 19.5t-18.5 20t-22.5 9q-16 0 -18.5 -13.5t-2.5 -39.5h-69z" />
    <glyph glyph-name="uni1EB5" unicode="&#x1eb5;" horiz-adv-x="467" 
d="M176 -10q-56 0 -90 26t-49 73t-15 111t15.5 112t49 74.5t89.5 26.5q38 0 63 -10.5t39.5 -25.5t21.5 -27.5t9 -15.5h2v78h124v-412h-105l-19 62h-2q-1 -4 -8.5 -15.5t-22.5 -24.5t-40 -22.5t-62 -9.5zM226 91q36 0 54 14.5t24 39.5t6 54q0 30 -6 55t-24 39t-54 14
t-54.5 -15t-24.5 -39.5t-6 -53.5t6 -53.5t24.5 -39.5t54.5 -15zM236 463q-66 0 -102.5 30t-36.5 82h84q0 -27 16 -37t39 -10q25 0 39.5 10t14.5 37h85q0 -52 -36 -82t-103 -30zM96 630q0 13 0.5 33t7.5 40.5t24.5 34.5t50.5 14q27 0 42.5 -9t25.5 -19.5t19 -19.5t22 -9
q15 0 17.5 14.5t2.5 39.5h70q0 -19 -1.5 -40t-9.5 -40t-25 -31t-48 -12q-26 0 -41.5 8.5t-25.5 19.5t-18.5 20t-22.5 9q-16 0 -18.5 -13.5t-2.5 -39.5h-69z" />
    <glyph glyph-name="uni1EB6" unicode="&#x1eb6;" horiz-adv-x="578" 
d="M18 0l171 563h198l177 -563h-129l-144 513l-143 -513h-130zM147 150l-3 93h290l-1 -93h-286zM291 -195q-38 0 -51 19t-13 45q0 24 13 43t51 19q37 0 49.5 -19t12.5 -43q0 -26 -12.5 -45t-49.5 -19zM289 614q-66 0 -102.5 30t-36.5 82h84q0 -27 16 -37t39 -10
q25 0 39.5 10t14.5 37h85q0 -52 -36 -82t-103 -30z" />
    <glyph glyph-name="uni1EB7" unicode="&#x1eb7;" horiz-adv-x="467" 
d="M176 -10q-56 0 -90 26t-49 73t-15 111t15.5 112t49 74.5t89.5 26.5q38 0 63 -10.5t39.5 -25.5t21.5 -27.5t9 -15.5h2v78h124v-412h-105l-19 62h-2q-1 -4 -8.5 -15.5t-22.5 -24.5t-40 -22.5t-62 -9.5zM226 91q36 0 54 14.5t24 39.5t6 54q0 30 -6 55t-24 39t-54 14
t-54.5 -15t-24.5 -39.5t-6 -53.5t6 -53.5t24.5 -39.5t54.5 -15zM234 -195q-38 0 -51 19t-13 45q0 24 13 43t51 19q37 0 49.5 -19t12.5 -43q0 -26 -12.5 -45t-49.5 -19zM233 463q-66 0 -102.5 30t-36.5 82h84q0 -27 16 -37t39 -10q25 0 39.5 10t14.5 37h85q0 -52 -36 -82
t-103 -30z" />
    <glyph glyph-name="uni1EB8" unicode="&#x1eb8;" horiz-adv-x="512" 
d="M52 0v563h413v-103h-295v-126h224v-98h-224v-139h306v-97h-424zM258 -195q-38 0 -51 19t-13 45q0 24 13 43t51 19q37 0 49.5 -19t12.5 -43q0 -26 -12.5 -45t-49.5 -19z" />
    <glyph glyph-name="uni1EB9" unicode="&#x1eb9;" 
d="M232 -10q-73 0 -118.5 30t-66.5 78t-23 100q-1 65 24 114t71.5 76t108.5 27q57 0 102 -24t71 -68.5t27 -105.5v-11v-15h-289q0 -51 24.5 -76t65.5 -25q34 0 55.5 16t25.5 42h117q-4 -43 -27 -79.5t-65 -57.5t-103 -21zM141 242h166q0 4 -2 16t-10 25.5t-24.5 23.5
t-45.5 10q-28 0 -45 -9t-25 -22.5t-11 -26t-3 -17.5zM235 -195q-38 0 -51 19t-13 45q0 24 13 43t51 19q37 0 49.5 -19t12.5 -43q0 -26 -12.5 -45t-49.5 -19z" />
    <glyph glyph-name="uni1EBA" unicode="&#x1eba;" horiz-adv-x="512" 
d="M52 0v563h413v-103h-295v-126h224v-98h-224v-139h306v-97h-424zM218 610v17q6 14 21.5 23t29.5 20t14 28q0 13 -9.5 18.5t-21.5 5.5q-13 0 -25.5 -6.5t-17.5 -19.5l-47 32q10 34 39 51t61 17q36 0 65 -21t29 -64q0 -31 -13 -47.5t-28 -27.5t-22 -26h-75z" />
    <glyph glyph-name="uni1EBB" unicode="&#x1ebb;" 
d="M232 -10q-73 0 -118.5 30t-66.5 78t-23 100q-1 65 24 114t71.5 76t108.5 27q57 0 102 -24t71 -68.5t27 -105.5v-11v-15h-289q0 -51 24.5 -76t65.5 -25q34 0 55.5 16t25.5 42h117q-4 -43 -27 -79.5t-65 -57.5t-103 -21zM141 242h166q0 4 -2 16t-10 25.5t-24.5 23.5
t-45.5 10q-28 0 -45 -9t-25 -22.5t-11 -26t-3 -17.5zM196 459v17q6 14 21.5 23t29.5 20t14 28q0 13 -9.5 18.5t-21.5 5.5q-13 0 -25.5 -6.5t-17.5 -19.5l-47 32q10 34 39 51t61 17q36 0 65 -21t29 -64q0 -31 -13 -47.5t-28 -27.5t-22 -26h-75z" />
    <glyph glyph-name="uni1EBC" unicode="&#x1ebc;" horiz-adv-x="512" 
d="M52 0v563h413v-103h-295v-126h224v-98h-224v-139h306v-97h-424zM116 626q0 13 0.5 33t7.5 40.5t24.5 34.5t50.5 14q27 0 42.5 -9t25.5 -19.5t19 -19.5t22 -9q15 0 17.5 14.5t2.5 39.5h70q0 -19 -1.5 -40t-9.5 -40t-25 -31t-48 -12q-26 0 -41.5 8.5t-25.5 19.5t-18.5 20
t-22.5 9q-16 0 -18.5 -13.5t-2.5 -39.5h-69z" />
    <glyph glyph-name="uni1EBD" unicode="&#x1ebd;" 
d="M232 -10q-73 0 -118.5 30t-66.5 78t-23 100q-1 65 24 114t71.5 76t108.5 27q57 0 102 -24t71 -68.5t27 -105.5v-11v-15h-289q0 -51 24.5 -76t65.5 -25q34 0 55.5 16t25.5 42h117q-4 -43 -27 -79.5t-65 -57.5t-103 -21zM141 242h166q0 4 -2 16t-10 25.5t-24.5 23.5
t-45.5 10q-28 0 -45 -9t-25 -22.5t-11 -26t-3 -17.5zM94 475q0 13 0.5 33t7.5 40.5t24.5 34.5t50.5 14q27 0 42.5 -9t25.5 -19.5t19 -19.5t22 -9q15 0 17.5 14.5t2.5 39.5h70q0 -19 -1.5 -40t-9.5 -40t-25 -31t-48 -12q-26 0 -41.5 8.5t-25.5 19.5t-18.5 20t-22.5 9
q-16 0 -18.5 -13.5t-2.5 -39.5h-69z" />
    <glyph glyph-name="uni1EBE" unicode="&#x1ebe;" horiz-adv-x="512" 
d="M52 0v563h413v-103h-295v-126h224v-98h-224v-139h306v-97h-424zM111 618v9l123 111h50l122 -111v-9h-105l-39 44h-6l-36 -44h-109zM406 711h-54v15l42 99h101v-20z" />
    <glyph glyph-name="uni1EBF" unicode="&#x1ebf;" 
d="M232 -10q-73 0 -118.5 30t-66.5 78t-23 100q-1 65 24 114t71.5 76t108.5 27q57 0 102 -24t71 -68.5t27 -105.5v-11v-15h-289q0 -51 24.5 -76t65.5 -25q34 0 55.5 16t25.5 42h117q-4 -43 -27 -79.5t-65 -57.5t-103 -21zM141 242h166q0 4 -2 16t-10 25.5t-24.5 23.5
t-45.5 10q-28 0 -45 -9t-25 -22.5t-11 -26t-3 -17.5zM89 467v9l123 111h50l122 -111v-9h-105l-39 44h-6l-36 -44h-109zM383 560h-54v15l42 99h101v-20z" />
    <glyph glyph-name="uni1EC0" unicode="&#x1ec0;" horiz-adv-x="512" 
d="M52 0v563h413v-103h-295v-126h224v-98h-224v-139h306v-97h-424zM401 710l-88 94v20h101l42 -99v-15h-55zM107 614v9l123 111h50l122 -111v-9h-105l-39 44h-6l-36 -44h-109z" />
    <glyph glyph-name="uni1EC1" unicode="&#x1ec1;" 
d="M232 -10q-73 0 -118.5 30t-66.5 78t-23 100q-1 65 24 114t71.5 76t108.5 27q57 0 102 -24t71 -68.5t27 -105.5v-11v-15h-289q0 -51 24.5 -76t65.5 -25q34 0 55.5 16t25.5 42h117q-4 -43 -27 -79.5t-65 -57.5t-103 -21zM141 242h166q0 4 -2 16t-10 25.5t-24.5 23.5
t-45.5 10q-28 0 -45 -9t-25 -22.5t-11 -26t-3 -17.5zM379 559l-88 94v20h101l42 -99v-15h-55zM85 464v9l123 111h50l122 -111v-9h-105l-39 44h-6l-36 -44h-109z" />
    <glyph glyph-name="uni1EC2" unicode="&#x1ec2;" horiz-adv-x="512" 
d="M52 0v563h413v-103h-295v-126h224v-98h-224v-139h306v-97h-424zM107 614v9l123 111h50l122 -111v-9h-105l-39 44h-6l-36 -44h-109zM343 701v17q6 14 21.5 23t29.5 20t14 28q0 13 -9.5 18.5t-21.5 5.5q-13 0 -25.5 -6.5t-17.5 -19.5l-47 32q10 34 39 51t61 17q36 0 65 -21
t29 -64q0 -31 -13 -47.5t-28 -27.5t-22 -26h-75z" />
    <glyph glyph-name="uni1EC3" unicode="&#x1ec3;" 
d="M232 -10q-73 0 -118.5 30t-66.5 78t-23 100q-1 65 24 114t71.5 76t108.5 27q57 0 102 -24t71 -68.5t27 -105.5v-11v-15h-289q0 -51 24.5 -76t65.5 -25q34 0 55.5 16t25.5 42h117q-4 -43 -27 -79.5t-65 -57.5t-103 -21zM141 242h166q0 4 -2 16t-10 25.5t-24.5 23.5
t-45.5 10q-28 0 -45 -9t-25 -22.5t-11 -26t-3 -17.5zM85 464v9l123 111h50l122 -111v-9h-105l-39 44h-6l-36 -44h-109zM321 550v17q6 14 21.5 23t29.5 20t14 28q0 13 -9.5 18.5t-21.5 5.5q-13 0 -25.5 -6.5t-17.5 -19.5l-47 32q10 34 39 51t61 17q36 0 65 -21t29 -64
q0 -31 -13 -47.5t-28 -27.5t-22 -26h-75z" />
    <glyph glyph-name="uni1EC4" unicode="&#x1ec4;" horiz-adv-x="512" 
d="M52 0v563h413v-103h-295v-126h224v-98h-224v-139h306v-97h-424zM109 614v9l123 111h50l122 -111v-9h-105l-39 44h-6l-36 -44h-109zM111 767q0 13 0.5 33t7.5 40.5t24.5 34.5t50.5 14q27 0 42.5 -9t25.5 -19.5t19 -19.5t22 -9q15 0 17.5 14.5t2.5 39.5h70q0 -19 -1.5 -40
t-9.5 -40t-25 -31t-48 -12q-26 0 -41.5 8.5t-25.5 19.5t-18.5 20t-22.5 9q-16 0 -18.5 -13.5t-2.5 -39.5h-69z" />
    <glyph glyph-name="uni1EC5" unicode="&#x1ec5;" 
d="M232 -10q-73 0 -118.5 30t-66.5 78t-23 100q-1 65 24 114t71.5 76t108.5 27q57 0 102 -24t71 -68.5t27 -105.5v-11v-15h-289q0 -51 24.5 -76t65.5 -25q34 0 55.5 16t25.5 42h117q-4 -43 -27 -79.5t-65 -57.5t-103 -21zM141 242h166q0 4 -2 16t-10 25.5t-24.5 23.5
t-45.5 10q-28 0 -45 -9t-25 -22.5t-11 -26t-3 -17.5zM87 464v9l123 111h50l122 -111v-9h-105l-39 44h-6l-36 -44h-109zM89 617q0 13 0.5 33t7.5 40.5t24.5 34.5t50.5 14q27 0 42.5 -9t25.5 -19.5t19 -19.5t22 -9q15 0 17.5 14.5t2.5 39.5h70q0 -19 -1.5 -40t-9.5 -40
t-25 -31t-48 -12q-26 0 -41.5 8.5t-25.5 19.5t-18.5 20t-22.5 9q-16 0 -18.5 -13.5t-2.5 -39.5h-69z" />
    <glyph glyph-name="uni1EC6" unicode="&#x1ec6;" horiz-adv-x="512" 
d="M52 0v563h413v-103h-295v-126h224v-98h-224v-139h306v-97h-424zM258 -195q-38 0 -51 19t-13 45q0 24 13 43t51 19q37 0 49.5 -19t12.5 -43q0 -26 -12.5 -45t-49.5 -19zM108 618v9l123 111h50l122 -111v-9h-105l-39 44h-6l-36 -44h-109z" />
    <glyph glyph-name="uni1EC7" unicode="&#x1ec7;" 
d="M232 -10q-73 0 -118.5 30t-66.5 78t-23 100q-1 65 24 114t71.5 76t108.5 27q57 0 102 -24t71 -68.5t27 -105.5v-11v-15h-289q0 -51 24.5 -76t65.5 -25q34 0 55.5 16t25.5 42h117q-4 -43 -27 -79.5t-65 -57.5t-103 -21zM141 242h166q0 4 -2 16t-10 25.5t-24.5 23.5
t-45.5 10q-28 0 -45 -9t-25 -22.5t-11 -26t-3 -17.5zM235 -195q-38 0 -51 19t-13 45q0 24 13 43t51 19q37 0 49.5 -19t12.5 -43q0 -26 -12.5 -45t-49.5 -19zM86 467v9l123 111h50l122 -111v-9h-105l-39 44h-6l-36 -44h-109z" />
    <glyph glyph-name="uni1EC8" unicode="&#x1ec8;" horiz-adv-x="397" 
d="M136 18v527h120v-527h-120zM62 0v103h267v-103h-267zM62 460v103h267v-103h-267zM158 610v17q6 14 21.5 23t29.5 20t14 28q0 13 -9.5 18.5t-21.5 5.5q-13 0 -25.5 -6.5t-17.5 -19.5l-47 32q10 34 39 51t61 17q36 0 65 -21t29 -64q0 -31 -13 -47.5t-28 -27.5t-22 -26h-75z
" />
    <glyph glyph-name="uni1EC9" unicode="&#x1ec9;" horiz-adv-x="215" 
d="M47 0v412h121v-412h-121zM69 459v17q6 14 21.5 23t29.5 20t14 28q0 13 -9.5 18.5t-21.5 5.5q-13 0 -25.5 -6.5t-17.5 -19.5l-47 32q10 34 39 51t61 17q36 0 65 -21t29 -64q0 -31 -13 -47.5t-28 -27.5t-22 -26h-75z" />
    <glyph glyph-name="uni1ECA" unicode="&#x1eca;" horiz-adv-x="397" 
d="M136 18v527h120v-527h-120zM62 0v103h267v-103h-267zM62 460v103h267v-103h-267zM200 -195q-38 0 -51 19t-13 45q0 24 13 43t51 19q37 0 49.5 -19t12.5 -43q0 -26 -12.5 -45t-49.5 -19z" />
    <glyph glyph-name="uni1ECB" unicode="&#x1ecb;" horiz-adv-x="215" 
d="M48 0v412h121v-412h-121zM108 461q-38 0 -51 19.5t-13 44.5q0 24 13 43t51 19t50 -19t12 -43q0 -25 -12 -44.5t-50 -19.5zM112 -195q-38 0 -51 19t-13 45q0 24 13 43t51 19q37 0 49.5 -19t12.5 -43q0 -26 -12.5 -45t-49.5 -19z" />
    <glyph glyph-name="uni1ECC" unicode="&#x1ecc;" horiz-adv-x="615" 
d="M300 -14q-138 0 -211 79.5t-73 214.5q0 89 31.5 154.5t94.5 102t158 36.5q139 0 211 -79.5t72 -213.5q0 -87 -32 -153.5t-95 -103.5t-156 -37zM298 103q56 0 93 23t55 63.5t18 90.5t-18 91t-54.5 65t-93.5 24q-80 0 -122.5 -50t-42.5 -130q0 -49 18.5 -89.5t54.5 -64
t92 -23.5zM309 -195q-38 0 -51 19t-13 45q0 24 13 43t51 19q37 0 49.5 -19t12.5 -43q0 -26 -12.5 -45t-49.5 -19z" />
    <glyph glyph-name="uni1ECD" unicode="&#x1ecd;" horiz-adv-x="479" 
d="M235 -10q-71 0 -118.5 27.5t-71 75t-23.5 108.5q0 62 23.5 109.5t71 75t118.5 27.5q104 0 158 -58t54 -154q0 -60 -23 -107.5t-70 -75.5t-119 -28zM235 91q41 0 61.5 17t27.5 43.5t7 53.5q0 28 -7 54.5t-27.5 44t-61.5 17.5t-62 -17.5t-28 -44t-7 -54.5q0 -27 7 -53.5
t28 -43.5t62 -17zM241 -195q-38 0 -51 19t-13 45q0 24 13 43t51 19q37 0 49.5 -19t12.5 -43q0 -26 -12.5 -45t-49.5 -19z" />
    <glyph glyph-name="uni1ECE" unicode="&#x1ece;" horiz-adv-x="615" 
d="M300 -14q-138 0 -211 79.5t-73 214.5q0 89 31.5 154.5t94.5 102t158 36.5q139 0 211 -79.5t72 -213.5q0 -87 -32 -153.5t-95 -103.5t-156 -37zM298 103q56 0 93 23t55 63.5t18 90.5t-18 91t-54.5 65t-93.5 24q-80 0 -122.5 -50t-42.5 -130q0 -49 18.5 -89.5t54.5 -64
t92 -23.5zM270 610v17q6 14 21.5 23t29.5 20t14 28q0 13 -9.5 18.5t-21.5 5.5q-13 0 -25.5 -6.5t-17.5 -19.5l-47 32q10 34 39 51t61 17q36 0 65 -21t29 -64q0 -31 -13 -47.5t-28 -27.5t-22 -26h-75z" />
    <glyph glyph-name="uni1ECF" unicode="&#x1ecf;" horiz-adv-x="479" 
d="M235 -10q-71 0 -118.5 27.5t-71 75t-23.5 108.5q0 62 23.5 109.5t71 75t118.5 27.5q104 0 158 -58t54 -154q0 -60 -23 -107.5t-70 -75.5t-119 -28zM235 91q41 0 61.5 17t27.5 43.5t7 53.5q0 28 -7 54.5t-27.5 44t-61.5 17.5t-62 -17.5t-28 -44t-7 -54.5q0 -27 7 -53.5
t28 -43.5t62 -17zM202 459v17q6 14 21.5 23t29.5 20t14 28q0 13 -9.5 18.5t-21.5 5.5q-13 0 -25.5 -6.5t-17.5 -19.5l-47 32q10 34 39 51t61 17q36 0 65 -21t29 -64q0 -31 -13 -47.5t-28 -27.5t-22 -26h-75z" />
    <glyph glyph-name="uni1ED0" unicode="&#x1ed0;" horiz-adv-x="615" 
d="M300 -14q-138 0 -211 79.5t-73 214.5q0 89 31.5 154.5t94.5 102t158 36.5q139 0 211 -79.5t72 -213.5q0 -87 -32 -153.5t-95 -103.5t-156 -37zM298 103q56 0 93 23t55 63.5t18 90.5t-18 91t-54.5 65t-93.5 24q-80 0 -122.5 -50t-42.5 -130q0 -49 18.5 -89.5t54.5 -64
t92 -23.5zM163 618v9l123 111h50l122 -111v-9h-105l-39 44h-6l-36 -44h-109zM457 711h-54v15l42 99h101v-20z" />
    <glyph glyph-name="uni1ED1" unicode="&#x1ed1;" horiz-adv-x="479" 
d="M235 -10q-71 0 -118.5 27.5t-71 75t-23.5 108.5q0 62 23.5 109.5t71 75t118.5 27.5q104 0 158 -58t54 -154q0 -60 -23 -107.5t-70 -75.5t-119 -28zM235 91q41 0 61.5 17t27.5 43.5t7 53.5q0 28 -7 54.5t-27.5 44t-61.5 17.5t-62 -17.5t-28 -44t-7 -54.5q0 -27 7 -53.5
t28 -43.5t62 -17zM95 467v9l123 111h50l122 -111v-9h-105l-39 44h-6l-36 -44h-109zM389 560h-54v15l42 99h101v-20z" />
    <glyph glyph-name="uni1ED2" unicode="&#x1ed2;" horiz-adv-x="615" 
d="M300 -14q-138 0 -211 79.5t-73 214.5q0 89 31.5 154.5t94.5 102t158 36.5q139 0 211 -79.5t72 -213.5q0 -87 -32 -153.5t-95 -103.5t-156 -37zM298 103q56 0 93 23t55 63.5t18 90.5t-18 91t-54.5 65t-93.5 24q-80 0 -122.5 -50t-42.5 -130q0 -49 18.5 -89.5t54.5 -64
t92 -23.5zM453 710l-88 94v20h101l42 -99v-15h-55zM159 614v9l123 111h50l122 -111v-9h-105l-39 44h-6l-36 -44h-109z" />
    <glyph glyph-name="uni1ED3" unicode="&#x1ed3;" horiz-adv-x="479" 
d="M235 -10q-71 0 -118.5 27.5t-71 75t-23.5 108.5q0 62 23.5 109.5t71 75t118.5 27.5q104 0 158 -58t54 -154q0 -60 -23 -107.5t-70 -75.5t-119 -28zM235 91q41 0 61.5 17t27.5 43.5t7 53.5q0 28 -7 54.5t-27.5 44t-61.5 17.5t-62 -17.5t-28 -44t-7 -54.5q0 -27 7 -53.5
t28 -43.5t62 -17zM385 559l-88 94v20h101l42 -99v-15h-55zM91 464v9l123 111h50l122 -111v-9h-105l-39 44h-6l-36 -44h-109z" />
    <glyph glyph-name="uni1ED4" unicode="&#x1ed4;" horiz-adv-x="615" 
d="M300 -14q-138 0 -211 79.5t-73 214.5q0 89 31.5 154.5t94.5 102t158 36.5q139 0 211 -79.5t72 -213.5q0 -87 -32 -153.5t-95 -103.5t-156 -37zM298 103q56 0 93 23t55 63.5t18 90.5t-18 91t-54.5 65t-93.5 24q-80 0 -122.5 -50t-42.5 -130q0 -49 18.5 -89.5t54.5 -64
t92 -23.5zM159 614v9l123 111h50l122 -111v-9h-105l-39 44h-6l-36 -44h-109zM395 701v17q6 14 21.5 23t29.5 20t14 28q0 13 -9.5 18.5t-21.5 5.5q-13 0 -25.5 -6.5t-17.5 -19.5l-47 32q10 34 39 51t61 17q36 0 65 -21t29 -64q0 -31 -13 -47.5t-28 -27.5t-22 -26h-75z" />
    <glyph glyph-name="uni1ED5" unicode="&#x1ed5;" horiz-adv-x="479" 
d="M235 -10q-71 0 -118.5 27.5t-71 75t-23.5 108.5q0 62 23.5 109.5t71 75t118.5 27.5q104 0 158 -58t54 -154q0 -60 -23 -107.5t-70 -75.5t-119 -28zM235 91q41 0 61.5 17t27.5 43.5t7 53.5q0 28 -7 54.5t-27.5 44t-61.5 17.5t-62 -17.5t-28 -44t-7 -54.5q0 -27 7 -53.5
t28 -43.5t62 -17zM91 464v9l123 111h50l122 -111v-9h-105l-39 44h-6l-36 -44h-109zM327 550v17q6 14 21.5 23t29.5 20t14 28q0 13 -9.5 18.5t-21.5 5.5q-13 0 -25.5 -6.5t-17.5 -19.5l-47 32q10 34 39 51t61 17q36 0 65 -21t29 -64q0 -31 -13 -47.5t-28 -27.5t-22 -26h-75z
" />
    <glyph glyph-name="uni1ED6" unicode="&#x1ed6;" horiz-adv-x="615" 
d="M300 -14q-138 0 -211 79.5t-73 214.5q0 89 31.5 154.5t94.5 102t158 36.5q139 0 211 -79.5t72 -213.5q0 -87 -32 -153.5t-95 -103.5t-156 -37zM298 103q56 0 93 23t55 63.5t18 90.5t-18 91t-54.5 65t-93.5 24q-80 0 -122.5 -50t-42.5 -130q0 -49 18.5 -89.5t54.5 -64
t92 -23.5zM161 614v9l123 111h50l122 -111v-9h-105l-39 44h-6l-36 -44h-109zM163 767q0 13 0.5 33t7.5 40.5t24.5 34.5t50.5 14q27 0 42.5 -9t25.5 -19.5t19 -19.5t22 -9q15 0 17.5 14.5t2.5 39.5h70q0 -19 -1.5 -40t-9.5 -40t-25 -31t-48 -12q-26 0 -41.5 8.5t-25.5 19.5
t-18.5 20t-22.5 9q-16 0 -18.5 -13.5t-2.5 -39.5h-69z" />
    <glyph glyph-name="uni1ED7" unicode="&#x1ed7;" horiz-adv-x="479" 
d="M235 -10q-71 0 -118.5 27.5t-71 75t-23.5 108.5q0 62 23.5 109.5t71 75t118.5 27.5q104 0 158 -58t54 -154q0 -60 -23 -107.5t-70 -75.5t-119 -28zM235 91q41 0 61.5 17t27.5 43.5t7 53.5q0 28 -7 54.5t-27.5 44t-61.5 17.5t-62 -17.5t-28 -44t-7 -54.5q0 -27 7 -53.5
t28 -43.5t62 -17zM93 464v9l123 111h50l122 -111v-9h-105l-39 44h-6l-36 -44h-109zM95 617q0 13 0.5 33t7.5 40.5t24.5 34.5t50.5 14q27 0 42.5 -9t25.5 -19.5t19 -19.5t22 -9q15 0 17.5 14.5t2.5 39.5h70q0 -19 -1.5 -40t-9.5 -40t-25 -31t-48 -12q-26 0 -41.5 8.5
t-25.5 19.5t-18.5 20t-22.5 9q-16 0 -18.5 -13.5t-2.5 -39.5h-69z" />
    <glyph glyph-name="uni1ED8" unicode="&#x1ed8;" horiz-adv-x="615" 
d="M300 -14q-138 0 -211 79.5t-73 214.5q0 89 31.5 154.5t94.5 102t158 36.5q139 0 211 -79.5t72 -213.5q0 -87 -32 -153.5t-95 -103.5t-156 -37zM298 103q56 0 93 23t55 63.5t18 90.5t-18 91t-54.5 65t-93.5 24q-80 0 -122.5 -50t-42.5 -130q0 -49 18.5 -89.5t54.5 -64
t92 -23.5zM309 -195q-38 0 -51 19t-13 45q0 24 13 43t51 19q37 0 49.5 -19t12.5 -43q0 -26 -12.5 -45t-49.5 -19zM160 618v9l123 111h50l122 -111v-9h-105l-39 44h-6l-36 -44h-109z" />
    <glyph glyph-name="uni1ED9" unicode="&#x1ed9;" horiz-adv-x="479" 
d="M235 -10q-71 0 -118.5 27.5t-71 75t-23.5 108.5q0 62 23.5 109.5t71 75t118.5 27.5q104 0 158 -58t54 -154q0 -60 -23 -107.5t-70 -75.5t-119 -28zM235 91q41 0 61.5 17t27.5 43.5t7 53.5q0 28 -7 54.5t-27.5 44t-61.5 17.5t-62 -17.5t-28 -44t-7 -54.5q0 -27 7 -53.5
t28 -43.5t62 -17zM241 -195q-38 0 -51 19t-13 45q0 24 13 43t51 19q37 0 49.5 -19t12.5 -43q0 -26 -12.5 -45t-49.5 -19zM92 467v9l123 111h50l122 -111v-9h-105l-39 44h-6l-36 -44h-109z" />
    <glyph glyph-name="uni1EDA" unicode="&#x1eda;" horiz-adv-x="615" 
d="M300 -14q-138 0 -211 79.5t-73 214.5q0 89 31.5 154.5t94.5 102t158 36.5q139 0 211 -79.5t72 -213.5q0 -87 -32 -153.5t-95 -103.5t-156 -37zM298 103q56 0 93 23t55 63.5t18 90.5t-18 91t-54.5 65t-93.5 24q-80 0 -122.5 -50t-42.5 -130q0 -49 18.5 -89.5t54.5 -64
t92 -23.5zM375 493l1 70h47q16 0 22 3.5t7 15t1 36.5h79q0 -46 -10 -73.5t-36.5 -39.5t-74.5 -12h-36zM336 609h-54v15l42 99h101v-20z" />
    <glyph glyph-name="uni1EDB" unicode="&#x1edb;" horiz-adv-x="479" 
d="M235 -10q-71 0 -118.5 27.5t-71 75t-23.5 108.5q0 62 23.5 109.5t71 75t118.5 27.5q104 0 158 -58t54 -154q0 -60 -23 -107.5t-70 -75.5t-119 -28zM235 91q41 0 61.5 17t27.5 43.5t7 53.5q0 28 -7 54.5t-27.5 44t-61.5 17.5t-62 -17.5t-28 -44t-7 -54.5q0 -27 7 -53.5
t28 -43.5t62 -17zM271 339l1 70h47q16 0 22 3.5t7 15t1 36.5h79q0 -46 -10 -73.5t-36.5 -39.5t-74.5 -12h-36zM268 458h-54v15l42 99h101v-20z" />
    <glyph glyph-name="uni1EDC" unicode="&#x1edc;" horiz-adv-x="615" 
d="M300 -14q-138 0 -211 79.5t-73 214.5q0 89 31.5 154.5t94.5 102t158 36.5q139 0 211 -79.5t72 -213.5q0 -87 -32 -153.5t-95 -103.5t-156 -37zM298 103q56 0 93 23t55 63.5t18 90.5t-18 91t-54.5 65t-93.5 24q-80 0 -122.5 -50t-42.5 -130q0 -49 18.5 -89.5t54.5 -64
t92 -23.5zM375 493l1 70h47q16 0 22 3.5t7 15t1 36.5h79q0 -46 -10 -73.5t-36.5 -39.5t-74.5 -12h-36zM279 609l-88 94v20h101l42 -99v-15h-55z" />
    <glyph glyph-name="uni1EDD" unicode="&#x1edd;" horiz-adv-x="479" 
d="M235 -10q-71 0 -118.5 27.5t-71 75t-23.5 108.5q0 62 23.5 109.5t71 75t118.5 27.5q104 0 158 -58t54 -154q0 -60 -23 -107.5t-70 -75.5t-119 -28zM235 91q41 0 61.5 17t27.5 43.5t7 53.5q0 28 -7 54.5t-27.5 44t-61.5 17.5t-62 -17.5t-28 -44t-7 -54.5q0 -27 7 -53.5
t28 -43.5t62 -17zM271 339l1 70h47q16 0 22 3.5t7 15t1 36.5h79q0 -46 -10 -73.5t-36.5 -39.5t-74.5 -12h-36zM211 458l-88 94v20h101l42 -99v-15h-55z" />
    <glyph glyph-name="uni1EDE" unicode="&#x1ede;" horiz-adv-x="615" 
d="M300 -14q-138 0 -211 79.5t-73 214.5q0 89 31.5 154.5t94.5 102t158 36.5q139 0 211 -79.5t72 -213.5q0 -87 -32 -153.5t-95 -103.5t-156 -37zM298 103q56 0 93 23t55 63.5t18 90.5t-18 91t-54.5 65t-93.5 24q-80 0 -122.5 -50t-42.5 -130q0 -49 18.5 -89.5t54.5 -64
t92 -23.5zM375 493l1 70h47q16 0 22 3.5t7 15t1 36.5h79q0 -46 -10 -73.5t-36.5 -39.5t-74.5 -12h-36zM270 610v17q6 14 21.5 23t29.5 20t14 28q0 13 -9.5 18.5t-21.5 5.5q-13 0 -25.5 -6.5t-17.5 -19.5l-47 32q10 34 39 51t61 17q36 0 65 -21t29 -64q0 -31 -13 -47.5
t-28 -27.5t-22 -26h-75z" />
    <glyph glyph-name="uni1EDF" unicode="&#x1edf;" horiz-adv-x="479" 
d="M235 -10q-71 0 -118.5 27.5t-71 75t-23.5 108.5q0 62 23.5 109.5t71 75t118.5 27.5q104 0 158 -58t54 -154q0 -60 -23 -107.5t-70 -75.5t-119 -28zM235 91q41 0 61.5 17t27.5 43.5t7 53.5q0 28 -7 54.5t-27.5 44t-61.5 17.5t-62 -17.5t-28 -44t-7 -54.5q0 -27 7 -53.5
t28 -43.5t62 -17zM271 339l1 70h47q16 0 22 3.5t7 15t1 36.5h79q0 -46 -10 -73.5t-36.5 -39.5t-74.5 -12h-36zM202 459v17q6 14 21.5 23t29.5 20t14 28q0 13 -9.5 18.5t-21.5 5.5q-13 0 -25.5 -6.5t-17.5 -19.5l-47 32q10 34 39 51t61 17q36 0 65 -21t29 -64
q0 -31 -13 -47.5t-28 -27.5t-22 -26h-75z" />
    <glyph glyph-name="uni1EE0" unicode="&#x1ee0;" horiz-adv-x="615" 
d="M300 -14q-138 0 -211 79.5t-73 214.5q0 89 31.5 154.5t94.5 102t158 36.5q139 0 211 -79.5t72 -213.5q0 -87 -32 -153.5t-95 -103.5t-156 -37zM298 103q56 0 93 23t55 63.5t18 90.5t-18 91t-54.5 65t-93.5 24q-80 0 -122.5 -50t-42.5 -130q0 -49 18.5 -89.5t54.5 -64
t92 -23.5zM375 493l1 70h47q16 0 22 3.5t7 15t1 36.5h79q0 -46 -10 -73.5t-36.5 -39.5t-74.5 -12h-36zM168 626q0 13 0.5 33t7.5 40.5t24.5 34.5t50.5 14q27 0 42.5 -9t25.5 -19.5t19 -19.5t22 -9q15 0 17.5 14.5t2.5 39.5h70q0 -19 -1.5 -40t-9.5 -40t-25 -31t-48 -12
q-26 0 -41.5 8.5t-25.5 19.5t-18.5 20t-22.5 9q-16 0 -18.5 -13.5t-2.5 -39.5h-69z" />
    <glyph glyph-name="uni1EE1" unicode="&#x1ee1;" horiz-adv-x="479" 
d="M235 -10q-71 0 -118.5 27.5t-71 75t-23.5 108.5q0 62 23.5 109.5t71 75t118.5 27.5q104 0 158 -58t54 -154q0 -60 -23 -107.5t-70 -75.5t-119 -28zM235 91q41 0 61.5 17t27.5 43.5t7 53.5q0 28 -7 54.5t-27.5 44t-61.5 17.5t-62 -17.5t-28 -44t-7 -54.5q0 -27 7 -53.5
t28 -43.5t62 -17zM271 339l1 70h47q16 0 22 3.5t7 15t1 36.5h79q0 -46 -10 -73.5t-36.5 -39.5t-74.5 -12h-36zM100 475q0 13 0.5 33t7.5 40.5t24.5 34.5t50.5 14q27 0 42.5 -9t25.5 -19.5t19 -19.5t22 -9q15 0 17.5 14.5t2.5 39.5h70q0 -19 -1.5 -40t-9.5 -40t-25 -31
t-48 -12q-26 0 -41.5 8.5t-25.5 19.5t-18.5 20t-22.5 9q-16 0 -18.5 -13.5t-2.5 -39.5h-69z" />
    <glyph glyph-name="uni1EE2" unicode="&#x1ee2;" horiz-adv-x="615" 
d="M300 -14q-138 0 -211 79.5t-73 214.5q0 89 31.5 154.5t94.5 102t158 36.5q139 0 211 -79.5t72 -213.5q0 -87 -32 -153.5t-95 -103.5t-156 -37zM298 103q56 0 93 23t55 63.5t18 90.5t-18 91t-54.5 65t-93.5 24q-80 0 -122.5 -50t-42.5 -130q0 -49 18.5 -89.5t54.5 -64
t92 -23.5zM375 493l1 70h47q16 0 22 3.5t7 15t1 36.5h79q0 -46 -10 -73.5t-36.5 -39.5t-74.5 -12h-36zM309 -195q-38 0 -51 19t-13 45q0 24 13 43t51 19q37 0 49.5 -19t12.5 -43q0 -26 -12.5 -45t-49.5 -19z" />
    <glyph glyph-name="uni1EE3" unicode="&#x1ee3;" horiz-adv-x="479" 
d="M235 -10q-71 0 -118.5 27.5t-71 75t-23.5 108.5q0 62 23.5 109.5t71 75t118.5 27.5q104 0 158 -58t54 -154q0 -60 -23 -107.5t-70 -75.5t-119 -28zM235 91q41 0 61.5 17t27.5 43.5t7 53.5q0 28 -7 54.5t-27.5 44t-61.5 17.5t-62 -17.5t-28 -44t-7 -54.5q0 -27 7 -53.5
t28 -43.5t62 -17zM271 339l1 70h47q16 0 22 3.5t7 15t1 36.5h79q0 -46 -10 -73.5t-36.5 -39.5t-74.5 -12h-36zM241 -195q-38 0 -51 19t-13 45q0 24 13 43t51 19q37 0 49.5 -19t12.5 -43q0 -26 -12.5 -45t-49.5 -19z" />
    <glyph glyph-name="uni1EE4" unicode="&#x1ee4;" horiz-adv-x="605" 
d="M304 -14q-123 0 -186.5 66.5t-63.5 187.5v323h129v-322q0 -44 11.5 -71.5t29.5 -42.5t39 -20.5t41 -5.5q30 0 58 10t46 40.5t18 89.5v322h129v-323q0 -123 -62.5 -188.5t-188.5 -65.5zM304 -195q-38 0 -51 19t-13 45q0 24 13 43t51 19q37 0 49.5 -19t12.5 -43
q0 -26 -12.5 -45t-49.5 -19z" />
    <glyph glyph-name="uni1EE5" unicode="&#x1ee5;" 
d="M175 -10q-44 0 -71.5 15t-42.5 39t-21 53t-7.5 57t-1.5 50v208h118v-209q0 -26 5 -50.5t21.5 -40.5t53.5 -16q36 0 53 16t22 40.5t6 48.5v211h124v-412h-104l-20 72h-2q-1 -3 -7.5 -16t-21.5 -28t-40.5 -26.5t-63.5 -11.5zM235 -195q-38 0 -51 19t-13 45q0 24 13 43
t51 19q37 0 49.5 -19t12.5 -43q0 -26 -12.5 -45t-49.5 -19z" />
    <glyph glyph-name="uni1EE6" unicode="&#x1ee6;" horiz-adv-x="605" 
d="M304 -14q-123 0 -186.5 66.5t-63.5 187.5v323h129v-322q0 -44 11.5 -71.5t29.5 -42.5t39 -20.5t41 -5.5q30 0 58 10t46 40.5t18 89.5v322h129v-323q0 -123 -62.5 -188.5t-188.5 -65.5zM264 610v17q6 14 21.5 23t29.5 20t14 28q0 13 -9.5 18.5t-21.5 5.5q-13 0 -25.5 -6.5
t-17.5 -19.5l-47 32q10 34 39 51t61 17q36 0 65 -21t29 -64q0 -31 -13 -47.5t-28 -27.5t-22 -26h-75z" />
    <glyph glyph-name="uni1EE7" unicode="&#x1ee7;" 
d="M175 -10q-44 0 -71.5 15t-42.5 39t-21 53t-7.5 57t-1.5 50v208h118v-209q0 -26 5 -50.5t21.5 -40.5t53.5 -16q36 0 53 16t22 40.5t6 48.5v211h124v-412h-104l-20 72h-2q-1 -3 -7.5 -16t-21.5 -28t-40.5 -26.5t-63.5 -11.5zM196 459v17q6 14 21.5 23t29.5 20t14 28
q0 13 -9.5 18.5t-21.5 5.5q-13 0 -25.5 -6.5t-17.5 -19.5l-47 32q10 34 39 51t61 17q36 0 65 -21t29 -64q0 -31 -13 -47.5t-28 -27.5t-22 -26h-75z" />
    <glyph glyph-name="uni1EE8" unicode="&#x1ee8;" horiz-adv-x="605" 
d="M304 -14q-123 0 -186.5 66.5t-63.5 187.5v323h129v-322q0 -44 11.5 -71.5t29.5 -42.5t39 -20.5t41 -5.5q30 0 58 10t46 40.5t18 89.5v322h129v-323q0 -123 -62.5 -188.5t-188.5 -65.5zM505 493l1 70h47q16 0 22 3.5t7 15t1 36.5h79q0 -46 -10 -73.5t-36.5 -39.5
t-74.5 -12h-36zM330 609h-54v15l42 99h101v-20z" />
    <glyph glyph-name="uni1EE9" unicode="&#x1ee9;" 
d="M175 -10q-44 0 -71.5 15t-42.5 39t-21 53t-7.5 57t-1.5 50v208h118v-209q0 -26 5 -50.5t21.5 -40.5t53.5 -16q36 0 53 16t22 40.5t6 48.5v211h124v-412h-104l-20 72h-2q-1 -3 -7.5 -16t-21.5 -28t-40.5 -26.5t-63.5 -11.5zM364 342l1 70h47q16 0 22 3.5t7 15t1 36.5h79
q0 -46 -10 -73.5t-36.5 -39.5t-74.5 -12h-36zM262 458h-54v15l42 99h101v-20z" />
    <glyph glyph-name="uni1EEA" unicode="&#x1eea;" horiz-adv-x="605" 
d="M304 -14q-123 0 -186.5 66.5t-63.5 187.5v323h129v-322q0 -44 11.5 -71.5t29.5 -42.5t39 -20.5t41 -5.5q30 0 58 10t46 40.5t18 89.5v322h129v-323q0 -123 -62.5 -188.5t-188.5 -65.5zM505 493l1 70h47q16 0 22 3.5t7 15t1 36.5h79q0 -46 -10 -73.5t-36.5 -39.5
t-74.5 -12h-36zM273 609l-88 94v20h101l42 -99v-15h-55z" />
    <glyph glyph-name="uni1EEB" unicode="&#x1eeb;" 
d="M175 -10q-44 0 -71.5 15t-42.5 39t-21 53t-7.5 57t-1.5 50v208h118v-209q0 -26 5 -50.5t21.5 -40.5t53.5 -16q36 0 53 16t22 40.5t6 48.5v211h124v-412h-104l-20 72h-2q-1 -3 -7.5 -16t-21.5 -28t-40.5 -26.5t-63.5 -11.5zM364 342l1 70h47q16 0 22 3.5t7 15t1 36.5h79
q0 -46 -10 -73.5t-36.5 -39.5t-74.5 -12h-36zM205 458l-88 94v20h101l42 -99v-15h-55z" />
    <glyph glyph-name="uni1EEC" unicode="&#x1eec;" horiz-adv-x="605" 
d="M304 -14q-123 0 -186.5 66.5t-63.5 187.5v323h129v-322q0 -44 11.5 -71.5t29.5 -42.5t39 -20.5t41 -5.5q30 0 58 10t46 40.5t18 89.5v322h129v-323q0 -123 -62.5 -188.5t-188.5 -65.5zM505 493l1 70h47q16 0 22 3.5t7 15t1 36.5h79q0 -46 -10 -73.5t-36.5 -39.5
t-74.5 -12h-36zM264 610v17q6 14 21.5 23t29.5 20t14 28q0 13 -9.5 18.5t-21.5 5.5q-13 0 -25.5 -6.5t-17.5 -19.5l-47 32q10 34 39 51t61 17q36 0 65 -21t29 -64q0 -31 -13 -47.5t-28 -27.5t-22 -26h-75z" />
    <glyph glyph-name="uni1EED" unicode="&#x1eed;" 
d="M175 -10q-44 0 -71.5 15t-42.5 39t-21 53t-7.5 57t-1.5 50v208h118v-209q0 -26 5 -50.5t21.5 -40.5t53.5 -16q36 0 53 16t22 40.5t6 48.5v211h124v-412h-104l-20 72h-2q-1 -3 -7.5 -16t-21.5 -28t-40.5 -26.5t-63.5 -11.5zM364 342l1 70h47q16 0 22 3.5t7 15t1 36.5h79
q0 -46 -10 -73.5t-36.5 -39.5t-74.5 -12h-36zM196 459v17q6 14 21.5 23t29.5 20t14 28q0 13 -9.5 18.5t-21.5 5.5q-13 0 -25.5 -6.5t-17.5 -19.5l-47 32q10 34 39 51t61 17q36 0 65 -21t29 -64q0 -31 -13 -47.5t-28 -27.5t-22 -26h-75z" />
    <glyph glyph-name="uni1EEE" unicode="&#x1eee;" horiz-adv-x="605" 
d="M304 -14q-123 0 -186.5 66.5t-63.5 187.5v323h129v-322q0 -44 11.5 -71.5t29.5 -42.5t39 -20.5t41 -5.5q30 0 58 10t46 40.5t18 89.5v322h129v-323q0 -123 -62.5 -188.5t-188.5 -65.5zM505 493l1 70h47q16 0 22 3.5t7 15t1 36.5h79q0 -46 -10 -73.5t-36.5 -39.5
t-74.5 -12h-36zM162 626q0 13 0.5 33t7.5 40.5t24.5 34.5t50.5 14q27 0 42.5 -9t25.5 -19.5t19 -19.5t22 -9q15 0 17.5 14.5t2.5 39.5h70q0 -19 -1.5 -40t-9.5 -40t-25 -31t-48 -12q-26 0 -41.5 8.5t-25.5 19.5t-18.5 20t-22.5 9q-16 0 -18.5 -13.5t-2.5 -39.5h-69z" />
    <glyph glyph-name="uni1EEF" unicode="&#x1eef;" 
d="M175 -10q-44 0 -71.5 15t-42.5 39t-21 53t-7.5 57t-1.5 50v208h118v-209q0 -26 5 -50.5t21.5 -40.5t53.5 -16q36 0 53 16t22 40.5t6 48.5v211h124v-412h-104l-20 72h-2q-1 -3 -7.5 -16t-21.5 -28t-40.5 -26.5t-63.5 -11.5zM364 342l1 70h47q16 0 22 3.5t7 15t1 36.5h79
q0 -46 -10 -73.5t-36.5 -39.5t-74.5 -12h-36zM94 475q0 13 0.5 33t7.5 40.5t24.5 34.5t50.5 14q27 0 42.5 -9t25.5 -19.5t19 -19.5t22 -9q15 0 17.5 14.5t2.5 39.5h70q0 -19 -1.5 -40t-9.5 -40t-25 -31t-48 -12q-26 0 -41.5 8.5t-25.5 19.5t-18.5 20t-22.5 9
q-16 0 -18.5 -13.5t-2.5 -39.5h-69z" />
    <glyph glyph-name="uni1EF0" unicode="&#x1ef0;" horiz-adv-x="605" 
d="M304 -14q-123 0 -186.5 66.5t-63.5 187.5v323h129v-322q0 -44 11.5 -71.5t29.5 -42.5t39 -20.5t41 -5.5q30 0 58 10t46 40.5t18 89.5v322h129v-323q0 -123 -62.5 -188.5t-188.5 -65.5zM505 493l1 70h47q16 0 22 3.5t7 15t1 36.5h79q0 -46 -10 -73.5t-36.5 -39.5
t-74.5 -12h-36zM304 -195q-38 0 -51 19t-13 45q0 24 13 43t51 19q37 0 49.5 -19t12.5 -43q0 -26 -12.5 -45t-49.5 -19z" />
    <glyph glyph-name="uni1EF1" unicode="&#x1ef1;" 
d="M175 -10q-44 0 -71.5 15t-42.5 39t-21 53t-7.5 57t-1.5 50v208h118v-209q0 -26 5 -50.5t21.5 -40.5t53.5 -16q36 0 53 16t22 40.5t6 48.5v211h124v-412h-104l-20 72h-2q-1 -3 -7.5 -16t-21.5 -28t-40.5 -26.5t-63.5 -11.5zM364 342l1 70h47q16 0 22 3.5t7 15t1 36.5h79
q0 -46 -10 -73.5t-36.5 -39.5t-74.5 -12h-36zM235 -195q-38 0 -51 19t-13 45q0 24 13 43t51 19q37 0 49.5 -19t12.5 -43q0 -26 -12.5 -45t-49.5 -19z" />
    <glyph glyph-name="Ygrave" unicode="&#x1ef2;" horiz-adv-x="455" 
d="M167 196l-192 367h136l118 -263l119 263h135l-196 -367h-120zM167 0v209h120v-209h-120zM198 609l-88 94v20h101l42 -99v-15h-55z" />
    <glyph glyph-name="ygrave" unicode="&#x1ef3;" horiz-adv-x="457" 
d="M-1 -195v93h67q14 0 26.5 2t24 14t24.5 41l20 44l-161 413h124l95 -290l103 290h124l-194 -468q-20 -46 -36.5 -73.5t-34.5 -41.5t-41 -19t-56 -5h-85zM199 458l-88 94v20h101l42 -99v-15h-55z" />
    <glyph glyph-name="uni1EF4" unicode="&#x1ef4;" horiz-adv-x="455" 
d="M167 196l-192 367h136l118 -263l119 263h135l-196 -367h-120zM167 0v209h120v-209h-120zM228 -195q-38 0 -51 19t-13 45q0 24 13 43t51 19q37 0 49.5 -19t12.5 -43q0 -26 -12.5 -45t-49.5 -19z" />
    <glyph glyph-name="uni1EF5" unicode="&#x1ef5;" horiz-adv-x="457" 
d="M-1 -195v93h67q14 0 26.5 2t24 14t24.5 41l20 44l-161 413h124l95 -290l103 290h124l-194 -468q-20 -46 -36.5 -73.5t-34.5 -41.5t-41 -19t-56 -5h-85zM359 -195q-38 0 -51 19t-13 45q0 24 13 43t51 19q37 0 49.5 -19t12.5 -43q0 -26 -12.5 -45t-49.5 -19z" />
    <glyph glyph-name="uni1EF6" unicode="&#x1ef6;" horiz-adv-x="455" 
d="M167 196l-192 367h136l118 -263l119 263h135l-196 -367h-120zM167 0v209h120v-209h-120zM190 610v17q6 14 21.5 23t29.5 20t14 28q0 13 -9.5 18.5t-21.5 5.5q-13 0 -25.5 -6.5t-17.5 -19.5l-47 32q10 34 39 51t61 17q36 0 65 -21t29 -64q0 -31 -13 -47.5t-28 -27.5
t-22 -26h-75z" />
    <glyph glyph-name="uni1EF7" unicode="&#x1ef7;" horiz-adv-x="457" 
d="M-1 -195v93h67q14 0 26.5 2t24 14t24.5 41l20 44l-161 413h124l95 -290l103 290h124l-194 -468q-20 -46 -36.5 -73.5t-34.5 -41.5t-41 -19t-56 -5h-85zM190 459v17q6 14 21.5 23t29.5 20t14 28q0 13 -9.5 18.5t-21.5 5.5q-13 0 -25.5 -6.5t-17.5 -19.5l-47 32
q10 34 39 51t61 17q36 0 65 -21t29 -64q0 -31 -13 -47.5t-28 -27.5t-22 -26h-75z" />
    <glyph glyph-name="uni1EF8" unicode="&#x1ef8;" horiz-adv-x="455" 
d="M167 196l-192 367h136l118 -263l119 263h135l-196 -367h-120zM167 0v209h120v-209h-120zM87 626q0 13 0.5 33t7.5 40.5t24.5 34.5t50.5 14q27 0 42.5 -9t25.5 -19.5t19 -19.5t22 -9q15 0 17.5 14.5t2.5 39.5h70q0 -19 -1.5 -40t-9.5 -40t-25 -31t-48 -12q-26 0 -41.5 8.5
t-25.5 19.5t-18.5 20t-22.5 9q-16 0 -18.5 -13.5t-2.5 -39.5h-69z" />
    <glyph glyph-name="uni1EF9" unicode="&#x1ef9;" horiz-adv-x="457" 
d="M-1 -195v93h67q14 0 26.5 2t24 14t24.5 41l20 44l-161 413h124l95 -290l103 290h124l-194 -468q-20 -46 -36.5 -73.5t-34.5 -41.5t-41 -19t-56 -5h-85zM88 475q0 13 0.5 33t7.5 40.5t24.5 34.5t50.5 14q27 0 42.5 -9t25.5 -19.5t19 -19.5t22 -9q15 0 17.5 14.5t2.5 39.5
h70q0 -19 -1.5 -40t-9.5 -40t-25 -31t-48 -12q-26 0 -41.5 8.5t-25.5 19.5t-18.5 20t-22.5 9q-16 0 -18.5 -13.5t-2.5 -39.5h-69z" />
    <glyph glyph-name="endash" unicode="&#x2013;" horiz-adv-x="430" 
d="M40 184v82h335v-82h-335z" />
    <glyph glyph-name="emdash" unicode="&#x2014;" horiz-adv-x="597" 
d="M40 184v82h502v-82h-502z" />
    <glyph glyph-name="quoteleft" unicode="&#x2018;" horiz-adv-x="260" 
d="M113 293q-35 0 -49.5 18.5t-14.5 46.5q0 26 13 44.5t49 18.5q37 0 52 -19t15 -45q0 -27 -14.5 -45.5t-50.5 -18.5zM49 356q0 8 2 31t9 53t23.5 58t44.5 46.5t72 18.5v-100q-37 0 -58 -10.5t-31 -26.5t-13 -32t-2 -27l1 -11h-48z" />
    <glyph glyph-name="quoteright" unicode="&#x2019;" horiz-adv-x="241" 
d="M40 293v100q36 0 57 10.5t31.5 26.5t13 32t1.5 27l-1 11h48q0 -8 -1.5 -31t-9 -53t-24 -58t-44.5 -46.5t-71 -18.5zM129 435q-37 0 -52 19t-15 45q0 27 14.5 45.5t49.5 18.5t49.5 -18t14.5 -47q0 -25 -12.5 -44t-48.5 -19z" />
    <glyph glyph-name="quotesinglbase" unicode="&#x201a;" horiz-adv-x="246" 
d="M49 -98v100q37 0 58 11t31 26.5t13 31.5t2 27l-1 11h48q0 -8 -2 -31t-9.5 -52.5t-23.5 -58t-44.5 -47t-71.5 -18.5zM138 44q-37 0 -52 19t-15 45q0 27 14.5 45.5t49.5 18.5t50 -18t15 -47q0 -25 -13 -44t-49 -19z" />
    <glyph glyph-name="quotedblleft" unicode="&#x201c;" horiz-adv-x="429" 
d="M227 356q0 8 1.5 31t9 53t24 58t44.5 46.5t71 18.5v-100q-36 0 -57 -10.5t-31.5 -26.5t-13 -32t-1.5 -27l1 -11h-48zM113 293q-35 0 -49.5 18.5t-14.5 46.5q0 26 13 44.5t49 18.5q37 0 52 -19t15 -45q0 -27 -14.5 -45.5t-50.5 -18.5zM49 356q0 8 2 31t9 53t23.5 58
t44.5 46.5t72 18.5v-100q-37 0 -58 -10.5t-31 -26.5t-13 -32t-2 -27l1 -11h-48zM291 293q-35 0 -49.5 18.5t-14.5 46.5q0 26 13 44.5t49 18.5q37 0 52 -19t15 -45q0 -27 -15 -45.5t-50 -18.5z" />
    <glyph glyph-name="quotedblright" unicode="&#x201d;" horiz-adv-x="429" 
d="M227 293v100q36 0 57 10.5t31.5 26.5t13 32t1.5 27l-1 11h48q0 -8 -1.5 -31t-9 -53t-24 -58t-44 -46.5t-71.5 -18.5zM49 293v100q37 0 58 10.5t31 26.5t13 32t2 27l-1 11h48q0 -8 -2 -31t-9.5 -53t-23.5 -58t-44 -46.5t-72 -18.5zM137 435q-36 0 -51 19t-15 45
q0 27 14.5 45.5t49.5 18.5t50 -18t15 -47q0 -25 -13 -44t-50 -19zM315 435q-36 0 -51 19t-15 45q0 27 14.5 45.5t49.5 18.5t49.5 -18t14.5 -47q0 -25 -12.5 -44t-49.5 -19z" />
    <glyph glyph-name="quotedblbase" unicode="&#x201e;" horiz-adv-x="396" 
d="M33 -98v100q36 0 57 11t31 26.5t13 31.5t2 27l-1 11h48q0 -8 -2 -31t-9 -52.5t-23.5 -58t-44.5 -47t-71 -18.5zM121 44q-37 0 -52 19t-15 46q0 26 15 44.5t50 18.5t49.5 -18t14.5 -47q0 -25 -13 -44t-49 -19zM210 -98v100q37 0 58 11t31 26.5t13 31.5t2 27l-1 11h48
q0 -8 -2 -31t-9 -52.5t-23.5 -58t-44.5 -47t-72 -18.5zM299 44q-37 0 -52 19t-15 46q0 26 14.5 44.5t49.5 18.5q36 0 50.5 -18t14.5 -47q0 -25 -13 -44t-49 -19z" />
    <glyph glyph-name="bullet" unicode="&#x2022;" horiz-adv-x="281" 
d="M127 187q-49 0 -65.5 24t-16.5 58q0 32 17 56.5t66 24.5q48 0 64 -24.5t16 -56.5q0 -33 -16 -57.5t-65 -24.5z" />
    <glyph glyph-name="ellipsis" unicode="&#x2026;" horiz-adv-x="683" 
d="M123 0q-41 0 -55.5 20.5t-14.5 49.5q0 28 14.5 47.5t55.5 19.5q40 0 54 -19.5t14 -47.5q0 -30 -14 -50t-54 -20zM342 0q-42 0 -56 20.5t-14 49.5q0 27 14 47t56 20q40 0 53.5 -19.5t13.5 -48.5q0 -28 -13.5 -48.5t-53.5 -20.5zM560 0q-41 0 -55.5 20t-14.5 50
q0 28 14.5 47.5t55.5 19.5q40 0 54 -19.5t14 -47.5q0 -30 -14 -50t-54 -20z" />
    <glyph glyph-name="perthousand" unicode="&#x2030;" horiz-adv-x="817" 
d="M140 0l-82 58l241 245l191 260l82 -57l-234 -235zM486 -10q-58 0 -84.5 32.5t-26.5 87.5q0 53 26 85t85 32q60 0 86.5 -32t26.5 -85t-26.5 -86.5t-86.5 -33.5zM484 66q23 0 32 12.5t9 31.5t-9 32.5t-32 13.5q-20 0 -29.5 -13t-9.5 -33q0 -19 9.5 -31.5t29.5 -12.5z
M138 336q-58 0 -84.5 32t-26.5 85q0 54 26 87t85 33t87 -33t28 -87q0 -51 -28 -84t-87 -33zM137 411q22 0 31 13t9 32t-9 32t-31 13q-21 0 -30 -13t-9 -33q0 -18 9 -31t30 -13zM753 -10q-58 0 -84.5 32.5t-26.5 87.5q0 53 26.5 85t84.5 32q60 0 87 -32t27 -85t-27 -86.5
t-87 -33.5zM751 66q23 0 32 12.5t9 31.5t-9 32.5t-32 13.5q-20 0 -29.5 -13t-9.5 -33q0 -19 9.5 -31.5t29.5 -12.5z" />
    <glyph glyph-name="guilsinglleft" unicode="&#x2039;" horiz-adv-x="417" 
d="M377 416v-93l-251 -88l251 -86v-95l-337 181z" />
    <glyph glyph-name="guilsinglright" unicode="&#x203a;" horiz-adv-x="426" 
d="M44 416l337 -181l-337 -181v95l251 86l-251 88v93z" />
    <glyph glyph-name="fraction" unicode="&#x2044;" horiz-adv-x="198" 
d="M-91 6l-54 44l229 253l205 257l54 -44l-220 -245z" />
    <glyph glyph-name="uni2074" unicode="&#x2074;" horiz-adv-x="261" 
d="M15 464v52q35 15 58 45t34.5 65t11.5 63h68q0 -44 -29 -92t-82 -81h170v-52h-231zM152 412v138h61v-138h-61z" />
    <glyph glyph-name="Euro" unicode="&#x20ac;" horiz-adv-x="645" 
d="M351 -10q-73 0 -132 32t-94.5 96.5t-35.5 159.5q0 94 35.5 159.5t95.5 100.5t134 35q78 0 129.5 -29.5t81 -78.5t38.5 -107l-121 -21q-12 61 -39 93t-89 32q-47 0 -77.5 -23.5t-46 -64t-15.5 -92.5q0 -85 33 -131t105 -46q53 0 85.5 32.5t42.5 94.5l123 -21
q-8 -60 -38 -110.5t-83 -80.5t-132 -30zM368 192h-330v67h345zM38 306v63h375l-15 -67z" />
    <glyph glyph-name="trademark" unicode="&#x2122;" horiz-adv-x="472" 
d="M198 354v208h84l36 -188l35 188h84v-208h-51l4 188l-38 -188h-70l-37 188l3 -188h-50zM55 354v168h-66v40h177v-40h-64v-168h-47z" />
    <glyph glyph-name="oneeighth" unicode="&#x215b;" horiz-adv-x="650" 
d="M75 306v209q-5 -26 -18 -38.5t-25.5 -17.5t-16.5 -5v68q5 -1 20.5 0t29.5 11.5t16 37.5h55v-265h-61zM29 294v53h144v-53h-144zM97 6l-54 44l229 253l205 257l54 -44l-220 -245zM517 -13q-49 0 -82.5 21.5t-33.5 60.5q0 28 18.5 48t50.5 26q-23 3 -34.5 14t-15.5 24
t-4 20q0 35 28 55.5t73 20.5q47 0 74.5 -20.5t27.5 -55.5q0 -7 -3.5 -20t-15 -24t-35.5 -14q33 -6 51.5 -25.5t18.5 -48.5q0 -40 -34 -61t-84 -21zM518 35q27 0 43 12.5t16 32.5q0 24 -16 35t-43 11t-43 -11t-16 -35q0 -20 16 -32.5t43 -12.5zM517 155q23 0 36.5 9.5
t13.5 26.5q0 20 -14 29t-36 9t-35 -9t-13 -29q0 -17 13.5 -26.5t34.5 -9.5z" />
    <glyph glyph-name="threeeighths" unicode="&#x215c;" horiz-adv-x="712" 
d="M130 281q-52 0 -84 25.5t-31 76.5l58 9q0 -28 15.5 -44t43.5 -16q22 0 34.5 12t12.5 29q0 13 -6.5 22t-18 14t-24.5 5h-27v31h29q17 0 31 9t14 26q0 19 -13.5 30t-36.5 11q-17 0 -28.5 -7t-18 -18.5t-6.5 -23.5l-53 9q0 8 4.5 22.5t16.5 30.5t32.5 26.5t51.5 10.5
q50 0 77.5 -21.5t27.5 -57.5q0 -22 -13.5 -42t-41.5 -22q27 -2 43 -21.5t16 -44.5q0 -36 -29 -58.5t-76 -22.5zM159 6l-54 44l229 253l205 257l54 -44l-220 -245zM579 -13q-49 0 -82.5 21.5t-33.5 60.5q0 28 18.5 48t50.5 26q-23 3 -34.5 14t-15.5 24t-4 20q0 35 28 55.5
t73 20.5q47 0 74.5 -20.5t27.5 -55.5q0 -7 -3.5 -20t-15 -24t-35.5 -14q33 -6 51.5 -25.5t18.5 -48.5q0 -40 -34 -61t-84 -21zM580 35q27 0 43 12.5t16 32.5q0 24 -16 35t-43 11t-43 -11t-16 -35q0 -20 16 -32.5t43 -12.5zM579 155q23 0 36.5 9.5t13.5 26.5q0 20 -14 29
t-36 9t-35 -9t-13 -29q0 -17 13.5 -26.5t34.5 -9.5z" />
    <glyph glyph-name="fiveeighths" unicode="&#x215d;" horiz-adv-x="711" 
d="M124 281q-35 0 -58.5 12t-35.5 31t-15 38l60 8q1 -4 6.5 -13.5t16 -17.5t28.5 -8q22 0 34 14t14 31q2 18 -10 34t-38 16q-15 0 -23.5 -6t-12.5 -11.5t-4 -6.5l-64 10l15 146h184v-53h-142l-8 -77l7 9.5t23.5 19t42.5 9.5q48 0 70 -28t20 -63q-3 -35 -32 -64.5t-78 -29.5z
M158 6l-54 44l229 253l205 257l54 -44l-220 -245zM578 -13q-49 0 -82.5 21.5t-33.5 60.5q0 28 18.5 48t50.5 26q-23 3 -34.5 14t-15.5 24t-4 20q0 35 28 55.5t73 20.5q47 0 74.5 -20.5t27.5 -55.5q0 -7 -3.5 -20t-15 -24t-35.5 -14q33 -6 51.5 -25.5t18.5 -48.5
q0 -40 -34 -61t-84 -21zM579 35q27 0 43 12.5t16 32.5q0 24 -16 35t-43 11t-43 -11t-16 -35q0 -20 16 -32.5t43 -12.5zM578 155q23 0 36.5 9.5t13.5 26.5q0 20 -14 29t-36 9t-35 -9t-13 -29q0 -17 13.5 -26.5t34.5 -9.5z" />
    <glyph glyph-name="seveneighths" unicode="&#x215e;" horiz-adv-x="712" 
d="M60 294q0 85 31 137t87 73h-163v54h220v-53q-15 -7 -34.5 -19t-37.5 -35t-29.5 -61t-11.5 -96h-62zM159 6l-54 44l229 253l205 257l54 -44l-220 -245zM579 -13q-49 0 -82.5 21.5t-33.5 60.5q0 28 18.5 48t50.5 26q-23 3 -34.5 14t-15.5 24t-4 20q0 35 28 55.5t73 20.5
q47 0 74.5 -20.5t27.5 -55.5q0 -7 -3.5 -20t-15 -24t-35.5 -14q33 -6 51.5 -25.5t18.5 -48.5q0 -40 -34 -61t-84 -21zM580 35q27 0 43 12.5t16 32.5q0 24 -16 35t-43 11t-43 -11t-16 -35q0 -20 16 -32.5t43 -12.5zM579 155q23 0 36.5 9.5t13.5 26.5q0 20 -14 29t-36 9
t-35 -9t-13 -29q0 -17 13.5 -26.5t34.5 -9.5z" />
    <glyph glyph-name="arrowleft" unicode="&#x2190;" horiz-adv-x="418" 
d="M35 183v92q43 0 66 14t34 33t13 34t2 16h72q0 -1 -2 -20t-10.5 -47t-28 -56t-55 -47t-91.5 -19zM150 86q0 2 -2 16.5t-13 33.5t-34 33t-66 14v92q56 0 91.5 -19t55 -46.5t28 -56.5t10.5 -48l2 -19h-72zM35 183v92h348v-92h-348z" />
    <glyph glyph-name="arrowup" unicode="&#x2191;" horiz-adv-x="357" 
d="M322 260l-19.5 2t-48 10.5t-56.5 28t-47 55t-19 91.5h93q0 -43 14 -66t33 -34t34 -13t16 -2v-72zM132 99v348h93v-348h-93zM35 260v72q2 0 16.5 2t33.5 13t33 34t14 66h93q0 -56 -19.5 -91.5t-47.5 -55t-55.5 -28t-47 -10.5t-20.5 -2z" />
    <glyph glyph-name="arrowright" unicode="&#x2192;" horiz-adv-x="418" 
d="M383 183q-56 0 -91.5 19t-55 47t-28 56t-10.5 47t-2 20h72q0 -1 2 -16t13 -34t34 -33t66 -14v-92zM35 183v92h348v-92h-348zM196 86l2 19t10.5 48t28 56.5t55 46.5t91.5 19v-92q-43 0 -66 -14t-34 -33t-13 -33.5t-2 -16.5h-72z" />
    <glyph glyph-name="arrowdown" unicode="&#x2193;" horiz-adv-x="357" 
d="M132 99q0 56 19 91.5t47 55t56.5 28t48 10.5l19.5 2v-72q-1 0 -16 -2t-34 -13t-33 -34t-14 -66h-93zM132 99q0 43 -14 66t-33 34t-33.5 13t-16.5 2v72q1 0 20.5 -2t47 -10.5t55.5 -28t47.5 -55t19.5 -91.5h-93zM132 99v348h93v-348h-93z" />
    <glyph glyph-name="arrowboth" unicode="&#x2194;" horiz-adv-x="537" 
d="M502 182q-56 0 -91.5 19t-55.5 47t-28.5 56t-10.5 47.5t-2 20.5h73q0 -1 2 -16t12.5 -34t34 -33t66.5 -14v-93zM150 85q0 2 -2 16.5t-13 33.5t-34 33t-66 14v93q56 0 91.5 -19.5t55 -47t28 -56t10.5 -48l2 -19.5h-72zM35 182v93q43 0 66 14t34 33t13 34t2 16h72
q0 -1 -2 -20.5t-10.5 -47.5t-28 -56t-55 -47t-91.5 -19zM35 182v93h348v-93h-348zM154 182v93h348v-93h-348zM314 85l2 19.5t10.5 48t28.5 56t55.5 47t91.5 19.5v-93q-43 0 -66.5 -14t-34 -33t-12.5 -33.5t-2 -16.5h-73z" />
    <glyph glyph-name="arrowupdn" unicode="&#x2195;" horiz-adv-x="357" 
d="M322 260l-19.5 2t-48 10.5t-56.5 28t-47 55t-19 91.5h93q0 -43 14 -66t33 -34t34 -13t16 -2v-72zM132 -20q0 43 -14 66.5t-33 34t-33.5 12.5t-16.5 2v73q1 0 20.5 -2t47 -10.5t55.5 -28.5t47.5 -55.5t19.5 -91.5h-93zM132 -20q0 56 19 91.5t47 55.5t56.5 28.5t48 10.5
l19.5 2v-73q-1 0 -16 -2t-34 -12.5t-33 -34t-14 -66.5h-93zM132 -20v348h93v-348h-93zM132 99v348h93v-348h-93zM35 260v72q2 0 16.5 2t33.5 13t33 34t14 66h93q0 -56 -19.5 -91.5t-47.5 -55t-55.5 -28t-47 -10.5t-20.5 -2z" />
    <glyph glyph-name="uni2196" unicode="&#x2196;" horiz-adv-x="398" 
d="M287 112l-258 258l68 62l258 -257zM93 169l-51 51q1 1 10.5 12.5t16.5 31.5t-0.5 47t-39.5 59l68 62q40 -40 51.5 -77.5t5 -71t-20.5 -59.5t-27 -40.5zM296 371q-1 -1 -16 -13t-41 -25.5t-60 -19t-72 6t-78 50.5l68 62q32 -32 58.5 -38.5t46.5 1t30.5 17t11.5 10.5z" />
    <glyph glyph-name="uni2197" unicode="&#x2197;" horiz-adv-x="398" 
d="M97 112l-68 63l258 257l68 -62zM291 169l-13 14.5t-26.5 40.5t-20.5 59.5t5 71t51 77.5l68 -62q-32 -32 -39.5 -59t-0.5 -47t17 -31.5t11 -12.5zM89 371l51 51q1 -1 12 -10.5t30.5 -17t46 -1t58.5 38.5l68 -62q-39 -39 -77.5 -50.5t-72.5 -6t-59.5 19t-40.5 25.5t-16 13z
" />
    <glyph glyph-name="uni2198" unicode="&#x2198;" horiz-adv-x="398" 
d="M295 108l-260 260l68 62l260 -259zM295 108q-33 33 -59.5 39t-46 -1t-30.5 -17t-12 -11l-51 51q1 1 16 13t41 25.5t60 19.5t72 -6t78 -50zM295 108q-40 40 -51.5 78t-5 71.5t20.5 59t27 40.5l13 15l51 -52q-1 -1 -11 -12t-16.5 -31t1 -47t39.5 -59z" />
    <glyph glyph-name="uni2199" unicode="&#x2199;" horiz-adv-x="554" 
d="M103 108l-68 63l260 259l68 -62zM103 108l-68 63q32 32 39.5 59t0.5 47t-16.5 31t-10.5 12l51 52l13 -15t27 -40.5t20.5 -59t-5 -71.5t-51.5 -78zM103 108l-68 63q40 38 78 50t72 6t60 -19.5t41 -25.5t16 -13l-52 -51q-1 1 -11.5 11t-30.5 17t-46.5 1t-58.5 -39z" />
    <glyph glyph-name="uni21A9" unicode="&#x21a9;" 
d="M35 212v26q42 0 65 14t33.5 33t13 34t2.5 16h25q0 -1 -1.5 -13.5t-8 -30.5t-21.5 -36.5t-41 -30.5t-67 -12zM433 212h-398v26h398v-26zM174 115h-25q0 2 -2.5 16.5t-13 33.5t-33.5 33t-65 14v26q41 0 67 -12.5t41 -30.5t21.5 -36.5t8 -31zM405 404h28v-192h-28v192z" />
    <glyph glyph-name="carriagereturn" unicode="&#x21b5;" 
d="M35 212v26q42 0 65 14t33.5 33t13 34t2.5 16h25q0 -1 -1.5 -13.5t-8 -30.5t-21.5 -36.5t-41 -30.5t-67 -12zM433 212h-398v26h398v-26zM174 115h-25q0 2 -2.5 16.5t-13 33.5t-33.5 33t-65 14v26q41 0 67 -12.5t41 -30.5t21.5 -36.5t8 -31zM405 404h28v-192h-28v192z" />
    <glyph glyph-name="minus" unicode="&#x2212;" horiz-adv-x="408" 
d="M93 184v82h222v-82h-222z" />
    <glyph glyph-name="uni2215" unicode="&#x2215;" horiz-adv-x="402" 
d="M25 0l254 563h113l-254 -563h-113z" />
    <glyph glyph-name="notequal" unicode="&#x2260;" horiz-adv-x="408" 
d="M63 25l163 363h113l-163 -363h-113zM45 91v79h318v-79h-318zM45 240v79h318v-79h-318z" />
    <glyph glyph-name="uni240D" unicode="&#x240d;" horiz-adv-x="595" 
d="M168 180q-55 0 -91.5 35.5t-36.5 105.5t36 104.5t94 34.5q44 0 76 -23.5t41 -73.5h-13q-8 41 -35 63.5t-69 22.5q-53 0 -85.5 -33t-32.5 -95q0 -64 32 -96.5t84 -32.5q46 0 73.5 22.5t34.5 62.5h14q-9 -48 -41 -72.5t-81 -24.5zM339 184v268h78q50 0 76.5 -15t26.5 -59
q0 -25 -15.5 -46.5t-48.5 -21.5q28 0 39 -13.5t12.5 -33t1 -38t3 -28.5t19.5 -5v-11l-8.5 -0.5t-17 5.5t-8.5 27q0 39 -4 58t-17.5 25.5t-43 6.5h-80.5v-119h-13zM352 316h77q40 0 59.5 14t19.5 48q0 39 -23.5 50t-67.5 11h-65v-123z" />
    <glyph glyph-name="I.ss01" horiz-adv-x="501" 
d="M197 -65q-1 127 -1 210.5t-5 132t-20.5 72t-47.5 30t-88 6.5v101q60 0 93.5 9.5t47.5 33.5t17.5 65.5t3.5 105.5h101q0 -64 3 -105.5t17.5 -65.5t49.5 -33.5t98 -9.5v-101q-57 0 -91 -6.5t-51 -29.5t-22.5 -72t-5.5 -132.5v-210.5h-99zM243 198h9q0 79 1 126.5t7.5 71
t21.5 31.5t45 8q-39 0 -54.5 9t-18 28.5t-2.5 50.5h-9q0 -31 -2 -50.5t-17.5 -28.5t-54.5 -9q31 0 46.5 -8t21 -31.5t6 -71t0.5 -126.5z" />
    <glyph glyph-name="N_o.dlig" horiz-adv-x="876" 
d="M732 336q-59 0 -88 32t-29 81t28.5 81.5t88.5 32.5q58 0 87 -31t29 -82q0 -48 -27.5 -81t-88.5 -33zM613 197v83h236v-83h-236zM732 408q13 0 21 6t12 15.5t4 20.5t-4 20.5t-12 15.5t-21 6q-14 0 -22.5 -6t-12.5 -15.5t-4 -20.5t4 -20.5t12.5 -15.5t22.5 -6zM436 563h126
v-563h-231l-149 510h-2v-510h-125v563h214l165 -510h2v510z" />
    <glyph glyph-name="i.loclTRK" horiz-adv-x="215" 
d="M47 0v412h121v-412h-121zM108 461q-38 0 -51 19.5t-13 44.5q0 24 13 43t51 19t50 -19t12 -43q0 -25 -12 -44.5t-50 -19.5z" />
    <glyph glyph-name="a.ss01" horiz-adv-x="490" 
d="M380 -10q-34 0 -53 11.5t-27.5 28.5t-10 33.5t-1.5 25.5v191q0 14 -8 24.5t-21.5 16t-30.5 5.5q-18 0 -35.5 -7t-28 -24t-8.5 -46h-112q1 60 28 96.5t69 52.5t88 16q45 0 86 -15t67 -47.5t26 -86.5v-131q0 -14 2 -27t8 -21t16.5 -9t28.5 7l2 -66q-1 1 -10 -6.5
t-27.5 -14.5t-47.5 -7zM142 -10q-55 0 -89 30t-34 79q0 32 14 53t38 34.5t54.5 22.5t61.5 16q43 10 65 17t29 15.5t7 22.5l2 -161q-16 -54 -51 -91.5t-97 -37.5zM192 75q24 3 45.5 23.5t36 52.5t14.5 68q-7 -7 -27.5 -13.5t-35.5 -11.5q-22 -7 -42 -18t-31.5 -26.5
t-10.5 -36.5q1 -22 18 -30t33 -8z" />
    <glyph glyph-name="aacute.ss01" horiz-adv-x="490" 
d="M380 -10q-34 0 -53 11.5t-27.5 28.5t-10 33.5t-1.5 25.5v191q0 14 -8 24.5t-21.5 16t-30.5 5.5q-18 0 -35.5 -7t-28 -24t-8.5 -46h-112q1 60 28 96.5t69 52.5t88 16q45 0 86 -15t67 -47.5t26 -86.5v-131q0 -14 2 -27t8 -21t16.5 -9t28.5 7l2 -66q-1 1 -10 -6.5
t-27.5 -14.5t-47.5 -7zM142 -10q-55 0 -89 30t-34 79q0 32 14 53t38 34.5t54.5 22.5t61.5 16q43 10 65 17t29 15.5t7 22.5l2 -161q-16 -54 -51 -91.5t-97 -37.5zM192 75q24 3 45.5 23.5t36 52.5t14.5 68q-7 -7 -27.5 -13.5t-35.5 -11.5q-22 -7 -42 -18t-31.5 -26.5
t-10.5 -36.5q1 -22 18 -30t33 -8zM270 458h-54v15l42 99h101v-20z" />
    <glyph glyph-name="abreve.ss01" horiz-adv-x="490" 
d="M380 -10q-34 0 -53 11.5t-27.5 28.5t-10 33.5t-1.5 25.5v191q0 14 -8 24.5t-21.5 16t-30.5 5.5q-18 0 -35.5 -7t-28 -24t-8.5 -46h-112q1 60 28 96.5t69 52.5t88 16q45 0 86 -15t67 -47.5t26 -86.5v-131q0 -14 2 -27t8 -21t16.5 -9t28.5 7l2 -66q-1 1 -10 -6.5
t-27.5 -14.5t-47.5 -7zM142 -10q-55 0 -89 30t-34 79q0 32 14 53t38 34.5t54.5 22.5t61.5 16q43 10 65 17t29 15.5t7 22.5l2 -161q-16 -54 -51 -91.5t-97 -37.5zM192 75q24 3 45.5 23.5t36 52.5t14.5 68q-7 -7 -27.5 -13.5t-35.5 -11.5q-22 -7 -42 -18t-31.5 -26.5
t-10.5 -36.5q1 -22 18 -30t33 -8zM242 463q-66 0 -102.5 30t-36.5 82h84q0 -27 16 -37t39 -10q25 0 39.5 10t14.5 37h85q0 -52 -36 -82t-103 -30z" />
    <glyph glyph-name="uni1EAF.ss01" horiz-adv-x="490" 
d="M380 -10q-34 0 -53 11.5t-27.5 28.5t-10 33.5t-1.5 25.5v191q0 14 -8 24.5t-21.5 16t-30.5 5.5q-18 0 -35.5 -7t-28 -24t-8.5 -46h-112q1 60 28 96.5t69 52.5t88 16q45 0 86 -15t67 -47.5t26 -86.5v-131q0 -14 2 -27t8 -21t16.5 -9t28.5 7l2 -66q-1 1 -10 -6.5
t-27.5 -14.5t-47.5 -7zM142 -10q-55 0 -89 30t-34 79q0 32 14 53t38 34.5t54.5 22.5t61.5 16q43 10 65 17t29 15.5t7 22.5l2 -161q-16 -54 -51 -91.5t-97 -37.5zM192 75q24 3 45.5 23.5t36 52.5t14.5 68q-7 -7 -27.5 -13.5t-35.5 -11.5q-22 -7 -42 -18t-31.5 -26.5
t-10.5 -36.5q1 -22 18 -30t33 -8zM242 463q-66 0 -102.5 30t-36.5 82h84q0 -27 16 -37t39 -10q25 0 39.5 10t14.5 37h85q0 -52 -36 -82t-103 -30zM270 613h-54v15l42 99h101v-20z" />
    <glyph glyph-name="uni1EB7.ss01" horiz-adv-x="490" 
d="M380 -10q-34 0 -53 11.5t-27.5 28.5t-10 33.5t-1.5 25.5v191q0 14 -8 24.5t-21.5 16t-30.5 5.5q-18 0 -35.5 -7t-28 -24t-8.5 -46h-112q1 60 28 96.5t69 52.5t88 16q45 0 86 -15t67 -47.5t26 -86.5v-131q0 -14 2 -27t8 -21t16.5 -9t28.5 7l2 -66q-1 1 -10 -6.5
t-27.5 -14.5t-47.5 -7zM142 -10q-55 0 -89 30t-34 79q0 32 14 53t38 34.5t54.5 22.5t61.5 16q43 10 65 17t29 15.5t7 22.5l2 -161q-16 -54 -51 -91.5t-97 -37.5zM192 75q24 3 45.5 23.5t36 52.5t14.5 68q-7 -7 -27.5 -13.5t-35.5 -11.5q-22 -7 -42 -18t-31.5 -26.5
t-10.5 -36.5q1 -22 18 -30t33 -8zM246 -195q-38 0 -51 19t-13 45q0 24 13 43t51 19q37 0 49.5 -19t12.5 -43q0 -26 -12.5 -45t-49.5 -19zM242 463q-66 0 -102.5 30t-36.5 82h84q0 -27 16 -37t39 -10q25 0 39.5 10t14.5 37h85q0 -52 -36 -82t-103 -30z" />
    <glyph glyph-name="uni1EB1.ss01" horiz-adv-x="490" 
d="M380 -10q-34 0 -53 11.5t-27.5 28.5t-10 33.5t-1.5 25.5v191q0 14 -8 24.5t-21.5 16t-30.5 5.5q-18 0 -35.5 -7t-28 -24t-8.5 -46h-112q1 60 28 96.5t69 52.5t88 16q45 0 86 -15t67 -47.5t26 -86.5v-131q0 -14 2 -27t8 -21t16.5 -9t28.5 7l2 -66q-1 1 -10 -6.5
t-27.5 -14.5t-47.5 -7zM142 -10q-55 0 -89 30t-34 79q0 32 14 53t38 34.5t54.5 22.5t61.5 16q43 10 65 17t29 15.5t7 22.5l2 -161q-16 -54 -51 -91.5t-97 -37.5zM192 75q24 3 45.5 23.5t36 52.5t14.5 68q-7 -7 -27.5 -13.5t-35.5 -11.5q-22 -7 -42 -18t-31.5 -26.5
t-10.5 -36.5q1 -22 18 -30t33 -8zM242 463q-66 0 -102.5 30t-36.5 82h84q0 -27 16 -37t39 -10q25 0 39.5 10t14.5 37h85q0 -52 -36 -82t-103 -30zM213 613l-88 94v20h101l42 -99v-15h-55z" />
    <glyph glyph-name="uni1EB3.ss01" horiz-adv-x="490" 
d="M380 -10q-34 0 -53 11.5t-27.5 28.5t-10 33.5t-1.5 25.5v191q0 14 -8 24.5t-21.5 16t-30.5 5.5q-18 0 -35.5 -7t-28 -24t-8.5 -46h-112q1 60 28 96.5t69 52.5t88 16q45 0 86 -15t67 -47.5t26 -86.5v-131q0 -14 2 -27t8 -21t16.5 -9t28.5 7l2 -66q-1 1 -10 -6.5
t-27.5 -14.5t-47.5 -7zM142 -10q-55 0 -89 30t-34 79q0 32 14 53t38 34.5t54.5 22.5t61.5 16q43 10 65 17t29 15.5t7 22.5l2 -161q-16 -54 -51 -91.5t-97 -37.5zM192 75q24 3 45.5 23.5t36 52.5t14.5 68q-7 -7 -27.5 -13.5t-35.5 -11.5q-22 -7 -42 -18t-31.5 -26.5
t-10.5 -36.5q1 -22 18 -30t33 -8zM242 463q-66 0 -102.5 30t-36.5 82h84q0 -27 16 -37t39 -10q25 0 39.5 10t14.5 37h85q0 -52 -36 -82t-103 -30zM204 614v17q6 14 21.5 23t29.5 20t14 28q0 13 -9.5 18.5t-21.5 5.5q-13 0 -25.5 -6.5t-17.5 -19.5l-47 32q10 34 39 51t61 17
q36 0 65 -21t29 -64q0 -31 -13 -47.5t-28 -27.5t-22 -26h-75z" />
    <glyph glyph-name="uni1EB5.ss01" horiz-adv-x="490" 
d="M380 -10q-34 0 -53 11.5t-27.5 28.5t-10 33.5t-1.5 25.5v191q0 14 -8 24.5t-21.5 16t-30.5 5.5q-18 0 -35.5 -7t-28 -24t-8.5 -46h-112q1 60 28 96.5t69 52.5t88 16q45 0 86 -15t67 -47.5t26 -86.5v-131q0 -14 2 -27t8 -21t16.5 -9t28.5 7l2 -66q-1 1 -10 -6.5
t-27.5 -14.5t-47.5 -7zM142 -10q-55 0 -89 30t-34 79q0 32 14 53t38 34.5t54.5 22.5t61.5 16q43 10 65 17t29 15.5t7 22.5l2 -161q-16 -54 -51 -91.5t-97 -37.5zM192 75q24 3 45.5 23.5t36 52.5t14.5 68q-7 -7 -27.5 -13.5t-35.5 -11.5q-22 -7 -42 -18t-31.5 -26.5
t-10.5 -36.5q1 -22 18 -30t33 -8zM246 463q-66 0 -102.5 30t-36.5 82h84q0 -27 16 -37t39 -10q25 0 39.5 10t14.5 37h85q0 -52 -36 -82t-103 -30zM106 630q0 13 0.5 33t7.5 40.5t24.5 34.5t50.5 14q27 0 42.5 -9t25.5 -19.5t19 -19.5t22 -9q15 0 17.5 14.5t2.5 39.5h70
q0 -19 -1.5 -40t-9.5 -40t-25 -31t-48 -12q-26 0 -41.5 8.5t-25.5 19.5t-18.5 20t-22.5 9q-16 0 -18.5 -13.5t-2.5 -39.5h-69z" />
    <glyph glyph-name="acircumflex.ss01" horiz-adv-x="490" 
d="M380 -10q-34 0 -53 11.5t-27.5 28.5t-10 33.5t-1.5 25.5v191q0 14 -8 24.5t-21.5 16t-30.5 5.5q-18 0 -35.5 -7t-28 -24t-8.5 -46h-112q1 60 28 96.5t69 52.5t88 16q45 0 86 -15t67 -47.5t26 -86.5v-131q0 -14 2 -27t8 -21t16.5 -9t28.5 7l2 -66q-1 1 -10 -6.5
t-27.5 -14.5t-47.5 -7zM142 -10q-55 0 -89 30t-34 79q0 32 14 53t38 34.5t54.5 22.5t61.5 16q43 10 65 17t29 15.5t7 22.5l2 -161q-16 -54 -51 -91.5t-97 -37.5zM192 75q24 3 45.5 23.5t36 52.5t14.5 68q-7 -7 -27.5 -13.5t-35.5 -11.5q-22 -7 -42 -18t-31.5 -26.5
t-10.5 -36.5q1 -22 18 -30t33 -8zM94 467v9l123 111h50l122 -111v-9h-105l-39 44h-6l-36 -44h-109z" />
    <glyph glyph-name="uni1EA5.ss01" horiz-adv-x="490" 
d="M380 -10q-34 0 -53 11.5t-27.5 28.5t-10 33.5t-1.5 25.5v191q0 14 -8 24.5t-21.5 16t-30.5 5.5q-18 0 -35.5 -7t-28 -24t-8.5 -46h-112q1 60 28 96.5t69 52.5t88 16q45 0 86 -15t67 -47.5t26 -86.5v-131q0 -14 2 -27t8 -21t16.5 -9t28.5 7l2 -66q-1 1 -10 -6.5
t-27.5 -14.5t-47.5 -7zM142 -10q-55 0 -89 30t-34 79q0 32 14 53t38 34.5t54.5 22.5t61.5 16q43 10 65 17t29 15.5t7 22.5l2 -161q-16 -54 -51 -91.5t-97 -37.5zM192 75q24 3 45.5 23.5t36 52.5t14.5 68q-7 -7 -27.5 -13.5t-35.5 -11.5q-22 -7 -42 -18t-31.5 -26.5
t-10.5 -36.5q1 -22 18 -30t33 -8zM97 467v9l123 111h50l122 -111v-9h-105l-39 44h-6l-36 -44h-109zM392 560h-54v15l42 99h101v-20z" />
    <glyph glyph-name="uni1EAD.ss01" horiz-adv-x="490" 
d="M380 -10q-34 0 -53 11.5t-27.5 28.5t-10 33.5t-1.5 25.5v191q0 14 -8 24.5t-21.5 16t-30.5 5.5q-18 0 -35.5 -7t-28 -24t-8.5 -46h-112q1 60 28 96.5t69 52.5t88 16q45 0 86 -15t67 -47.5t26 -86.5v-131q0 -14 2 -27t8 -21t16.5 -9t28.5 7l2 -66q-1 1 -10 -6.5
t-27.5 -14.5t-47.5 -7zM142 -10q-55 0 -89 30t-34 79q0 32 14 53t38 34.5t54.5 22.5t61.5 16q43 10 65 17t29 15.5t7 22.5l2 -161q-16 -54 -51 -91.5t-97 -37.5zM192 75q24 3 45.5 23.5t36 52.5t14.5 68q-7 -7 -27.5 -13.5t-35.5 -11.5q-22 -7 -42 -18t-31.5 -26.5
t-10.5 -36.5q1 -22 18 -30t33 -8zM246 -195q-38 0 -51 19t-13 45q0 24 13 43t51 19q37 0 49.5 -19t12.5 -43q0 -26 -12.5 -45t-49.5 -19zM94 467v9l123 111h50l122 -111v-9h-105l-39 44h-6l-36 -44h-109z" />
    <glyph glyph-name="uni1EA7.ss01" horiz-adv-x="490" 
d="M380 -10q-34 0 -53 11.5t-27.5 28.5t-10 33.5t-1.5 25.5v191q0 14 -8 24.5t-21.5 16t-30.5 5.5q-18 0 -35.5 -7t-28 -24t-8.5 -46h-112q1 60 28 96.5t69 52.5t88 16q45 0 86 -15t67 -47.5t26 -86.5v-131q0 -14 2 -27t8 -21t16.5 -9t28.5 7l2 -66q-1 1 -10 -6.5
t-27.5 -14.5t-47.5 -7zM142 -10q-55 0 -89 30t-34 79q0 32 14 53t38 34.5t54.5 22.5t61.5 16q43 10 65 17t29 15.5t7 22.5l2 -161q-16 -54 -51 -91.5t-97 -37.5zM192 75q24 3 45.5 23.5t36 52.5t14.5 68q-7 -7 -27.5 -13.5t-35.5 -11.5q-22 -7 -42 -18t-31.5 -26.5
t-10.5 -36.5q1 -22 18 -30t33 -8zM387 559l-88 94v20h101l42 -99v-15h-55zM93 464v9l123 111h50l122 -111v-9h-105l-39 44h-6l-36 -44h-109z" />
    <glyph glyph-name="uni1EA9.ss01" horiz-adv-x="490" 
d="M380 -10q-34 0 -53 11.5t-27.5 28.5t-10 33.5t-1.5 25.5v191q0 14 -8 24.5t-21.5 16t-30.5 5.5q-18 0 -35.5 -7t-28 -24t-8.5 -46h-112q1 60 28 96.5t69 52.5t88 16q45 0 86 -15t67 -47.5t26 -86.5v-131q0 -14 2 -27t8 -21t16.5 -9t28.5 7l2 -66q-1 1 -10 -6.5
t-27.5 -14.5t-47.5 -7zM142 -10q-55 0 -89 30t-34 79q0 32 14 53t38 34.5t54.5 22.5t61.5 16q43 10 65 17t29 15.5t7 22.5l2 -161q-16 -54 -51 -91.5t-97 -37.5zM192 75q24 3 45.5 23.5t36 52.5t14.5 68q-7 -7 -27.5 -13.5t-35.5 -11.5q-22 -7 -42 -18t-31.5 -26.5
t-10.5 -36.5q1 -22 18 -30t33 -8zM93 464v9l123 111h50l122 -111v-9h-105l-39 44h-6l-36 -44h-109zM329 550v17q6 14 21.5 23t29.5 20t14 28q0 13 -9.5 18.5t-21.5 5.5q-13 0 -25.5 -6.5t-17.5 -19.5l-47 32q10 34 39 51t61 17q36 0 65 -21t29 -64q0 -31 -13 -47.5
t-28 -27.5t-22 -26h-75z" />
    <glyph glyph-name="uni1EAB.ss01" horiz-adv-x="490" 
d="M380 -10q-34 0 -53 11.5t-27.5 28.5t-10 33.5t-1.5 25.5v191q0 14 -8 24.5t-21.5 16t-30.5 5.5q-18 0 -35.5 -7t-28 -24t-8.5 -46h-112q1 60 28 96.5t69 52.5t88 16q45 0 86 -15t67 -47.5t26 -86.5v-131q0 -14 2 -27t8 -21t16.5 -9t28.5 7l2 -66q-1 1 -10 -6.5
t-27.5 -14.5t-47.5 -7zM142 -10q-55 0 -89 30t-34 79q0 32 14 53t38 34.5t54.5 22.5t61.5 16q43 10 65 17t29 15.5t7 22.5l2 -161q-16 -54 -51 -91.5t-97 -37.5zM192 75q24 3 45.5 23.5t36 52.5t14.5 68q-7 -7 -27.5 -13.5t-35.5 -11.5q-22 -7 -42 -18t-31.5 -26.5
t-10.5 -36.5q1 -22 18 -30t33 -8zM95 464v9l123 111h50l122 -111v-9h-105l-39 44h-6l-36 -44h-109zM97 617q0 13 0.5 33t7.5 40.5t24.5 34.5t50.5 14q27 0 42.5 -9t25.5 -19.5t19 -19.5t22 -9q15 0 17.5 14.5t2.5 39.5h70q0 -19 -1.5 -40t-9.5 -40t-25 -31t-48 -12
q-26 0 -41.5 8.5t-25.5 19.5t-18.5 20t-22.5 9q-16 0 -18.5 -13.5t-2.5 -39.5h-69z" />
    <glyph glyph-name="adieresis.ss01" horiz-adv-x="490" 
d="M380 -10q-34 0 -53 11.5t-27.5 28.5t-10 33.5t-1.5 25.5v191q0 14 -8 24.5t-21.5 16t-30.5 5.5q-18 0 -35.5 -7t-28 -24t-8.5 -46h-112q1 60 28 96.5t69 52.5t88 16q45 0 86 -15t67 -47.5t26 -86.5v-131q0 -14 2 -27t8 -21t16.5 -9t28.5 7l2 -66q-1 1 -10 -6.5
t-27.5 -14.5t-47.5 -7zM142 -10q-55 0 -89 30t-34 79q0 32 14 53t38 34.5t54.5 22.5t61.5 16q43 10 65 17t29 15.5t7 22.5l2 -161q-16 -54 -51 -91.5t-97 -37.5zM192 75q24 3 45.5 23.5t36 52.5t14.5 68q-7 -7 -27.5 -13.5t-35.5 -11.5q-22 -7 -42 -18t-31.5 -26.5
t-10.5 -36.5q1 -22 18 -30t33 -8zM147 457q-41 0 -55 20.5t-14 48.5q0 26 14 46.5t55 20.5t54 -20.5t13 -46.5q0 -28 -13 -48.5t-54 -20.5zM341 457q-41 0 -55 20.5t-14 48.5q0 26 14 46.5t55 20.5q40 0 53.5 -20.5t13.5 -46.5q0 -28 -13.5 -48.5t-53.5 -20.5z" />
    <glyph glyph-name="uni1EA1.ss01" horiz-adv-x="490" 
d="M380 -10q-34 0 -53 11.5t-27.5 28.5t-10 33.5t-1.5 25.5v191q0 14 -8 24.5t-21.5 16t-30.5 5.5q-18 0 -35.5 -7t-28 -24t-8.5 -46h-112q1 60 28 96.5t69 52.5t88 16q45 0 86 -15t67 -47.5t26 -86.5v-131q0 -14 2 -27t8 -21t16.5 -9t28.5 7l2 -66q-1 1 -10 -6.5
t-27.5 -14.5t-47.5 -7zM142 -10q-55 0 -89 30t-34 79q0 32 14 53t38 34.5t54.5 22.5t61.5 16q43 10 65 17t29 15.5t7 22.5l2 -161q-16 -54 -51 -91.5t-97 -37.5zM192 75q24 3 45.5 23.5t36 52.5t14.5 68q-7 -7 -27.5 -13.5t-35.5 -11.5q-22 -7 -42 -18t-31.5 -26.5
t-10.5 -36.5q1 -22 18 -30t33 -8zM246 -195q-38 0 -51 19t-13 45q0 24 13 43t51 19q37 0 49.5 -19t12.5 -43q0 -26 -12.5 -45t-49.5 -19z" />
    <glyph glyph-name="agrave.ss01" horiz-adv-x="490" 
d="M380 -10q-34 0 -53 11.5t-27.5 28.5t-10 33.5t-1.5 25.5v191q0 14 -8 24.5t-21.5 16t-30.5 5.5q-18 0 -35.5 -7t-28 -24t-8.5 -46h-112q1 60 28 96.5t69 52.5t88 16q45 0 86 -15t67 -47.5t26 -86.5v-131q0 -14 2 -27t8 -21t16.5 -9t28.5 7l2 -66q-1 1 -10 -6.5
t-27.5 -14.5t-47.5 -7zM142 -10q-55 0 -89 30t-34 79q0 32 14 53t38 34.5t54.5 22.5t61.5 16q43 10 65 17t29 15.5t7 22.5l2 -161q-16 -54 -51 -91.5t-97 -37.5zM192 75q24 3 45.5 23.5t36 52.5t14.5 68q-7 -7 -27.5 -13.5t-35.5 -11.5q-22 -7 -42 -18t-31.5 -26.5
t-10.5 -36.5q1 -22 18 -30t33 -8zM213 458l-88 94v20h101l42 -99v-15h-55z" />
    <glyph glyph-name="uni1EA3.ss01" horiz-adv-x="490" 
d="M380 -10q-34 0 -53 11.5t-27.5 28.5t-10 33.5t-1.5 25.5v191q0 14 -8 24.5t-21.5 16t-30.5 5.5q-18 0 -35.5 -7t-28 -24t-8.5 -46h-112q1 60 28 96.5t69 52.5t88 16q45 0 86 -15t67 -47.5t26 -86.5v-131q0 -14 2 -27t8 -21t16.5 -9t28.5 7l2 -66q-1 1 -10 -6.5
t-27.5 -14.5t-47.5 -7zM142 -10q-55 0 -89 30t-34 79q0 32 14 53t38 34.5t54.5 22.5t61.5 16q43 10 65 17t29 15.5t7 22.5l2 -161q-16 -54 -51 -91.5t-97 -37.5zM192 75q24 3 45.5 23.5t36 52.5t14.5 68q-7 -7 -27.5 -13.5t-35.5 -11.5q-22 -7 -42 -18t-31.5 -26.5
t-10.5 -36.5q1 -22 18 -30t33 -8zM204 459v17q6 14 21.5 23t29.5 20t14 28q0 13 -9.5 18.5t-21.5 5.5q-13 0 -25.5 -6.5t-17.5 -19.5l-47 32q10 34 39 51t61 17q36 0 65 -21t29 -64q0 -31 -13 -47.5t-28 -27.5t-22 -26h-75z" />
    <glyph glyph-name="amacron.ss01" horiz-adv-x="490" 
d="M380 -10q-34 0 -53 11.5t-27.5 28.5t-10 33.5t-1.5 25.5v191q0 14 -8 24.5t-21.5 16t-30.5 5.5q-18 0 -35.5 -7t-28 -24t-8.5 -46h-112q1 60 28 96.5t69 52.5t88 16q45 0 86 -15t67 -47.5t26 -86.5v-131q0 -14 2 -27t8 -21t16.5 -9t28.5 7l2 -66q-1 1 -10 -6.5
t-27.5 -14.5t-47.5 -7zM142 -10q-55 0 -89 30t-34 79q0 32 14 53t38 34.5t54.5 22.5t61.5 16q43 10 65 17t29 15.5t7 22.5l2 -161q-16 -54 -51 -91.5t-97 -37.5zM192 75q24 3 45.5 23.5t36 52.5t14.5 68q-7 -7 -27.5 -13.5t-35.5 -11.5q-22 -7 -42 -18t-31.5 -26.5
t-10.5 -36.5q1 -22 18 -30t33 -8zM98 479v82h289v-82h-289z" />
    <glyph glyph-name="aogonek.ss01" horiz-adv-x="490" 
d="M408 -199q-24 0 -48.5 9t-41 29t-16.5 54q0 30 16.5 54t40.5 41t48.5 28t40.5 16.5l16 5.5l1 -54l-11.5 -4.5t-26.5 -14t-26 -22t-11 -30.5q0 -12 8 -19t21 -7q14 0 23 6.5t14 13.5l5 7l63 -56l-12.5 -14t-38 -28.5t-65.5 -14.5zM380 -10q-34 0 -53 11.5t-27.5 28.5
t-10 33.5t-1.5 25.5v191q0 14 -8 24.5t-21.5 16t-30.5 5.5q-18 0 -35.5 -7t-28 -24t-8.5 -46h-112q1 60 28 96.5t69 52.5t88 16q45 0 86 -15t67 -47.5t26 -86.5v-131q0 -14 2 -27t8 -21t16.5 -9t28.5 7l2 -66q-1 1 -10 -6.5t-27.5 -14.5t-47.5 -7zM142 -10q-55 0 -89 30
t-34 79q0 32 14 53t38 34.5t54.5 22.5t61.5 16q43 10 65 17t29 15.5t7 22.5l2 -161q-16 -54 -51 -91.5t-97 -37.5zM192 75q24 3 45.5 23.5t36 52.5t14.5 68q-7 -7 -27.5 -13.5t-35.5 -11.5q-22 -7 -42 -18t-31.5 -26.5t-10.5 -36.5q1 -22 18 -30t33 -8z" />
    <glyph glyph-name="aring.ss01" horiz-adv-x="490" 
d="M380 -10q-34 0 -53 11.5t-27.5 28.5t-10 33.5t-1.5 25.5v191q0 14 -8 24.5t-21.5 16t-30.5 5.5q-18 0 -35.5 -7t-28 -24t-8.5 -46h-112q1 60 28 96.5t69 52.5t88 16q45 0 86 -15t67 -47.5t26 -86.5v-131q0 -14 2 -27t8 -21t16.5 -9t28.5 7l2 -66q-1 1 -10 -6.5
t-27.5 -14.5t-47.5 -7zM142 -10q-55 0 -89 30t-34 79q0 32 14 53t38 34.5t54.5 22.5t61.5 16q43 10 65 17t29 15.5t7 22.5l2 -161q-16 -54 -51 -91.5t-97 -37.5zM192 75q24 3 45.5 23.5t36 52.5t14.5 68q-7 -7 -27.5 -13.5t-35.5 -11.5q-22 -7 -42 -18t-31.5 -26.5
t-10.5 -36.5q1 -22 18 -30t33 -8zM241 471q-53 0 -78 27.5t-25 74.5q0 48 24.5 76t77.5 28q54 0 80 -28t26 -76q0 -45 -26 -73.5t-79 -28.5zM239 541q19 0 27.5 9.5t8.5 24.5t-8.5 26t-27.5 11q-18 0 -27 -11t-9 -26t9 -24.5t27 -9.5z" />
    <glyph glyph-name="atilde.ss01" horiz-adv-x="490" 
d="M380 -10q-34 0 -53 11.5t-27.5 28.5t-10 33.5t-1.5 25.5v191q0 14 -8 24.5t-21.5 16t-30.5 5.5q-18 0 -35.5 -7t-28 -24t-8.5 -46h-112q1 60 28 96.5t69 52.5t88 16q45 0 86 -15t67 -47.5t26 -86.5v-131q0 -14 2 -27t8 -21t16.5 -9t28.5 7l2 -66q-1 1 -10 -6.5
t-27.5 -14.5t-47.5 -7zM142 -10q-55 0 -89 30t-34 79q0 32 14 53t38 34.5t54.5 22.5t61.5 16q43 10 65 17t29 15.5t7 22.5l2 -161q-16 -54 -51 -91.5t-97 -37.5zM192 75q24 3 45.5 23.5t36 52.5t14.5 68q-7 -7 -27.5 -13.5t-35.5 -11.5q-22 -7 -42 -18t-31.5 -26.5
t-10.5 -36.5q1 -22 18 -30t33 -8zM102 475q0 13 0.5 33t7.5 40.5t24.5 34.5t50.5 14q27 0 42.5 -9t25.5 -19.5t19 -19.5t22 -9q15 0 17.5 14.5t2.5 39.5h70q0 -19 -1.5 -40t-9.5 -40t-25 -31t-48 -12q-26 0 -41.5 8.5t-25.5 19.5t-18.5 20t-22.5 9q-16 0 -18.5 -13.5
t-2.5 -39.5h-69z" />
    <glyph glyph-name="f.ss01" horiz-adv-x="352" 
d="M310 250h-88v-250h-120v250h-75v93h283v-93zM175 339q-34 -1 -70.5 9t-62 35.5t-25.5 68.5q0 32 21.5 57t57.5 39.5t79 14.5q61 0 100 -23.5t59.5 -58t20.5 -67.5h-117q0 8 -3 16.5t-10.5 15.5t-19.5 12t-30 5q-20 0 -31.5 -8t-17 -19t-5.5 -18q0 -15 7 -29t26 -25
t56.5 -17t99.5 -4z" />
    <glyph glyph-name="g.ss01" horiz-adv-x="471" 
d="M152 91q0 -16 13.5 -21t31.5 -5h33q35 0 73.5 -4.5t71.5 -18.5t53.5 -41t20.5 -70q0 -45 -29 -73.5t-78.5 -42.5t-112.5 -14q-70 0 -118 13t-73.5 41t-24.5 69q0 26 13 49.5t38.5 39t64.5 15.5q-29 0 -49 14.5t-20 35.5q0 19 15 31t37.5 17.5t44.5 5.5q-60 9 -89 45.5
t-29 79.5q0 71 51 114.5t142 43.5h50t40 4t16 16q0 17 -23 22t-57 -9l-16 78q39 13 73.5 7t57 -25.5t22.5 -47.5q0 -21 -10.5 -33.5t-24 -19t-24.5 -9.5t-12 -3q43 -13 71.5 -52t28.5 -86q0 -39 -21 -70.5t-64 -50t-110 -18.5h-28.5t-33.5 -5t-15 -22zM163 261
q0 -22 6.5 -38.5t21.5 -25.5t40 -9q37 0 51.5 20.5t14.5 52.5q0 34 -15 56.5t-51 22.5q-26 0 -41 -10.5t-21 -28t-6 -40.5zM229 -109q29 0 52 4t36.5 16.5t13.5 35.5q0 17 -12.5 29t-35.5 17.5t-54 5.5q-27 0 -49.5 -5t-36 -16.5t-13.5 -30.5q0 -23 14.5 -35t37 -16.5
t47.5 -4.5z" />
    <glyph glyph-name="gbreve.ss01" horiz-adv-x="471" 
d="M152 91q0 -16 13.5 -21t31.5 -5h33q35 0 73.5 -4.5t71.5 -18.5t53.5 -41t20.5 -70q0 -45 -29 -73.5t-78.5 -42.5t-112.5 -14q-70 0 -118 13t-73.5 41t-24.5 69q0 26 13 49.5t38.5 39t64.5 15.5q-29 0 -49 14.5t-20 35.5q0 19 15 31t37.5 17.5t44.5 5.5q-60 9 -89 45.5
t-29 79.5q0 71 51 114.5t142 43.5h50t40 4t16 16q0 17 -23 22t-57 -9l-16 78q39 13 73.5 7t57 -25.5t22.5 -47.5q0 -21 -10.5 -33.5t-24 -19t-24.5 -9.5t-12 -3q43 -13 71.5 -52t28.5 -86q0 -39 -21 -70.5t-64 -50t-110 -18.5h-28.5t-33.5 -5t-15 -22zM163 261
q0 -22 6.5 -38.5t21.5 -25.5t40 -9q37 0 51.5 20.5t14.5 52.5q0 34 -15 56.5t-51 22.5q-26 0 -41 -10.5t-21 -28t-6 -40.5zM229 -109q29 0 52 4t36.5 16.5t13.5 35.5q0 17 -12.5 29t-35.5 17.5t-54 5.5q-27 0 -49.5 -5t-36 -16.5t-13.5 -30.5q0 -23 14.5 -35t37 -16.5
t47.5 -4.5zM217 560q-66 0 -102.5 30t-36.5 82h84q0 -27 16 -37t39 -10q25 0 39.5 10t14.5 37h85q0 -52 -36 -82t-103 -30z" />
    <glyph glyph-name="uni0123.ss01" horiz-adv-x="471" 
d="M152 91q0 -16 13.5 -21t31.5 -5h33q35 0 73.5 -4.5t71.5 -18.5t53.5 -41t20.5 -70q0 -45 -29 -73.5t-78.5 -42.5t-112.5 -14q-70 0 -118 13t-73.5 41t-24.5 69q0 26 13 49.5t38.5 39t64.5 15.5q-29 0 -49 14.5t-20 35.5q0 19 15 31t37.5 17.5t44.5 5.5q-60 9 -89 45.5
t-29 79.5q0 71 51 114.5t142 43.5h50t40 4t16 16q0 17 -23 22t-57 -9l-16 78q39 13 73.5 7t57 -25.5t22.5 -47.5q0 -21 -10.5 -33.5t-24 -19t-24.5 -9.5t-12 -3q43 -13 71.5 -52t28.5 -86q0 -39 -21 -70.5t-64 -50t-110 -18.5h-28.5t-33.5 -5t-15 -22zM163 261
q0 -22 6.5 -38.5t21.5 -25.5t40 -9q37 0 51.5 20.5t14.5 52.5q0 34 -15 56.5t-51 22.5q-26 0 -41 -10.5t-21 -28t-6 -40.5zM229 -109q29 0 52 4t36.5 16.5t13.5 35.5q0 17 -12.5 29t-35.5 17.5t-54 5.5q-27 0 -49.5 -5t-36 -16.5t-13.5 -30.5q0 -23 14.5 -35t37 -16.5
t47.5 -4.5zM236 558h-55v15l42 99h101v-20z" />
    <glyph glyph-name="gdotaccent.ss01" horiz-adv-x="471" 
d="M152 91q0 -16 13.5 -21t31.5 -5h33q35 0 73.5 -4.5t71.5 -18.5t53.5 -41t20.5 -70q0 -45 -29 -73.5t-78.5 -42.5t-112.5 -14q-70 0 -118 13t-73.5 41t-24.5 69q0 26 13 49.5t38.5 39t64.5 15.5q-29 0 -49 14.5t-20 35.5q0 19 15 31t37.5 17.5t44.5 5.5q-60 9 -89 45.5
t-29 79.5q0 71 51 114.5t142 43.5h50t40 4t16 16q0 17 -23 22t-57 -9l-16 78q39 13 73.5 7t57 -25.5t22.5 -47.5q0 -21 -10.5 -33.5t-24 -19t-24.5 -9.5t-12 -3q43 -13 71.5 -52t28.5 -86q0 -39 -21 -70.5t-64 -50t-110 -18.5h-28.5t-33.5 -5t-15 -22zM163 261
q0 -22 6.5 -38.5t21.5 -25.5t40 -9q37 0 51.5 20.5t14.5 52.5q0 34 -15 56.5t-51 22.5q-26 0 -41 -10.5t-21 -28t-6 -40.5zM229 -109q29 0 52 4t36.5 16.5t13.5 35.5q0 17 -12.5 29t-35.5 17.5t-54 5.5q-27 0 -49.5 -5t-36 -16.5t-13.5 -30.5q0 -23 14.5 -35t37 -16.5
t47.5 -4.5zM218 558q-38 0 -51 19.5t-13 44.5q0 24 13 43t51 19t50 -19t12 -43q0 -25 -12 -44.5t-50 -19.5z" />
    <glyph glyph-name="lcaron.ss01" horiz-adv-x="211" 
d="M47 0v563h117v-563h-117zM215 398l29 167h113l-72 -167h-70z" />
    <glyph glyph-name="x.ss01" horiz-adv-x="382" 
d="M55 340l58 59l213 -212l-59 -59zM56 187l213 212l58 -59l-212 -212z" />
    <glyph glyph-name="f_f.dlig" horiz-adv-x="580" 
d="M71 -1v470q0 64 30 90t84 26h102v-94h-96v-492h-120zM18 329v83h267v-83h-267zM352 -1v470q0 64 30 90t84 26h102v-94h-95v-492h-121zM285 329v83h282v-83h-282z" />
    <glyph glyph-name="f_i.dlig" horiz-adv-x="512" 
d="M71 -1v470q0 64 30 90t84 26h102v-94h-96v-492h-120zM18 329v83h338v-83h-338zM342 0v412h19.5h42h41.5h18v-412h-121z" />
    <glyph glyph-name="f_t.dlig" horiz-adv-x="591" 
d="M71 -1v470q0 64 30 90t84 26h102v-94h-96v-492h-120zM18 329v83h267v-83h-267zM459 0q-54 0 -84 26t-30 90v225h113v-248h95v-93h-94zM285 329v83q20 0 34 3.5t23.5 13.5t14 31.5t4.5 56.5h97v-105h93v-83h-266z" />
    <glyph glyph-name="t_t.dlig" horiz-adv-x="611" 
d="M187 0q-54 0 -84 26t-30 90v225h113v-248h96v-93h-95zM14 329v83q19 0 33.5 3.5t24 13.5t14 31.5t4.5 56.5h96v-105h119v-83h-291zM479 0q-54 0 -84 26t-30 90v225h113v-248h95v-93h-94zM305 329v83q20 0 34 3.5t23.5 13.5t14 31.5t4.5 56.5h97v-105h93v-83h-266z" />
    <glyph glyph-name="zero.dnom" horiz-adv-x="268" 
d="M134 -13q-60 0 -89.5 38.5t-29.5 106.5t28.5 106.5t90.5 38.5q61 0 90 -38.5t29 -106.5q0 -66 -29 -105.5t-90 -39.5zM134 35q33 0 49 23.5t16 73.5t-15.5 73t-49.5 23q-33 0 -48.5 -22t-15.5 -74q0 -50 15.5 -73.5t48.5 -23.5z" />
    <glyph glyph-name="one.dnom" horiz-adv-x="188" 
d="M75 12v209q-5 -26 -18 -38.5t-25.5 -17.5t-16.5 -5v68q5 -1 20.5 0t29.5 11.5t16 37.5h55v-265h-61zM29 0v53h144v-53h-144z" />
    <glyph glyph-name="two.dnom" horiz-adv-x="247" 
d="M15 0v50q9 4 32.5 15.5t50 28.5t46.5 39t22 46q3 23 -10 35t-34 12q-24 0 -38 -17.5t-8 -55.5l-56 8q-8 56 25 86t83 30q30 0 52.5 -12t35.5 -32t10 -46q-2 -24 -16.5 -46.5t-37.5 -41t-48.5 -30.5t-48.5 -17h157v-52h-217z" />
    <glyph glyph-name="three.dnom" horiz-adv-x="250" 
d="M130 -13q-52 0 -84 25.5t-31 76.5l58 9q0 -28 15.5 -44t43.5 -16q22 0 34.5 12t12.5 29q0 13 -6.5 22t-18 14t-24.5 5h-27v31h29q17 0 31 9t14 26q0 19 -13.5 30t-36.5 11q-17 0 -28.5 -7t-18 -18.5t-6.5 -23.5l-53 9q0 8 4.5 22.5t16.5 30.5t32.5 26.5t51.5 10.5
q50 0 77.5 -21.5t27.5 -57.5q0 -22 -13.5 -42t-41.5 -22q27 -2 43 -21.5t16 -44.5q0 -36 -29 -58.5t-76 -22.5z" />
    <glyph glyph-name="four.dnom" horiz-adv-x="261" 
d="M15 52v52q35 15 58 45t34.5 64.5t11.5 63.5h68q0 -44 -29 -92t-82 -81h170v-52h-231zM152 0v138h61v-138h-61z" />
    <glyph glyph-name="five.dnom" horiz-adv-x="249" 
d="M124 -13q-35 0 -58.5 12t-35.5 31t-15 38l60 8q1 -4 6.5 -13.5t16 -17.5t28.5 -8q22 0 34 14t14 31q2 18 -10 34t-38 16q-15 0 -23.5 -6t-12.5 -11.5t-4 -6.5l-64 10l15 146h184v-53h-142l-8 -77l7 9.5t23.5 19t42.5 9.5q48 0 70 -28t20 -63q-3 -35 -32 -64.5t-78 -29.5z
" />
    <glyph glyph-name="six.dnom" horiz-adv-x="254" 
d="M130 -13q-39 0 -64.5 19t-38 51.5t-12.5 73.5q0 38 14 71t41.5 54t65.5 21q32 0 51.5 -10.5t29.5 -23.5t14 -23l4 -10l-60 -12l-3 7t-12.5 14t-26.5 7q-11 0 -26.5 -9.5t-26.5 -32.5t-7 -65q0 3 7 15.5t24 24.5t45 12q46 0 68 -26t22 -58q0 -37 -27 -68.5t-82 -31.5z
M135 36q25 0 37 16.5t12 35.5t-12.5 34t-35.5 15q-24 0 -40 -18t-16 -42q5 -20 21 -30.5t34 -10.5z" />
    <glyph glyph-name="seven.dnom" horiz-adv-x="250" 
d="M60 0q0 85 31 137t87 73h-163v54h220v-53q-15 -7 -34.5 -19t-37.5 -35t-29.5 -61t-11.5 -96h-62z" />
    <glyph glyph-name="eight.dnom" horiz-adv-x="264" 
d="M131 -13q-49 0 -82.5 21.5t-33.5 60.5q0 28 18.5 48t50.5 26q-23 3 -34.5 14t-15.5 24t-4 20q0 35 28 55.5t73 20.5q47 0 74.5 -20.5t27.5 -55.5q0 -7 -3.5 -20t-15 -24t-35.5 -14q33 -6 51.5 -25.5t18.5 -48.5q0 -40 -34 -61t-84 -21zM132 35q27 0 43 12.5t16 32.5
q0 24 -16 35t-43 11t-43 -11t-16 -35q0 -20 16 -32.5t43 -12.5zM131 155q23 0 36.5 9.5t13.5 26.5q0 20 -14 29t-36 9t-35 -9t-13 -29q0 -17 13.5 -26.5t34.5 -9.5z" />
    <glyph glyph-name="nine.dnom" horiz-adv-x="256" 
d="M118 -13q-32 0 -51 10t-29.5 23t-14 23.5l-3.5 10.5l59 11l3.5 -6.5t12.5 -13.5t27 -7q11 0 26.5 9.5t26 32.5t7.5 65q-1 -2 -8 -15.5t-23.5 -25t-44.5 -11.5q-46 0 -68.5 26t-22.5 57q0 38 27.5 69.5t81.5 31.5q39 0 64.5 -19t38 -52t12.5 -73q0 -38 -14 -72t-41 -54
t-66 -20zM119 127q23 0 39 18t16 41q-4 21 -20.5 31t-33.5 10q-25 0 -37 -16t-12 -35t12 -34t36 -15z" />
    <glyph glyph-name="zero.numr" horiz-adv-x="268" 
d="M134 281q-60 0 -89.5 38.5t-29.5 106.5t28.5 106.5t90.5 38.5q61 0 90 -38.5t29 -106.5q0 -66 -29 -105.5t-90 -39.5zM134 329q33 0 49 23.5t16 73.5t-15.5 73t-49.5 23q-33 0 -48.5 -22t-15.5 -74q0 -50 15.5 -73.5t48.5 -23.5z" />
    <glyph glyph-name="one.numr" horiz-adv-x="188" 
d="M75 306v209q-5 -26 -18 -38.5t-25.5 -17.5t-16.5 -5v68q5 -1 20.5 0t29.5 11.5t16 37.5h55v-265h-61zM29 294v53h144v-53h-144z" />
    <glyph glyph-name="two.numr" horiz-adv-x="247" 
d="M15 294v50q9 4 32.5 15.5t50 28.5t46.5 39t22 46q3 23 -10 35t-34 12q-24 0 -38 -17.5t-8 -55.5l-56 8q-8 56 25 86t83 30q30 0 52.5 -12t35.5 -32t10 -46q-2 -24 -16.5 -46.5t-37.5 -41t-48.5 -30.5t-48.5 -17h157v-52h-217z" />
    <glyph glyph-name="three.numr" horiz-adv-x="250" 
d="M130 281q-52 0 -84 25.5t-31 76.5l58 9q0 -28 15.5 -44t43.5 -16q22 0 34.5 12t12.5 29q0 13 -6.5 22t-18 14t-24.5 5h-27v31h29q17 0 31 9t14 26q0 19 -13.5 30t-36.5 11q-17 0 -28.5 -7t-18 -18.5t-6.5 -23.5l-53 9q0 8 4.5 22.5t16.5 30.5t32.5 26.5t51.5 10.5
q50 0 77.5 -21.5t27.5 -57.5q0 -22 -13.5 -42t-41.5 -22q27 -2 43 -21.5t16 -44.5q0 -36 -29 -58.5t-76 -22.5z" />
    <glyph glyph-name="four.numr" horiz-adv-x="261" 
d="M15 346v52q35 15 58 45t34.5 64.5t11.5 63.5h68q0 -44 -29 -92t-82 -81h170v-52h-231zM152 294v138h61v-138h-61z" />
    <glyph glyph-name="five.numr" horiz-adv-x="249" 
d="M124 281q-35 0 -58.5 12t-35.5 31t-15 38l60 8q1 -4 6.5 -13.5t16 -17.5t28.5 -8q22 0 34 14t14 31q2 18 -10 34t-38 16q-15 0 -23.5 -6t-12.5 -11.5t-4 -6.5l-64 10l15 146h184v-53h-142l-8 -77l7 9.5t23.5 19t42.5 9.5q48 0 70 -28t20 -63q-3 -35 -32 -64.5t-78 -29.5z
" />
    <glyph glyph-name="six.numr" horiz-adv-x="254" 
d="M130 281q-39 0 -64.5 19t-38 51.5t-12.5 73.5q0 38 14 71t41.5 54t65.5 21q32 0 51.5 -10.5t29.5 -23.5t14 -23l4 -10l-60 -12l-3 7t-12.5 14t-26.5 7q-11 0 -26.5 -9.5t-26.5 -32.5t-7 -65q0 3 7 15.5t24 24.5t45 12q46 0 68 -26t22 -58q0 -37 -27 -68.5t-82 -31.5z
M135 330q25 0 37 16.5t12 35.5t-12.5 34t-35.5 15q-24 0 -40 -18t-16 -42q5 -20 21 -30.5t34 -10.5z" />
    <glyph glyph-name="seven.numr" horiz-adv-x="250" 
d="M60 294q0 85 31 137t87 73h-163v54h220v-53q-15 -7 -34.5 -19t-37.5 -35t-29.5 -61t-11.5 -96h-62z" />
    <glyph glyph-name="eight.numr" horiz-adv-x="264" 
d="M131 281q-49 0 -82.5 21.5t-33.5 60.5q0 28 18.5 48t50.5 26q-23 3 -34.5 14t-15.5 24t-4 20q0 35 28 55.5t73 20.5q47 0 74.5 -20.5t27.5 -55.5q0 -7 -3.5 -20t-15 -24t-35.5 -14q33 -6 51.5 -25.5t18.5 -48.5q0 -40 -34 -61t-84 -21zM132 329q27 0 43 12.5t16 32.5
q0 24 -16 35t-43 11t-43 -11t-16 -35q0 -20 16 -32.5t43 -12.5zM131 449q23 0 36.5 9.5t13.5 26.5q0 20 -14 29t-36 9t-35 -9t-13 -29q0 -17 13.5 -26.5t34.5 -9.5z" />
    <glyph glyph-name="nine.numr" horiz-adv-x="256" 
d="M118 281q-32 0 -51 10t-29.5 23t-14 23.5l-3.5 10.5l59 11l3.5 -6.5t12.5 -13.5t27 -7q11 0 26.5 9.5t26 32.5t7.5 65q-1 -2 -8 -15.5t-23.5 -25t-44.5 -11.5q-46 0 -68.5 26t-22.5 57q0 38 27.5 69.5t81.5 31.5q39 0 64.5 -19t38 -52t12.5 -73q0 -38 -14 -72t-41 -54
t-66 -20zM119 421q23 0 39 18t16 41q-4 21 -20.5 31t-33.5 10q-25 0 -37 -16t-12 -35t12 -34t36 -15z" />
    <glyph glyph-name="zero.subs" horiz-adv-x="268" 
d="M134 -151q-60 0 -89.5 38.5t-29.5 106.5t28.5 106.5t90.5 38.5q61 0 90 -38.5t29 -106.5q0 -66 -29 -105.5t-90 -39.5zM134 -103q33 0 49 23.5t16 73.5t-15.5 73t-49.5 23q-33 0 -48.5 -22t-15.5 -74q0 -50 15.5 -73.5t48.5 -23.5z" />
    <glyph glyph-name="one.subs" horiz-adv-x="188" 
d="M75 -127v209q-5 -26 -18 -38.5t-25.5 -17.5t-16.5 -5v68q5 -1 20.5 0t29.5 11.5t16 37.5h55v-265h-61zM29 -139v53h144v-53h-144z" />
    <glyph glyph-name="two.subs" horiz-adv-x="247" 
d="M15 -139v50q9 4 32.5 15.5t50 28.5t46.5 39t22 46q3 23 -10 35t-34 12q-24 0 -38 -17.5t-8 -55.5l-56 8q-8 56 25 86t83 30q30 0 52.5 -12t35.5 -32t10 -46q-2 -24 -16.5 -46.5t-37.5 -41t-48.5 -30.5t-48.5 -17h157v-52h-217z" />
    <glyph glyph-name="three.subs" horiz-adv-x="250" 
d="M130 -152q-52 0 -84 25.5t-31 76.5l58 9q0 -28 15.5 -44t43.5 -16q22 0 34.5 12t12.5 29q0 13 -6.5 22t-18 14t-24.5 5h-27v31h29q17 0 31 9t14 26q0 19 -13.5 30t-36.5 11q-17 0 -28.5 -7t-18 -18.5t-6.5 -23.5l-53 9q0 8 4.5 22.5t16.5 30.5t32.5 26.5t51.5 10.5
q50 0 77.5 -21.5t27.5 -57.5q0 -22 -13.5 -42t-41.5 -22q27 -2 43 -21.5t16 -44.5q0 -36 -29 -58.5t-76 -22.5z" />
    <glyph glyph-name="four.subs" horiz-adv-x="261" 
d="M15 -87v52q35 15 58 45t34.5 64.5t11.5 63.5h68q0 -44 -29 -92t-82 -81h170v-52h-231zM152 -139v138h61v-138h-61z" />
    <glyph glyph-name="five.subs" horiz-adv-x="249" 
d="M124 -150q-35 0 -58.5 12t-35.5 31t-15 38l60 8q1 -4 6.5 -13.5t16 -17.5t28.5 -8q22 0 34 14t14 31q2 18 -10 34t-38 16q-15 0 -23.5 -6t-12.5 -11.5t-4 -6.5l-64 10l15 146h184v-53h-142l-8 -77l7 9.5t23.5 19t42.5 9.5q48 0 70 -28t20 -63q-3 -35 -32 -64.5t-78 -29.5
z" />
    <glyph glyph-name="six.subs" horiz-adv-x="254" 
d="M130 -152q-39 0 -64.5 19t-38 51.5t-12.5 73.5q0 38 14 71t41.5 54t65.5 21q32 0 51.5 -10.5t29.5 -23.5t14 -23l4 -10l-60 -12l-3 7t-12.5 14t-26.5 7q-11 0 -26.5 -9.5t-26.5 -32.5t-7 -65q0 3 7 15.5t24 24.5t45 12q46 0 68 -26t22 -58q0 -37 -27 -68.5t-82 -31.5z
M135 -103q25 0 37 16.5t12 35.5t-12.5 34t-35.5 15q-24 0 -40 -18t-16 -42q5 -20 21 -30.5t34 -10.5z" />
    <glyph glyph-name="seven.subs" horiz-adv-x="250" 
d="M60 -139q0 85 31 137t87 73h-163v54h220v-53q-15 -7 -34.5 -19t-37.5 -35t-29.5 -61t-11.5 -96h-62z" />
    <glyph glyph-name="eight.subs" horiz-adv-x="264" 
d="M131 -152q-49 0 -82.5 21.5t-33.5 60.5q0 28 18.5 48t50.5 26q-23 3 -34.5 14t-15.5 24t-4 20q0 35 28 55.5t73 20.5q47 0 74.5 -20.5t27.5 -55.5q0 -7 -3.5 -20t-15 -24t-35.5 -14q33 -6 51.5 -25.5t18.5 -48.5q0 -40 -34 -61t-84 -21zM132 -104q27 0 43 12.5t16 32.5
q0 24 -16 35t-43 11t-43 -11t-16 -35q0 -20 16 -32.5t43 -12.5zM131 16q23 0 36.5 9.5t13.5 26.5q0 20 -14 29t-36 9t-35 -9t-13 -29q0 -17 13.5 -26.5t34.5 -9.5z" />
    <glyph glyph-name="nine.subs" horiz-adv-x="256" 
d="M118 -152q-32 0 -51 10t-29.5 23t-14 23.5l-3.5 10.5l59 11l3.5 -6.5t12.5 -13.5t27 -7q11 0 26.5 9.5t26 32.5t7.5 65q-1 -2 -8 -15.5t-23.5 -25t-44.5 -11.5q-46 0 -68.5 26t-22.5 57q0 38 27.5 69.5t81.5 31.5q39 0 64.5 -19t38 -52t12.5 -73q0 -38 -14 -72t-41 -54
t-66 -20zM119 -12q23 0 39 18t16 41q-4 21 -20.5 31t-33.5 10q-25 0 -37 -16t-12 -35t12 -34t36 -15z" />
    <glyph glyph-name="zero.sups" horiz-adv-x="268" 
d="M134 401q-60 0 -89.5 37.5t-29.5 101.5q0 62 28.5 100t90.5 38q61 0 90 -37.5t29 -100.5q0 -61 -29 -100t-90 -39zM134 449q33 0 49 23t16 68t-15.5 67t-50.5 22q-32 0 -47.5 -21.5t-15.5 -68.5q0 -44 15.5 -67t48.5 -23z" />
    <glyph glyph-name="five.sups" horiz-adv-x="249" 
d="M124 402q-35 0 -58.5 13t-35.5 31.5t-15 36.5l60 9q1 -4 6.5 -14t16 -17.5t28.5 -7.5q22 0 34 13.5t14 30.5q2 18 -10 34t-38 16q-15 0 -23.5 -6t-12.5 -11t-4 -6l-64 10l15 145h184v-52h-142l-8 -78l7 10t23.5 19t42.5 9q48 0 70.5 -28t19.5 -63t-32 -64.5t-78 -29.5z
" />
    <glyph glyph-name="six.sups" horiz-adv-x="254" 
d="M130 402q-58 0 -86.5 40t-28.5 97q0 37 14 68.5t41.5 51.5t65.5 20q32 0 51.5 -10t29.5 -22.5t14 -22.5l4 -10l-60 -10l-3 6t-12.5 12t-26.5 6q-11 0 -26.5 -8.5t-26.5 -30t-7 -62.5q0 3 7 15.5t24.5 24t45.5 10.5q38 0 59.5 -17.5t27.5 -43.5t-4 -52.5t-35.5 -44
t-67.5 -17.5zM135 452q24 0 36 13.5t12.5 31t-11 31t-35.5 14.5t-40.5 -15.5t-16.5 -38.5q5 -19 21 -27.5t34 -8.5z" />
    <glyph glyph-name="seven.sups" horiz-adv-x="250" 
d="M44 412q0 57 18 102t48.5 76t67.5 45h-163v54h220v-53q-15 -6 -37 -20.5t-43 -40t-35.5 -65.5t-14.5 -98h-61z" />
    <glyph glyph-name="eight.sups" horiz-adv-x="264" 
d="M131 401q-49 0 -82.5 21t-33.5 58q0 26 18.5 45t50.5 23q-23 4 -34.5 15t-15.5 23.5t-4 19.5q0 33 28 52.5t73 19.5q47 0 74.5 -20t27.5 -52q0 -7 -3.5 -19.5t-15 -23.5t-35.5 -15q33 -4 51.5 -22t18.5 -46q0 -38 -34 -58.5t-84 -20.5zM132 447q27 0 43 12t16 31
q0 23 -16 33.5t-43 10.5t-43 -10.5t-16 -33.5q0 -19 16 -31t43 -12zM131 562q23 0 36.5 9t13.5 25q0 19 -14 28t-36 9t-35 -9t-13 -28q0 -16 13.5 -25t34.5 -9z" />
    <glyph glyph-name="nine.sups" horiz-adv-x="256" 
d="M124 402q-34 0 -55 10t-32 23t-14.5 23l-3.5 10l59 12l3.5 -6t13.5 -12.5t29 -6.5q12 0 26 8t23.5 29.5t7.5 61.5q0 -2 -7 -14.5t-23.5 -24t-45.5 -11.5q-38 0 -60 17.5t-28 44t4 52.5t36 43.5t67 17.5q43 0 68.5 -19.5t37 -50.5t11.5 -67q-1 -37 -12.5 -69t-37 -51.5
t-67.5 -19.5zM119 538q25 0 39.5 15.5t15.5 38.5q-4 21 -18.5 30t-31.5 9q-19 0 -31 -9t-17 -22.5t-1.5 -27.5t14.5 -23.5t30 -10.5z" />
    <glyph glyph-name="hyphen_greater.dlig" horiz-adv-x="531" 
d="M496 183q-56 0 -91.5 19t-55 47t-28 56t-10.5 47t-2 20h72q0 -1 2.5 -16t13 -34t34 -33t65.5 -14v-92zM35 183v92h461v-92h-461zM309 86l2 19t10.5 48t28 56.5t55 46.5t91.5 19v-92q-43 0 -66 -14t-33.5 -33t-13 -33.5t-2.5 -16.5h-72z" />
    <glyph glyph-name="parenleft_greater.dlig" horiz-adv-x="657" 
d="M329 -16q-61 0 -114.5 23t-93.5 63t-63 93.5t-23 114.5q0 60 23 113t63 93.5t93.5 63.5t114.5 23t113.5 -23t93 -63.5t63.5 -93.5t23 -113q0 -61 -23 -114.5t-63.5 -93.5t-93.5 -63t-113 -23zM329 42q49 0 91.5 18.5t75 51t51 75t18.5 90.5q0 49 -18.5 92t-51 75t-75 51
t-91.5 19q-48 0 -91.5 -19t-76 -51t-51 -75t-18.5 -92q0 -48 18.5 -90.5t51 -75t76 -51t91.5 -18.5zM311 234l65 44l-65 41v-85zM257 141v268l202 -130z" />
    <glyph glyph-name="colon_parenleft.dlig" horiz-adv-x="657" 
d="M329 -14q-61 0 -114.5 23t-93.5 63t-63 93.5t-23 114.5q0 60 23 113t63 93.5t93.5 63.5t114.5 23q60 0 113 -23t93.5 -63.5t63.5 -93.5t23 -113q0 -61 -23 -114.5t-63.5 -93.5t-93.5 -63t-113 -23zM177 127q4 65 45 106t108 41q45 0 78 -19.5t53 -52.5t22 -75h-75
q0 4 -1.5 18t-9.5 30.5t-23.5 29.5t-43.5 13q-30 0 -46 -13t-23 -29.5t-8 -30.5t-1 -18h-75zM189 293v100h71v-100h-71zM329 44q48 0 91 18.5t75.5 50.5t51 75t18.5 91q0 49 -18.5 91.5t-51 75t-75 51t-91.5 18.5t-92 -18.5t-75 -50.5t-50.5 -75t-18.5 -92q0 -48 18.5 -91
t50.5 -75t75 -50.5t92 -18.5zM399 293v100h71v-100h-71z" />
    <glyph glyph-name="colon_parenright.dlig" horiz-adv-x="657" 
d="M329 -14q-61 0 -114.5 23t-93.5 63t-63 93.5t-23 114.5q0 60 23 113t63 93.5t93.5 63.5t114.5 23q60 0 113 -23t93.5 -63.5t63.5 -93.5t23 -113q0 -61 -23 -114.5t-63.5 -93.5t-93.5 -63t-113 -23zM330 105q-47 0 -81.5 21t-54.5 57.5t-23 80.5h75q0 -1 0.5 -11.5
t4 -25.5t12.5 -30.5t25 -25.5t42 -10q28 0 45 10.5t25 25.5t11 30.5t3 26v10.5h75q-2 -47 -22 -83t-55 -56t-82 -20zM189 293v100h71v-100h-71zM329 44q48 0 91 18.5t75.5 50.5t51 75t18.5 91q0 49 -18.5 91.5t-51 75t-75 51t-91.5 18.5t-92 -18.5t-75 -50.5t-50.5 -75
t-18.5 -92q0 -48 18.5 -91t50.5 -75t75 -50.5t92 -18.5zM399 293v100h71v-100h-71z" />
    <glyph glyph-name="periodcentered.case" horiz-adv-x="263" 
d="M127 221q-49 0 -65.5 24.5t-16.5 57.5q0 32 17 56.5t66 24.5q48 0 64 -24.5t16 -55.5q0 -34 -16 -58.5t-65 -24.5z" />
    <glyph glyph-name="bullet.case" horiz-adv-x="281" 
d="M127 221q-49 0 -65.5 24.5t-16.5 57.5q0 32 17 56.5t66 24.5q48 0 64 -24.5t16 -55.5q0 -34 -16 -58.5t-65 -24.5z" />
    <glyph glyph-name="hyphen.case" horiz-adv-x="317" 
d="M40 229v83h222v-83h-222z" />
    <glyph glyph-name="endash.case" horiz-adv-x="430" 
d="M40 229v83h335v-83h-335z" />
    <glyph glyph-name="emdash.case" horiz-adv-x="597" 
d="M40 229v83h502v-83h-502z" />
    <glyph glyph-name="parenleft.case" horiz-adv-x="345" 
d="M233 -141l-19.5 16t-48 48t-57 80t-48 111.5t-19.5 143.5q0 81 19.5 145.5t48 113t57 80t48 48l19.5 16.5l94 -93q-3 -3 -25 -16.5t-52.5 -37.5t-60.5 -60t-49.5 -84.5t-19.5 -111.5t21 -112.5t52 -85.5t61.5 -59t51.5 -34.5l21 -11.5z" />
    <glyph glyph-name="parenright.case" horiz-adv-x="335" 
d="M102 -141l-95 96l21 11.5t52 34.5t62 59t52 85.5t21 112.5q0 62 -20 111t-49.5 85t-60 60t-52.5 37.5t-26 16.5l95 93l19.5 -16.5t48.5 -48t57 -80t47.5 -113t19.5 -145.5q0 -80 -19.5 -143.5t-47.5 -111.5t-57 -80t-48.5 -48z" />
    <glyph glyph-name="braceleft.case" horiz-adv-x="368" 
d="M340 -138q-82 -16 -133 -9.5t-76.5 36t-29.5 81.5t9 126q6 41 -1 63t-21 31.5t-30 11.5t-27 2v116q11 0 27 2.5t30 11.5t21 31.5t1 62.5q-12 74 -8.5 124.5t29 79t76.5 35.5t133 -6v-112q-55 12 -81 6.5t-33 -24.5t-3.5 -45t7.5 -56q8 -48 1.5 -83t-32 -56.5t-77.5 -29.5
q52 -7 77.5 -28t32 -56t-1.5 -83q-4 -29 -7.5 -56t3.5 -45.5t33 -24t81 6.5v-113z" />
    <glyph glyph-name="braceright.case" horiz-adv-x="379" 
d="M39 -138v113q55 -12 81 -6.5t33 24t3.5 45.5t-7.5 56q-8 48 -2 83t32 56t78 28q-52 8 -78 29.5t-31.5 56.5t1.5 83q4 30 7.5 56t-3.5 45t-33 24.5t-81 -6.5v112q92 6 144 -2t74.5 -34.5t23.5 -74.5t-12 -122q-6 -40 1 -62.5t21 -31.5t30 -11.5t27 -2.5v-116q-11 0 -27 -2
t-30 -11.5t-21 -31.5t-1 -63q13 -74 12.5 -122.5t-23 -75t-75 -34.5t-144.5 -2z" />
    <glyph glyph-name="bracketleft.case" horiz-adv-x="307" 
d="M35 -141v802h254v-112h-134v-577h134v-113h-254z" />
    <glyph glyph-name="bracketright.case" horiz-adv-x="310" 
d="M35 -141v113h135v577h-133v112h253v-802h-255z" />
    <glyph glyph-name="less_hyphen.dlig" horiz-adv-x="578" 
d="M35 183v92q43 0 66 14t34 33t13 34t2 16h72q0 -1 -2 -20t-10.5 -47t-28 -56t-55 -47t-91.5 -19zM496 183h-461v92h461v-92zM222 86h-72q0 2 -2 16.5t-13 33.5t-34 33t-66 14v92q56 0 91.5 -19t55 -46.5t28 -56.5t10.5 -48z" />
    <glyph glyph-name="less_three.dlig" horiz-adv-x="497" 
d="M246 0q-59 21 -104.5 59t-76 85t-43.5 94.5t-6.5 87.5t35 64.5t81.5 24.5q51 0 77 -32t36 -78q10 50 39 80t74 30q55 0 84.5 -24.5t36 -65t-7 -88t-44.5 -94.5t-77 -84.5t-104 -58.5zM244 97q30 10 52.5 29t39 42t23.5 46.5t5.5 43.5t-15 32t-38.5 12q-19 0 -30 -12.5
t-15.5 -32t-6 -40t-1.5 -36.5h-25q0 16 -2 37t-8 40.5t-16.5 31.5t-28.5 12q-25 0 -37.5 -12t-14 -32t6.5 -44t24 -47t38 -42t49 -28z" />
    <glyph glyph-name="plus.case" horiz-adv-x="408" 
d="M163 133v293h83v-293h-83zM57 238v82h294v-82h-294z" />
    <glyph glyph-name="minus.case" horiz-adv-x="408" 
d="M93 238v82h222v-82h-222z" />
    <glyph glyph-name="equal.case" horiz-adv-x="408" 
d="M37 317v79h335v-79h-335zM37 168v79h335v-79h-335z" />
    <glyph glyph-name="notequal.case" horiz-adv-x="408" 
d="M63 100l163 364h113l-163 -364h-113zM45 167v79h318v-79h-318zM45 316v79h318v-79h-318z" />
    <glyph glyph-name="greater.case" horiz-adv-x="408" 
d="M36 462l337 -181l-337 -181v95l251 86l-251 88v93z" />
    <glyph glyph-name="less.case" horiz-adv-x="408" 
d="M373 462v-93l-251 -88l251 -86v-95l-337 181z" />
    <glyph glyph-name="asciitilde.case" horiz-adv-x="408" 
d="M214 298q12 -15 23.5 -25.5t27.5 -10.5q15 0 19 14t-4 39t-29 58h113q16 -23 21.5 -53t-1.5 -58.5t-28.5 -48t-59.5 -19.5q-25 0 -43 13t-31.5 31.5t-27.5 33.5zM194 272q-11 15 -22.5 25t-27.5 10q-15 0 -19 -14.5t4.5 -39.5t29.5 -57h-113q-16 22 -21.5 52t1 59t28 48
t59.5 19q24 0 41.5 -12t32 -30t27.5 -34z" />
    </font>
</defs>
</svg>
